#TITLE:Butter;
#ARTIST:BTS;
#BANNER:Butter-bn.png;
#BACKGROUND:Butter-bg.png;
#JACKET:Butter-jacket.png;
#MUSIC:Butter.ogg;
#SAMPLESTART:4.343;
#SAMPLELENGTH:20;
#DISPLAYBPM:110;
#BPMS:0=110;
#STOPS:22.5=0.545,134.75=0.025;
#BGCHANGES:;

//---------------dance-single - ----------------
#NOTES:
     dance-single:
     :
     Beginner:
     3:
     :
0000
0000
0000
0000
,
0000
0000
0000
0000
,
1000
0000
1000
0000
,
0001
0000
0001
0000
,
0100
0000
0010
0000
,
0100
0000
0110
1000
,
0000
0100
0000
1000
,
0000
0001
0000
0010
,
0000
0001
0000
0100
,
0000
1001
0000
0000
,
0001
0000
0001
0000
,
1000
0000
1000
0000
,
0010
0000
0100
0000
,
0000
0110
0000
0001
,
0000
1000
0000
0100
,
0000
0000
0000
1000
,
0000
0001
0000
0100
,
0000
1001
0000
0010
,
0010
0010
0000
0100
,
0100
0100
0000
0001
,
0000
1000
0000
0010
,
0000
0100
0000
0001
,
0000
0001
0000
1000
,
0000
1000
0000
0010
,
0000
1000
0000
0100
,
0000
0110
0000
0010
,
0000
0001
0000
0010
,
0000
0100
0000
1000
,
0000
0001
0000
1000
,
0000
1001
0000
0000
,
0010
0000
0010
0000
,
0100
0000
0100
0000
,
0001
0000
1000
0000
,
0000
1001
0000
0100
,
0000
1000
0000
0010
,
0000
1000
0000
0001
,
0000
0010
0000
0100
,
0000
0110
0000
0001
,
0001
0001
0000
1000
,
1000
1000
0000
0010
,
0000
1000
0000
0001
,
0000
0100
0000
1001
,
0000
0110
0000
1000
,
1000
1000
0000
1001
,
0000
0110
0000
0001
,
0001
0001
0000
0010
,
0000
0110
0000
0100
,
0000
1001
0000
1000
,
0000
0001
0000
1000
,
0000
0100
0100
0000
;

//---------------dance-single - ----------------
#NOTES:
     dance-single:
     :
     Easy:
     7:
     :
0000
0000
0000
0000
,
0000
0000
0000
0000
,
0010
1000
1001
0100
,
0010
0001
0110
0100
,
1000
0001
0110
0010
,
1000
0100
1001
1000
,
0001
0011
0100
1000
,
0010
1010
0001
0100
,
0010
0101
1000
0001
,
1000
1100
0100
1000
,
0010
1000
0001
0010
,
0100
1000
0110
0000
,
1001
0001
0100
0002
,
2003
3002
0103
1010
,
0001
1000
0100
0110
,
0000
0002
1003
0011
,
1000
0001
0100
0010
,
1000
1010
0000
0100
,
1000
1100
0010
1000
,
0001
0101
0000
1001
,
0001
1000
0010
0100
,
0101
1100
0101
1000
,
0001
1001
0000
0100
,
0010
0110
0000
1010
,
1000
0001
0000
0010
,
0100
1100
0101
0010
,
0001
0011
1000
0010
,
0100
0101
0000
0010
,
0100
0110
0001
0010
,
1000
1100
0100
0000
,
1000
0010
0001
0000
,
0100
0010
1001
0000
,
1000
0100
0010
0002
,
2003
3002
0103
1010
,
0001
1000
0010
0101
,
0001
1000
0100
0110
,
0010
0001
0100
1000
,
1001
0101
0000
0001
,
0010
0011
1000
0001
,
0100
1010
0100
0110
,
0001
1000
0100
1001
,
0101
1100
0101
0010
,
1010
0010
0011
0100
,
0001
0110
0000
0100
,
0101
0100
1100
0001
,
1000
1001
0000
0010
,
1000
0002
0003
0010
,
0100
2000
3000
0002
,
1003
1010
0100
0001
,
0101
1100
0101
0000
;

//---------------dance-single - ----------------
#NOTES:
     dance-single:
     :
     Medium:
     10:
     :
0000
0000
0000
0000
,
0000
0000
0000
0000
,
1001
0000
0000
0000
0110
0000
0000
0000
1000
0001
0000
0000
0110
0000
0000
0000
,
0010
0000
1000
0000
0001
0000
1000
0000
0010
0100
0000
0000
1001
0000
0000
0000
,
1100
0000
0000
0000
0101
0000
0000
0000
0100
0010
0000
0000
1000
0000
0100
0000
,
1000
0001
0100
0100
0100
0110
1010
0000
,
0101
0000
0000
0000
0010
0001
0000
0000
0100
0000
0010
0000
1000
0000
0100
0000
,
1000
0000
0001
0000
0001
0100
0000
0000
1001
0000
0000
0000
1100
0000
0000
0000
,
0011
0000
0000
0000
1000
0100
0000
0000
1000
0000
0001
0000
0100
0000
0001
0000
,
0010
0010
0010
0001
0100
0000
0000
0010
,
1000
0100
1000
0001
0100
0010
0000
1000
,
0010
1000
0100
0010
0022
0000
0030
1003
,
0001
0010
0001
1000
0010
0100
0002
0203
,
2300
0000
3200
0000
0302
0000
0013
0000
0010
0000
0010
0000
0120
0000
0000
0001
,
0000
0031
0000
0000
2000
0000
0000
0010
0000
3100
0000
0000
0001
1000
0000
0000
,
0000
0000
0010
0100
0020
0000
0000
1030
0000
0000
0001
0000
0020
0000
0000
0100
,
0000
0130
0000
0000
0002
0000
0000
1000
0000
0103
0000
0000
0010
0000
1000
0000
,
1010
0001
0100
0000
1001
0000
0010
1000
,
0100
0001
0001
0000
0010
0001
1000
0001
,
0100
0000
0010
0000
0010
0000
0000
0000
0101
0000
0000
0000
2100
0000
0000
0001
,
0000
3001
0000
0000
2000
0000
0000
0100
0000
3010
0000
0000
0101
0000
0000
0000
,
1000
0001
0000
0000
0100
0010
0000
0000
0110
0000
0000
0000
1001
0000
0000
0000
,
0110
0000
0000
0000
0001
1000
0000
0000
0000
0000
0000
0000
0010
0000
1000
0000
,
0100
0000
1000
0000
0001
0100
0000
0000
0000
0000
0010
0000
1010
0000
0000
0000
,
0011
0000
0000
0000
0000
0000
0000
0000
0000
0000
0000
0000
1000
0000
0000
0000
0001
0000
0000
0000
0000
0000
0000
0000
0000
0000
0000
0000
0000
0000
0100
0000
0000
0010
0000
0000
0000
0000
0000
0100
0000
0000
0010
0000
0000
0000
0000
0000
,
1000
0001
0020
0100
0230
0000
1300
0000
,
1010
0000
0000
0000
0100
0001
0000
0000
0010
0000
0001
0000
0010
0000
0100
0000
,
1000
0000
0010
0000
1000
0001
0000
0000
0000
0100
0001
0000
0011
0000
0000
0000
,
1100
0000
0000
0000
0000
0000
0010
0000
0100
0000
0000
0000
0101
0000
0000
0000
0000
0000
1000
0000
0000
0001
0000
0000
,
0010
0001
1000
0001
0100
0000
0000
0001
,
0010
0001
0100
0010
1000
0001
0000
1000
,
0100
0010
0001
1000
2200
0000
0300
3010
,
1000
0010
1000
0100
0010
0001
2000
3200
,
0302
0000
0203
0000
2300
0000
3010
0000
0010
0000
0010
0000
0120
0000
0000
1000
,
0000
0031
0000
0000
2000
0000
0000
0100
0000
3010
0000
0000
1100
0000
0000
0000
,
0002
0000
0000
2003
0000
0000
3010
0000
1000
0000
0001
0000
0012
0000
0000
1000
,
0000
0013
0000
0000
0102
0000
0000
0103
0000
0001
0000
0000
1000
0000
0001
0000
,
0010
0000
0001
0000
0200
0000
0000
0310
0000
0000
0000
0000
1000
0000
0001
0000
,
1000
0100
0010
0000
0011
0001
1000
0001
,
0100
0000
0010
0000
0110
0000
0000
0000
1000
0000
0100
0000
2100
0000
0000
0010
,
0000
3001
0000
0000
1002
0000
0000
0100
0000
1003
0000
0000
0010
0100
0000
0000
,
0010
0100
0000
0000
0010
0100
0000
0000
0110
0000
0000
0000
1000
0000
1000
0000
,
2010
0000
3001
0001
0012
0000
0103
0010
,
1000
0001
0010
0100
1000
0000
0010
0010
,
2001
0000
3100
0100
1002
0000
0013
0001
,
1000
0001
0100
0010
1000
0000
0100
1000
,
0001
0000
0100
0010
0100
0000
0000
0000
0110
0000
0000
0000
0001
0000
1000
0000
,
0010
0000
1000
0100
1000
0000
0000
0000
1001
0000
0000
0000
0010
0000
1000
0000
,
1100
0000
0010
0001
0101
0000
1001
0000
,
1000
0001
0000
0000
0100
0010
0000
0000
0110
0000
0000
0000
0000
0000
0000
0000
;

//---------------dance-single - ----------------
#NOTES:
     dance-single:
     :
     Hard:
     13:
     :
0000
0000
0000
0000
,
0000
0000
0000
0000
,
1100
0000
0000
0000
0101
0000
0000
0000
1000
0100
0000
0000
0001
0000
0010
0100
,
0000
0100
0010
0000
0001
0000
0100
0000
0001
1000
0000
0000
0010
0100
0000
0000
,
1010
0000
0000
0000
0011
0000
0000
0000
1000
0010
0000
0000
0100
0000
0001
1000
,
0000
1000
0001
0000
0100
0000
0100
0000
1001
0000
0110
0000
1010
0000
0000
0000
,
0101
0000
0000
0000
0001
0010
0000
0000
0100
0000
1000
0010
0000
0010
1000
0000
,
0100
0000
0010
0000
0001
1000
0000
0000
0110
0000
0000
0010
1000
0000
0000
0000
,
1100
0000
0000
0000
0001
0100
0000
0000
0010
0000
1000
0100
0000
0100
1000
0000
,
0001
0000
0011
0000
1001
0000
1000
0001
0100
0000
0000
0000
0010
0000
1000
0000
,
1000
0000
0100
0010
0000
0010
0001
0000
0001
0000
0100
0000
0010
0000
0100
0000
,
0100
0000
0001
1000
0000
1000
0010
0000
0101
0000
0000
0001
1000
0000
0100
0000
,
0100
0000
0010
0001
0000
0001
1000
0000
0010
0000
0100
0000
0002
0000
0203
0000
,
2300
0000
3200
0000
0302
0000
1003
0001
0010
0001
1000
0000
1100
0000
0000
1000
,
0000
0001
0000
0000
0011
0000
0000
0010
0000
0100
0000
0000
1000
0001
0000
0000
,
0010
0000
0001
0100
0002
0000
0000
1003
0000
0000
0100
0000
1010
0000
0000
0001
,
0000
0100
0000
0000
1001
0000
0000
0010
0000
1000
0000
0000
0001
1000
0100
0000
,
0110
0000
0000
0010
0001
0000
0000
0100
0010
0000
0000
1000
0000
1000
0100
0000
,
0010
0000
0011
0000
0011
0000
0000
0000
0001
0100
0000
0001
0000
1000
0100
0000
,
1000
0000
1010
0000
1010
0000
0000
0000
0010
0000
0100
0000
0110
0000
0000
0010
,
0000
0001
0000
0000
1001
0000
0000
1000
0000
0100
0000
0000
1000
0001
0000
0000
,
0010
0001
0000
0000
0100
0001
0000
0000
0110
0000
0000
0000
1010
0000
0000
0000
,
1100
0000
0000
0000
1000
0001
0000
0000
1001
0000
0000
0010
0000
0010
0100
0000
,
0001
0000
1000
0000
0001
0100
0000
0000
0110
0000
0001
0000
0011
0000
0000
0000
,
0101
0000
0000
0000
0100
0010
0000
0000
1000
0010
1000
0001
0000
0001
0100
0000
,
0110
0000
0100
0000
0001
0010
1000
0001
0100
1000
0000
0000
1001
0000
0000
0000
,
0110
0000
0000
0000
0010
1000
0000
0000
0100
0000
0010
0001
0000
0001
0100
0000
,
0010
0000
1000
0000
0100
1000
0000
0000
0001
1000
0010
0000
0101
0000
0000
0000
,
1001
0000
0000
0000
0000
0000
0000
0000
0000
0000
0000
0000
0010
0000
0000
0000
0100
0000
0000
0000
0000
0000
0000
0000
1010
0000
0000
0000
0000
0000
0000
0000
0000
0100
0000
0000
0000
0000
0000
0100
0000
0000
1000
0000
0000
0000
0000
0000
,
0001
0000
0100
0000
0101
0000
1000
0001
0100
0000
0000
0000
0001
0000
1000
0000
,
1000
0000
0010
0100
0000
0100
0001
0000
0010
0000
0100
0000
1000
0000
0010
0000
,
0010
0000
0100
0001
0000
0001
1000
0000
1100
0000
0000
0100
0010
0000
0100
0000
,
0100
0000
1000
0001
0000
0001
0010
0000
0001
0000
1000
0000
0002
0000
0203
0000
,
2300
0000
3200
0000
0302
0000
1003
0001
0010
0001
1000
0000
0011
0000
0000
1000
,
0000
0001
0000
0000
1010
0000
0000
0010
0000
0100
0000
0000
0001
1000
0000
0000
,
0001
0100
0000
1000
0000
1100
0000
0110
0000
0011
0000
0000
0100
0010
0000
1000
,
0000
1000
0000
0000
0100
0010
0000
0001
0000
0001
0000
0000
1000
0001
0100
0000
,
0010
1000
0000
0001
0200
0000
0000
0310
0000
0000
1000
0001
0000
1000
0001
0000
,
0100
0000
0110
0000
0110
0000
0000
0000
1000
0001
0000
0010
0000
0001
0100
0000
,
0010
0000
1000
0000
0100
1000
0001
0000
0100
0000
0010
0000
1010
0000
0000
1000
,
0000
0001
0000
0000
0011
0000
0000
0010
0000
0100
0000
0000
1000
0001
0000
0000
,
0010
0001
0000
0000
0100
0001
0000
0000
0110
0000
0000
0000
1001
0000
1100
0000
,
0001
1000
0000
0000
1001
0000
0011
0000
1000
0001
0000
0000
0100
0000
0010
0000
,
0010
0000
1000
0001
0000
1000
0100
0000
0010
0000
0001
0000
0101
0000
1100
0000
,
0010
0100
0000
0000
1010
0000
0011
0000
0100
0010
0000
0000
1000
0000
0001
0000
,
0001
0000
0010
0100
0000
0100
1000
0000
1001
0000
0000
0000
1000
0100
1000
0100
,
0010
0000
0001
0100
0002
0000
2003
0000
3200
0000
0000
0000
0310
0001
0010
0001
,
1000
0000
0100
1000
0200
0000
0320
0000
0032
0000
0000
0000
0103
0010
0000
0000
,
1000
0001
0000
0000
0010
0100
0000
0000
0001
0000
1000
0000
0010
0000
1000
0001
,
1000
0100
0000
0000
0010
0001
0000
0000
0100
0010
1000
0001
0000
0000
0000
0000
;
