#VERSION:0.83;
#TITLE:Burning Love;
#SUBTITLE:;
#ARTIST:Elvis Presley;
#TITLETRANSLIT:;
#SUBTITLETRANSLIT:;
#ARTISTTRANSLIT:;
#GENRE:;
#ORIGIN:;
#TAGS:;
#CREDIT:;
#BANNER:Burning Love-bn.png;
#BACKGROUND:Burning Love-bg.png;
#PREVIEWVID:;
#JACKET:Burning Love-jacket.png;
#CDIMAGE:;
#DISCIMAGE:;
#LYRICSPATH:;
#CDTITLE:;
#MUSIC:Burning Love.ogg;
#OFFSET:0.000000;
#SAMPLESTART:87.000000;
#SAMPLELENGTH:20.000000;
#SELECTABLE:YES;
#DISPLAYBPM:140.000000:147.000000;
#BPMS:0.000000=143.000000,
4.000000=140.000000,
12.000000=146.000000,
24.000000=143.333328,
40.000000=142.000000,
56.000000=141.000000,
68.000000=145.000000,
88.000000=143.500000,
104.000000=141.699997,
120.000000=143.750000,
136.000000=142.222229,
152.000000=144.500000,
168.000000=141.234573,
176.000000=142.572998,
184.000000=144.300003,
196.000000=140.712997,
204.000000=143.500000,
220.000000=147.000000,
224.000000=145.300003,
228.000000=143.656998,
232.000000=142.100006,
248.000000=144.000000,
256.000000=146.699997,
264.000000=143.666672;
#STOPS:;
#DELAYS:;
#WARPS:;
#TIMESIGNATURES:0.000000=4=4;
#TICKCOUNTS:0.000000=4;
#COMBOS:0.000000=1;
#SPEEDS:0.000000=1.000000=0.000000=0;
#SCROLLS:0.000000=1.000000;
#FAKES:;
#LABELS:0.000000=Song Start;
#BGCHANGES:;
#KEYSOUNDS:;
#ATTACKS:
;

//---------------dance-single - ----------------
#NOTEDATA:;
#CHARTNAME:;
#CHARTHASH:0:
#STEPSTYPE:dance-single;
#BANNER:;
#DESCRIPTION:;
#CHARTSTYLE:;
#DIFFICULTY:Hard;
#METER:12;
#METERF:0.000000;
#RADARVALUES:0.563650,0.564803,0.225921,0.161372,0.040343,489.000000,461.000000,28.000000,20.000000,0.000000,0.000000,0.000000,0.000000,0.000000,0.563650,0.564803,0.225921,0.161372,0.040343,489.000000,461.000000,28.000000,20.000000,0.000000,0.000000,0.000000,0.000000,0.000000;
#CREDIT:;
#DISPLAYBPM:140.000000:147.000000;
#NOTES:
0000
0000
0000
0000
,
0000
0000
0000
0000
,
0000
0000
0000
0000
,
0000
0000
0000
0000
,
0110
0000
0010
1000
0000
0001
0010
0100
,
1000
0000
0001
0200
0000
0310
1000
0001
,
0010
0100
1000
0001
0000
1000
0100
0010
,
0000
1000
0100
0001
0000
0001
0100
0010
,
1000
0100
0010
0002
0000
0103
0010
0000
,
1000
0001
1000
0010
0000
0100
0001
1000
,
0100
0001
0100
0010
0000
0001
0100
1000
,
0000
0001
0100
1000
0000
0100
1000
0001
,
1010
0101
1010
0101
,
1000
0001
1000
0200
0000
0310
0001
1000
,
0010
0100
0010
0001
0000
1000
0010
0100
,
0000
0001
0010
1000
0000
1000
0010
0100
,
0001
0010
0100
2000
0000
3010
0100
0000
,
0001
1000
0001
0011
0000
0010
0100
1000
,
0001
0100
0010
1000
0100
0001
0100
0010
,
0100
0000
1000
0000
1000
0000
1000
0001
1000
0000
0001
0100
0001
0000
0010
0000
,
1001
0000
1001
0000
1001
0000
0010
0001
,
0100
0010
0010
0010
1000
0001
1000
0100
,
0110
0000
0110
0000
0110
0000
0001
1000
,
0001
0100
0010
1000
0100
0010
0010
0001
,
0101
0000
0101
0000
0101
0000
1000
0001
,
0100
0010
1000
0001
0010
0100
1000
1000
,
0001
0100
0010
0100
0000
0100
0010
0100
,
0001
0010
0100
0010
1000
0010
0001
0100
,
0020
1000
1030
0000
0002
0100
0103
0000
,
0001
0000
0100
0000
0010
0000
0100
0000
1000
0000
0100
0000
0001
1000
0001
1000
,
0002
0010
0013
0000
2000
0100
3100
0000
,
0010
0000
1000
0000
0100
0000
0010
0000
0001
1000
0001
1000
0001
0000
0100
0000
,
0020
1000
1030
0000
0200
0001
0301
0000
,
1000
0010
0100
0001
0100
0010
1000
0001
,
0100
0010
1000
1010
0000
1000
0001
0010
,
0001
1000
0010
1000
0100
1000
0010
0100
,
0001
0010
0100
1000
0010
0100
0001
0000
,
1000
0001
1000
0200
0000
0310
0001
1000
,
0010
0100
0010
1000
0000
0001
0100
0010
,
0000
0100
1000
0100
0000
0001
1000
0010
,
0200
0000
0310
0001
1000
0010
0100
0000
,
0001
1000
0001
0200
0000
0310
1000
0002
,
0000
1003
0001
0100
0000
0100
0010
0100
,
0000
0100
0001
0010
0000
0010
0001
0100
,
0010
1000
0100
0010
0001
0100
1000
0000
,
0001
1000
0010
2000
0000
3100
0010
0001
,
0100
0010
1000
0010
0000
0010
0100
0001
,
0000
1000
0010
0100
0000
1000
0010
0001
,
0200
0000
0301
2000
0000
3100
0010
0000
,
0001
0100
0010
2000
0000
3001
0000
0100
,
0010
1000
0001
0010
0000
0010
0001
0100
,
0001
0001
0010
0010
0100
0100
1000
1000
,
1010
0000
1010
0000
1010
0000
0001
1000
,
0010
0100
0100
0001
0010
1000
1000
1000
,
1100
0000
1100
0000
1100
0000
0010
0100
,
0001
0100
0100
0100
0001
1000
0100
0010
,
0011
0000
0011
0000
0011
0000
0100
0001
,
1000
0000
0010
0000
0100
0000
0001
0000
1000
0010
1000
0010
1000
0000
0001
0000
,
0010
0100
1000
0101
0000
0001
0010
0100
,
1000
0010
1000
0001
0010
0100
1000
0001
,
0100
0000
0010
1000
0001
0001
0010
0100
,
1000
0010
1000
0000
1000
0100
0100
0010
,
0001
0001
1000
1000
0001
0010
0100
1000
,
0010
0100
0102
0000
1003
0001
0001
0100
,
0010
0010
1000
1000
0001
1000
0100
0010
,
0001
0100
0010
2001
0000
3100
1000
0001
,
0010
0010
0100
0100
0010
0001
1000
0010
,
1000
0100
0010
0001
0100
0010
1000
0001
,
1000
1000
0100
0100
1000
0001
0010
0100
,
1000
0000
0010
0000
1000
0000
0001
0000
0100
0010
0100
0010
0100
0000
0001
0000
,
0010
0000
0000
0000
;

//---------------dance-single - ----------------
#NOTEDATA:;
#CHARTNAME:;
#CHARTHASH:0:
#STEPSTYPE:dance-single;
#BANNER:;
#DESCRIPTION:;
#CHARTSTYLE:;
#DIFFICULTY:Medium;
#METER:10;
#METERF:0.000000;
#RADARVALUES:0.446079,0.451842,0.467980,0.193647,0.000000,387.000000,329.000000,58.000000,24.000000,0.000000,0.000000,0.000000,0.000000,0.000000,0.446079,0.451842,0.467980,0.193647,0.000000,387.000000,329.000000,58.000000,24.000000,0.000000,0.000000,0.000000,0.000000,0.000000;
#CREDIT:;
#DISPLAYBPM:140.000000:147.000000;
#NOTES:
0000
0000
0000
0000
,
0000
0000
0000
0000
,
0000
0000
0000
0000
,
0000
0000
0000
0000
,
1001
0000
0010
0000
1000
0100
0001
0000
,
0110
0000
0001
0000
0100
0010
1000
0000
,
0001
0100
0010
0000
1000
0000
1100
0000
,
0001
0101
1000
1100
,
0002
0000
1003
0010
0000
0100
0001
0000
,
0010
0100
1000
0000
0001
0000
0100
0010
,
1000
1010
0001
0011
,
1000
1010
0001
0011
,
2000
3200
0320
0032
,
0103
0010
1000
0000
0001
0010
0100
0000
,
1000
0001
0010
0000
0100
0000
1100
0000
,
0001
0101
1000
1100
,
0002
0000
0013
0100
0000
1000
0001
0000
,
1000
0010
0100
0000
0001
0010
0100
0000
,
1000
0001
0100
0000
0010
0000
1010
0000
,
0001
0011
1000
1010
,
1001
0000
0110
0000
1001
0000
0100
0010
,
0000
1000
0001
0000
0010
0100
1000
0000
,
1100
0000
0101
0000
1100
0000
0001
0100
,
0000
0010
1000
0000
0100
0010
0001
0000
,
0011
0000
1010
0000
0011
0000
0100
0010
,
0000
1000
0001
0000
0020
0000
0130
1000
,
0001
0011
1000
1100
,
0001
0101
1000
1010
,
0002
0000
2000
3003
,
0010
1000
0100
0010
0001
0100
1000
0000
,
0020
0000
0200
0330
,
0001
0100
0001
0010
0100
1000
0010
0000
,
2000
0000
0002
3003
,
0100
0010
1000
0000
0002
0000
0013
0100
,
0000
1000
0001
0200
0000
0000
0310
0000
,
1000
1100
0001
0011
,
0100
0010
0100
0000
0001
0010
1000
0000
,
0001
0100
0001
0000
0010
0100
1000
0000
,
0001
1000
0010
0000
0100
0000
0101
0000
,
0010
1010
1000
1100
,
0200
0000
0310
0001
0000
1000
0100
0000
,
1000
0010
0100
0000
0001
0000
0010
0100
,
1000
1010
0001
0101
,
1000
1010
0001
0101
,
0010
0001
0100
1000
0000
0000
0000
0000
,
0010
0000
1000
0001
0000
1000
0100
0000
,
0010
0001
0100
0000
1000
0000
1010
0000
,
0001
0011
0100
0101
,
2000
0000
3020
0000
0130
0001
1000
0000
,
0001
1000
0010
0000
1000
0100
0010
0000
,
0100
0010
0001
0000
1000
0000
1010
0000
,
0001
0101
1000
1100
,
1001
0000
0110
0000
1001
0000
0010
1000
,
0000
0001
0100
0000
0001
0010
1000
0000
,
1100
0000
0011
0000
1100
0000
0010
0100
,
0000
0001
1000
0000
0100
0010
0001
0000
,
0101
0000
1010
0000
0101
0000
1000
0001
,
0000
0010
0100
0000
2000
0000
3010
0100
,
0001
0010
0100
2000
0000
0000
3000
0010
,
0200
0000
0300
0000
0002
0000
1003
0001
,
0010
0000
0010
0000
0001
0100
0000
0110
,
0000
0000
2000
0000
0000
3010
0100
0010
,
1000
0001
1000
0001
0100
0010
0100
0010
,
0000
0000
1010
0000
0001
1000
0010
0100
,
0001
0010
0001
0010
0100
1000
0100
1000
,
0000
0011
0000
1200
0000
0301
0100
1000
,
0010
0100
0010
0100
0001
1000
0001
1000
,
0000
0000
0101
0000
0001
0100
0010
1000
,
0100
0010
0100
0010
0001
1000
0001
1000
,
0010
0000
0100
0000
0001
1000
0001
1000
,
1001
0000
0000
0000
;

//---------------dance-single - ----------------
#NOTEDATA:;
#CHARTNAME:;
#CHARTHASH:0:
#STEPSTYPE:dance-single;
#BANNER:;
#DESCRIPTION:;
#CHARTSTYLE:;
#DIFFICULTY:Easy;
#METER:7;
#METERF:0.000000;
#RADARVALUES:0.289318,0.395362,0.258196,0.112961,0.000000,251.000000,219.000000,32.000000,14.000000,0.000000,0.000000,0.000000,0.000000,0.000000,0.289318,0.395362,0.258196,0.112961,0.000000,251.000000,219.000000,32.000000,14.000000,0.000000,0.000000,0.000000,0.000000,0.000000;
#CREDIT:;
#DISPLAYBPM:140.000000:147.000000;
#NOTES:
0000
0000
0000
0000
,
0000
0000
0000
0000
,
0000
0000
0000
0000
,
0000
0000
0000
0000
,
0001
0100
1000
1000
,
0010
1000
0100
0010
,
0001
0100
0000
0100
,
0000
0100
0000
0100
,
0010
1000
0100
0000
,
1000
0010
0100
0001
,
0010
0100
0000
0100
,
0000
0100
0000
0100
,
1000
0001
1000
0001
,
0010
0001
0100
1000
,
0010
0100
0000
0100
,
0000
0100
0000
0100
,
0001
1000
0100
0000
,
1000
0010
0100
0001
,
1000
0100
0000
0100
,
0000
0100
1000
0001
,
1001
1001
1001
1001
,
0010
1000
0100
0010
,
0110
0110
0110
0110
,
0001
0100
0001
0010
,
1001
1001
0110
0110
,
1000
0010
0100
0001
,
0010
0100
0000
0100
,
0000
0100
0000
0100
,
2000
0000
3002
0000
,
0203
0000
0010
0310
,
0002
0000
2003
0000
,
3020
0000
0100
0130
,
0020
0000
0230
0000
,
0302
0000
1003
0001
,
0100
0020
0000
0000
,
1030
0001
1000
0001
,
0010
1000
0100
0010
,
0001
0100
0001
0010
,
1000
0100
0000
0100
,
0000
0100
0000
0100
,
0010
0001
0100
0100
,
0001
0010
1000
0100
,
0010
0100
0000
0100
,
0000
0100
0000
0100
,
1000
0001
0010
0000
,
0000
0001
0100
1000
,
0001
0100
0000
0100
,
0000
0100
0000
0100
,
0010
1000
0010
0000
,
1000
0001
1000
0100
,
0010
0100
0000
0100
,
0000
0100
1000
0001
,
0110
0110
0110
0110
,
1000
0010
1000
0001
,
1001
1001
1001
1001
,
0100
0001
0010
0100
,
0110
0110
1001
1001
,
1000
0010
0100
0001
,
0010
0001
0200
0300
,
2000
3000
0010
0100
,
0002
0003
1000
0001
,
0200
0000
0300
0010
,
1001
1001
1000
0100
,
0010
0001
0100
0010
,
0110
0110
0001
0010
,
0001
0100
0010
1000
,
1001
1001
1000
0001
,
0010
0001
0100
1000
,
0110
0110
0010
1000
,
0100
0010
0001
0100
,
1000
0000
0000
0000
;

//---------------dance-single - ----------------
#NOTEDATA:;
#CHARTNAME:;
#CHARTHASH:0:
#STEPSTYPE:dance-single;
#BANNER:;
#DESCRIPTION:;
#CHARTSTYLE:;
#DIFFICULTY:Beginner;
#METER:3;
#METERF:0.000000;
#RADARVALUES:0.152151,0.254161,0.129098,0.000000,0.000000,132.000000,116.000000,16.000000,0.000000,0.000000,0.000000,0.000000,0.000000,0.000000,0.152151,0.254161,0.129098,0.000000,0.000000,132.000000,116.000000,16.000000,0.000000,0.000000,0.000000,0.000000,0.000000,0.000000;
#CREDIT:;
#DISPLAYBPM:140.000000:147.000000;
#NOTES:
// measure 0
0000
0000
0000
0000
,  // measure 1
0000
0000
0000
0000
,  // measure 2
0000
0000
0000
0000
,  // measure 3
0000
0000
0000
0000
,  // measure 4
0010
0000
1001
0000
,  // measure 5
0001
0000
0100
0000
,  // measure 6
1000
0000
0000
0000
,  // measure 7
0000
0000
0000
0000
,  // measure 8
0010
0000
0110
0000
,  // measure 9
1000
0000
0100
0000
,  // measure 10
0001
0000
0000
0000
,  // measure 11
0000
0000
0000
0000
,  // measure 12
0100
0100
0100
0000
,  // measure 13
0010
0010
0010
0000
,  // measure 14
1000
0000
0000
0000
,  // measure 15
0000
0000
0000
0000
,  // measure 16
0001
0000
0001
0000
,  // measure 17
1000
0000
0010
0000
,  // measure 18
0100
0000
0000
0000
,  // measure 19
0000
0000
0000
0000
,  // measure 20
0001
0001
0001
0001
,  // measure 21
0001
0000
0000
0000
,  // measure 22
1000
1000
1000
1000
,  // measure 23
1000
0000
0000
0000
,  // measure 24
0010
0010
0010
0010
,  // measure 25
0010
0000
0110
0000
,  // measure 26
1001
0000
0000
0000
,  // measure 27
0000
0000
0000
0000
,  // measure 28
0010
0000
0010
0000
,  // measure 29
0010
0000
0000
0000
,  // measure 30
0100
0000
0100
0000
,  // measure 31
0100
0000
0000
0000
,  // measure 32
0001
0000
0001
0000
,  // measure 33
1000
0000
1000
0000
,  // measure 34
1001
0000
0110
0000
,  // measure 35
0000
0000
0000
0000
,  // measure 36
0001
0000
0110
0000
,  // measure 37
1000
0000
0100
0000
,  // measure 38
0010
0000
0000
0000
,  // measure 39
0000
0000
0000
0000
,  // measure 40
0001
0000
1001
0000
,  // measure 41
0100
0000
0010
0000
,  // measure 42
1000
0000
0000
0000
,  // measure 43
0000
0000
0000
0000
,  // measure 44
0010
0010
0010
0000
,  // measure 45
0000
0000
1001
0000
,  // measure 46
0110
0000
0000
0000
,  // measure 47
0000
0000
0000
0000
,  // measure 48
0001
0000
0001
0000
,  // measure 49
0010
0000
0100
0000
,  // measure 50
1000
0000
0000
0000
,  // measure 51
0000
0000
0000
0000
,  // measure 52
1000
1000
1000
1000
,  // measure 53
1000
0000
0000
0000
,  // measure 54
0001
0001
0001
0001
,  // measure 55
0001
0000
0000
0000
,  // measure 56
0100
0100
0100
0100
,  // measure 57
0100
0000
0110
0000
,  // measure 58
1001
0000
0001
0000
,  // measure 59
1000
0000
1001
0000
,  // measure 60
0110
0000
0010
0000
,  // measure 61
0010
0000
0000
0000
,  // measure 62
1000
1000
1000
1000
,  // measure 63
1000
0000
0000
0000
,  // measure 64
0100
0100
0100
0100
,  // measure 65
0100
0000
0000
0000
,  // measure 66
0010
0010
0010
0010
,  // measure 67
0010
0000
0000
0000
,  // measure 68
0001
0001
0001
0001
,  // measure 69
0001
0000
1001
0000
,  // measure 70
0110
0000
0000
0000
;
