#TITLE:Burnin' a Hole;
#ARTIST:Thomas Howard Lichtenstein;
#BANNER:Burnin' a Hole-bn.png;
#BACKGROUND:Burnin' a Hole-bg.png;
#JACKET:Burnin' a Hole-jacket.png;
#MUSIC:Burnin' a Hole.ogg;
#SAMPLESTART:54.679;
#SAMPLELENGTH:20;
#DISPLAYBPM:180:195;
#BPMS:0=180,100=185,108=190,116=195,128=190,144=192,168=182,184=180;
#BGCHANGES:;

//---------------dance-single - ----------------
#NOTES:
     dance-single:
     :
     Beginner:
     3:
     :
0000
0000
0000
0000
,
0000
0000
0000
0000
,
0000
0000
0000
0000
,
0000
0000
0000
0000
,
0100
0100
0100
0000
,
1000
0000
0001
0000
,
0010
0010
0010
0000
,
0001
0000
1000
0000
,
1001
0000
0000
0000
,
0010
0000
0100
0000
,
0110
0000
0000
0000
,
0001
0000
1000
0000
,
1001
0000
0000
0000
,
0001
0000
0100
0000
,
0001
0001
0001
0001
,
0001
0000
1000
0000
,
0110
0000
0000
0000
,
0100
0000
0010
0000
,
1001
0000
0000
0000
,
1000
0000
0100
0000
,
0110
0000
0000
0000
,
0001
0000
1000
0000
,
1001
0000
0000
0000
,
0010
0000
0100
0000
,
0001
0000
0000
0000
,
1000
0000
0000
0000
,
0001
0000
0000
0000
,
1000
0000
0000
0000
,
0010
0000
0000
0000
,
0100
0000
0000
0000
,
0001
0000
0000
0000
,
1000
0000
0000
0000
,
0010
0000
0010
0000
,
0010
0000
0000
0000
,
1000
0000
0110
0000
,
0000
0000
1001
0000
,
0000
0000
0110
0000
,
0001
0001
0001
0000
,
1000
0000
0010
0000
,
0100
0100
0000
0000
,
0001
0000
1000
0000
,
0010
0000
0100
0000
,
1001
0000
0000
0000
,
0010
0000
1000
0000
,
0110
0000
0000
0000
,
0100
0000
0001
0000
,
1001
0000
0000
0000
,
0100
0000
0010
0000
,
1000
0000
0000
0000
,
0001
0001
0001
0000
,
0110
0000
0000
0000
,
0001
0000
0100
0000
,
1001
0000
0000
0000
,
1000
0000
0010
0000
,
0110
0000
0000
0000
,
0010
0010
0010
0000
,
1001
0000
0000
0000
,
0100
0000
0110
0000
,
0001
0001
0000
0000
,
1000
0000
0001
0000
,
0100
0000
0000
0000
,
0010
0000
1000
0000
,
0100
0100
0000
0000
,
1000
0000
0001
0000
,
1000
0000
0000
0000
,
0010
0000
1000
0000
,
0001
0001
0000
0000
;

//---------------dance-single - ----------------
#NOTES:
     dance-single:
     :
     Easy:
     7:
     :
0000
0000
0000
0000
,
0000
0000
0000
0000
,
0000
0000
0000
0000
,
0000
0000
0000
0000
,
0100
0100
1000
0000
,
0001
1000
0010
0100
,
0010
0010
1000
0000
,
0001
0010
0001
1000
,
0010
0100
0000
0000
1001
0000
0110
0000
,
0001
0010
1000
0100
,
0001
1000
0000
0000
1100
0000
0011
0000
,
0100
0010
1000
0001
,
1000
0100
0000
0000
1010
0000
0101
0000
,
0010
0001
0100
0000
,
0010
0000
1000
0000
0001
1000
0001
0000
,
0110
1001
0110
1001
,
1000
0010
0000
0000
0101
0000
1100
0000
,
0010
1000
0100
0001
,
0010
0001
0000
0000
0011
0000
1010
0000
,
0100
0010
0001
1000
,
0001
0100
0000
0000
1010
0000
0101
0000
,
0010
0001
0100
0000
0001
0000
1000
0000
,
0100
0010
0000
0000
0011
0000
1100
0000
,
0001
1000
0000
0001
1000
0000
0000
0000
,
0020
0000
0000
0000
,
1030
0010
0100
0001
,
2000
0000
0000
0000
,
3001
0100
0010
1000
,
0200
0000
0000
0000
,
1300
0010
0001
0100
,
0002
0000
0000
0000
,
0103
0010
1000
0001
,
0011
0000
0101
0000
,
1010
0000
1100
0001
,
0001
0010
0001
0100
,
1000
0000
2002
0003
,
3010
0000
0110
0001
,
0100
0010
0100
0001
,
1000
0100
1000
0001
,
1000
2020
0030
3001
,
1000
0010
0101
1100
,
0101
0010
1000
0100
,
0001
0010
0000
0000
1100
0000
0011
0000
,
0100
0010
1000
0001
,
0010
0001
0000
0000
1001
0000
1010
0000
,
0100
0010
0100
1000
,
0010
0100
0000
0000
0110
0000
1001
0000
,
0010
1000
0100
0001
,
1000
0010
0000
0000
0101
0000
0011
0000
,
1000
0000
0001
0100
0010
0000
0000
0000
,
1000
0100
0000
0000
1100
0000
0110
0000
,
0002
0000
1000
0103
,
1000
0001
0000
0000
0010
0000
0100
0000
,
1000
0001
0010
0100
,
0010
0100
0000
0000
1000
0000
0001
0000
,
0010
0001
1000
0100
,
0001
0100
0000
0000
0000
0000
1000
0010
,
0000
1000
0000
0001
0200
0000
0300
0000
,
1010
1010
0001
0000
,
0010
0001
0100
1000
,
0010
1000
0001
0000
,
1000
0100
0010
0001
,
0101
0101
0010
0000
,
1000
0001
0100
0010
,
1000
0001
0010
0001
,
0100
0010
1000
0001
,
1001
1001
0000
0000
;

//---------------dance-single - ----------------
#NOTES:
     dance-single:
     :
     Medium:
     10:
     :
0000
0000
0000
0000
,
0000
0000
0000
0000
,
0000
0000
0000
0000
,
0000
0000
0000
0000
,
0100
0000
0100
0000
1000
0000
0001
1000
,
0000
1000
0100
0010
0001
0000
0100
0010
,
1000
0000
1000
0000
0001
0000
0100
0001
,
0000
0001
0010
0100
1000
0100
0010
0001
,
0100
0010
0000
0000
0000
0000
0000
1000
,
0001
0000
0010
0001
0100
0000
0010
1000
,
0001
1000
0000
0000
0000
0000
0000
0000
,
0100
1000
0100
0010
0001
0000
0001
0100
,
0001
0010
0000
0000
0000
0000
0000
0100
,
1000
0000
0010
0100
0002
0000
0003
0000
,
0010
0000
0001
0100
1000
0100
0002
0000
,
1000
0000
1003
0010
0100
0010
0100
0010
,
1000
0001
0000
0000
0000
0000
0000
0010
,
0100
0000
0010
0001
1000
0000
0010
1000
,
0100
0010
0000
0000
0000
0000
0000
0100
,
0010
0001
1000
0001
0100
0000
0010
1000
,
0010
0100
0000
0000
0000
0000
0000
0000
,
0001
0100
1000
0000
1001
0000
0100
0010
,
0100
0001
0000
0000
0000
0000
0000
0010
,
0001
1000
0000
0001
2000
0000
3000
0000
,
2020
0000
0000
0030
,
3010
1000
0100
0020
0000
0000
0031
0000
,
0202
0000
0000
0300
,
0103
0010
0100
0002
0000
0000
1003
0000
,
2200
0000
0000
3000
,
1300
0010
1000
0001
0010
0100
1000
0000
,
0022
0000
0000
0003
,
0031
0100
0010
1000
0000
1000
0001
0000
,
0220
0030
0002
0003
,
2000
0000
3000
0000
0301
0100
0010
0000
,
1000
0010
1000
0001
1000
0100
0010
0001
,
0000
0000
2002
0003
,
0010
0000
0010
0000
3001
0000
1000
0100
,
2000
0000
3002
0000
0023
0000
0130
0010
,
0001
0100
1000
0100
0001
0100
0010
0000
,
1000
0001
0200
0000
0000
0000
0310
0100
,
0002
0000
0013
0100
2000
0000
3020
0000
,
0230
0000
0310
1000
0100
0010
0002
0000
,
1003
0001
0000
0000
0000
0000
0000
0000
,
0110
0000
0001
0100
1000
0000
0010
1000
,
0100
0010
0000
0000
0000
1000
0001
1000
,
0001
0100
0010
0100
0001
0010
0100
0010
,
0001
1000
0000
0000
0000
0000
0000
0000
,
0010
1000
0100
0010
0001
1000
0001
0100
,
0010
0100
0000
0000
0000
0000
0000
0001
,
2000
0000
3010
0001
0200
0000
0300
0000
,
0010
2000
0000
0000
0001
0000
3100
0000
,
0010
0001
0100
0000
0011
0000
0100
0001
,
1000
0020
0000
0000
0100
0000
0031
0000
,
1010
0000
0100
0010
0100
0010
0001
0100
,
0001
0010
0000
0000
1000
0100
0000
1000
,
0010
0100
0010
1000
0001
0000
0100
0001
,
0100
0001
0200
0000
0320
0000
1030
0002
,
0000
0203
0000
0302
2000
0000
3003
0000
,
0101
0000
1100
0000
1000
0001
0000
0100
,
0010
0000
1000
0001
0100
0000
0010
1000
,
0002
0000
0013
0100
2000
0000
3001
0000
,
0100
0000
0010
1000
0100
0000
0000
0000
,
1010
0000
0011
0000
1000
0001
0000
0100
,
0010
0000
1000
0001
1000
0000
0000
0000
,
1100
0000
0010
1000
0001
0000
0100
0000
,
0101
0000
0010
0001
1000
0001
0100
0000
,
1001
0110
0000
0000
;

//---------------dance-single - ----------------
#NOTES:
     dance-single:
     :
     Hard:
     13:
     :
0000
0000
0000
0000
,
0000
0000
0000
0000
,
0000
0000
0000
0000
,
0000
0000
0000
0000
,
0100
0000
0100
0000
1000
0010
0001
1000
,
0000
0001
0100
0010
1000
0001
1000
0010
,
0100
0000
0100
0000
0001
0010
1000
0001
,
0000
1000
0001
1000
0100
0010
0001
0100
,
0010
1000
0000
0100
1001
0000
0010
0001
,
0100
0000
0010
1000
0001
1000
0100
0010
,
0001
0100
0000
0010
0101
0000
1000
0001
,
0010
0001
0010
0100
1000
0010
1000
0001
,
0100
0010
0000
1000
1000
0010
1000
0001
,
0100
0000
0010
1000
0100
0000
1000
0001
,
0010
0000
0001
0100
0010
1000
0001
0000
,
0011
0000
0100
0010
1000
0100
1000
0001
,
0100
0010
0100
0001
1000
0000
1000
0001
,
0010
0001
0010
0100
1000
0010
1000
0001
,
0100
0010
0000
0100
0100
0001
1000
0010
,
1000
0100
0010
0001
0110
0000
0001
1000
,
0010
1000
0000
0001
0001
0100
0010
1000
,
0100
0010
0001
0000
1100
0000
0010
1000
,
0001
1000
0100
0010
0001
0100
0010
1000
,
0100
1000
0010
0100
0001
1000
1010
0000
,
0010
0010
0010
0010
,
0010
1000
0100
2000
0000
0000
3001
0000
,
0100
0100
0100
0100
,
0100
0001
0010
0002
0000
0000
1003
0000
,
0001
0001
0001
0001
,
0001
1000
0100
0020
0000
0000
0130
0000
,
1000
1000
1000
1000
,
1000
0001
1000
0200
0000
0000
0310
0000
,
0021
0031
1200
1300
,
0101
1000
0001
0000
1010
0100
0010
0000
,
0110
0000
0001
0100
1000
0010
1000
0001
,
0100
0100
0000
0010
1001
0000
0000
1000
,
0001
0010
0001
0100
1000
0000
1000
0010
,
0200
0000
0320
0000
2030
0000
3001
0100
,
0010
1000
0010
0001
0010
1000
0100
0000
,
1000
0001
2100
0000
0001
0000
3100
0010
,
1000
0100
0001
0100
0020
0000
0032
0000
,
1003
0010
0100
0001
0010
0100
1000
0001
,
0100
0010
0000
1000
0001
0100
0001
1000
,
1010
0000
0010
0100
0101
0000
0001
1000
,
0010
0100
0000
0010
1000
0100
1000
0001
,
0010
0100
0001
0100
0010
0100
0001
0100
,
1000
0001
0000
0100
0010
0010
1000
0001
,
0010
0001
0010
0001
1000
0010
1000
0010
,
0100
0010
0000
1000
0001
1000
0100
0010
,
0001
0100
0010
1000
0100
0010
0001
0000
,
0011
0100
0000
0000
1001
0000
0110
0000
,
0010
1000
0010
0000
0100
0001
1000
0001
,
1000
0100
0000
1000
0010
0100
0010
1000
,
0100
0010
0100
1000
0010
0100
0001
1000
,
0010
0100
0000
0010
1000
1000
0001
0100
,
0010
0100
0001
0100
0010
0000
0010
1000
,
0100
0010
0001
0010
0001
0100
0010
1010
,
0000
0101
0000
1000
0110
0000
1000
0001
,
1002
0000
0023
0000
1030
0010
0001
0100
,
0010
0001
0010
1000
0010
0001
0010
1000
,
0100
0000
0100
0010
0001
0000
0001
0000
,
2000
0000
3010
0100
0002
1000
1003
0000
,
1100
0000
0011
0000
0100
0001
0010
0001
,
0100
1000
0100
0001
0100
1000
0100
0001
,
0010
0001
1000
0001
0100
0000
0010
1000
,
0002
0000
0013
0001
0100
0010
1000
0010
,
0100
0100
0200
0000
0000
0000
0000
0000
,
0000
0000
0000
0000
,
0300
0000
0000
0000
;
