#TITLE:Bulls on Parade;
#SUBTITLE:;
#ARTIST:Rage Against the Machine;
#TITLETRANSLIT:;
#SUBTITLETRANSLIT:;
#ARTISTTRANSLIT:;
#GENRE:;
#CREDIT:;
#BANNER:Bulls on Parade-bn.png;
#BACKGROUND:Bulls on Parade-bg.png;
#LYRICSPATH:;
#CDTITLE:;
#MUSIC:Bulls on Parade.ogg;
#OFFSET:1.062500;
#SAMPLESTART:22.798000;
#SAMPLELENGTH:20.000000;
#LASTBEATHINT:0.152600;
#SELECTABLE:YES;
#DISPLAYBPM:160.000000:177.000000;
#BPMS:0.000000=168.000000
,6.000000=166.000000
,8.000000=171.500000
,10.500000=173.000000
,15.500000=171.000000
,16.500000=175.000000
,23.500000=169.000000
,33.000000=171.199997
,42.500000=170.000000
,45.000000=173.000000
,51.000000=170.300003
,68.000000=168.000000
,80.000000=170.000000
,99.000000=168.000000
,100.000000=160.000000
,101.000000=167.000000
,104.000000=171.000000
,116.000000=174.000000
,123.500000=172.000000
,131.500000=168.000000
,132.000000=165.000000
,136.000000=167.000000
,138.000000=169.000000
,145.000000=164.000000
,148.000000=162.000000
,150.000000=165.000000
,151.500000=175.000000
,152.000000=170.000000
,154.000000=167.000000
,155.000000=174.000000
,156.000000=167.500000
,158.500000=163.333328
,159.500000=161.199997
,160.000000=167.500000
,162.000000=165.600006
,162.500000=177.000000
,163.000000=170.000000
,165.000000=162.000000
,165.500000=174.699997
,166.000000=163.399994
,167.000000=167.000000
,169.000000=164.750000
,170.000000=168.199997
,171.500000=165.000000
,173.000000=172.000000
,184.000000=171.000000
,187.000000=168.000000
,188.000000=164.500000
,191.000000=167.600006
,192.000000=164.000000
,195.000000=165.000000
,196.000000=163.399994
,198.500000=160.000000
,202.000000=161.000000
,206.500000=162.222229
,208.000000=164.300003
,215.000000=163.100006
,222.500000=169.000000
,224.000000=166.000000
,227.500000=176.000000
,228.000000=165.000000
,230.500000=174.000000
,234.000000=170.000000
,236.000000=164.800003
,242.500000=161.000000
,252.000000=163.000000
,254.500000=165.750000
,261.000000=174.250000
,263.000000=169.500000
,271.000000=167.339996
,273.000000=170.000000
,276.000000=172.300003
,278.000000=171.000000
,284.000000=169.000000
,288.000000=170.000000
,300.000000=168.699997
,304.000000=166.699997
,308.000000=166.000000
,316.000000=167.000000
,320.000000=166.000000
,321.500000=166.500000
,324.000000=168.000000
,348.000000=167.000000
,355.000000=165.000000
;
#STOPS:
;
#BGCHANGES:;
#KEYSOUNDS:;
#ATTACKS:;

//---------------dance-single - ----------------
#NOTES:
     dance-single:
     :
     Hard:
     13:
     0.586526,0.610720,0.486600,0.380156,0.030412,540.000000,476.000000,64.000000,50.000000,0.000000,0.000000,0.586526,0.610720,0.486600,0.380156,0.030412,540.000000,476.000000,64.000000,50.000000,0.000000,0.000000:
0000
0000
0000
0000
,
0000
0000
0000
0000
,
0000
0000
0000
0000
,
0000
0000
0000
0000
,
0000
0000
0000
0000
,
0000
0000
0000
0000
,
0000
0000
0000
0000
,
0000
0000
0000
0000
,
0000
0000
0000
0000
,
1001
0200
0000
0300
0101
0000
0101
0020
,
0000
0030
1010
0000
1010
0002
0000
0003
,
0011
2000
0000
3000
1100
0000
1100
0020
,
0000
0030
0110
0000
0110
0002
0000
0003
,
0101
2000
0000
3000
1010
0000
1010
0200
,
0000
0300
1100
0000
1100
0020
0000
0030
,
1001
0002
0000
0003
0011
0000
0011
0200
,
0000
0300
0110
0000
0110
0020
0000
0000
,
0031
0000
0001
0000
0100
1000
0001
0000
,
0001
0000
0100
1000
0100
1000
0100
1000
,
0001
0000
0001
0000
0100
1000
0001
0000
,
0001
0000
0100
1000
0100
1000
0100
1000
,
0001
0000
0001
0000
0100
1000
0001
0000
,
0001
0000
0100
1000
0100
1000
0100
1000
,
0001
0000
0001
0000
0100
1000
0001
0000
,
0001
0000
0100
1000
0010
0010
0010
0000
,
1100
0000
1100
0000
0001
1000
0101
0000
,
0101
0000
0100
1000
0100
0010
0001
0100
,
0110
0000
0110
0000
0010
1000
1001
0000
,
1001
0000
0001
1000
0010
0010
0010
0100
,
0101
0000
0101
0000
0010
1000
1010
0000
,
1010
0000
1000
0100
1000
0010
0100
0001
,
0011
0000
0011
0000
0001
0100
1010
0000
,
1010
0000
0010
1000
0100
0010
0001
0100
,
0020
0000
0001
0000
1030
0100
0010
0001
,
0200
0000
0310
0000
1000
0100
1000
0001
,
0010
0001
0010
0100
1000
0010
1000
0001
,
0010
0010
0010
0010
0001
0100
0010
1000
,
1100
0000
0011
0000
0100
0000
0010
2001
,
0000
0100
3100
1000
0001
0001
0001
0000
,
0101
0100
0010
1000
0100
0010
0000
0001
,
1000
0010
1000
0100
0001
0020
0000
0000
,
0031
0100
2000
0000
3010
0100
0001
0000
,
1100
0000
0001
1000
0001
0100
0010
1000
,
0100
1000
1010
0000
0001
0000
0110
0000
,
0110
0001
0100
0010
1000
1000
1000
0000
,
0001
0100
0100
0010
2000
0001
3001
1000
,
0010
1000
0100
1000
0001
0000
1001
0000
,
0101
1000
0000
0001
0001
0100
1000
0000
,
1000
0001
0100
0010
1000
0100
0001
0000
,
0010
0001
0010
0001
0100
0020
0000
0000
,
1030
0100
0010
0000
0001
0100
0010
1000
,
0001
0100
1000
0100
0001
2000
0000
0000
,
3001
0100
0010
1000
0001
2000
0000
3100
,
1000
0001
1000
0001
0010
0200
0000
0000
,
1300
0001
0100
0000
0010
1000
0100
0010
,
0001
1000
0001
0010
0100
2000
0000
0000
,
3010
1000
0100
0001
0100
0020
0000
0031
,
0010
1000
0010
0100
0010
0002
0000
0000
,
1003
0100
0001
0000
0010
0001
0100
0010
,
1000
0100
0001
0100
0010
0002
0000
0000
,
1003
0001
1000
0010
1000
0200
0000
0310
,
0100
0001
0100
0010
0100
2000
0000
0000
,
3001
1000
0010
0000
1000
0100
0010
0001
,
0100
1000
0100
0010
1000
0002
0000
0000
,
0013
0001
0100
0010
1000
0100
0001
0000
,
0101
0000
0101
0000
0010
1000
1100
0000
,
1100
0000
0001
1000
0010
1000
0001
0100
,
1001
0000
1001
0000
0010
1000
1010
0000
,
1010
0000
1000
0100
1000
0001
0100
0001
,
0011
0000
0011
0000
1000
0100
0110
0000
,
0110
0000
0100
0010
0001
0100
0010
1000
,
1100
0000
1100
0000
0010
0100
1001
0000
,
1001
0000
0001
0010
0100
1000
0010
0100
,
0002
0000
1000
2003
0000
0010
3020
0000
,
0100
0230
0000
0001
0302
0000
0010
0023
,
0000
0100
0230
0000
1000
2300
0000
0010
,
3020
0000
0130
0001
0000
0001
1000
0100
,
2000
0000
0001
3002
0000
0100
0203
0000
,
0010
0320
0000
1030
0001
0000
0010
0100
,
0000
1000
0000
0000
0001
0000
0000
0010
0000
0000
0100
0000
0000
0010
0000
0000
,
0001
0000
0000
1000
0000
0000
0001
0000
0000
0100
0000
0000
0010
0000
0000
0000
,
1000
0100
0002
0000
0013
0100
2000
0000
,
3010
0100
0010
1000
0200
0000
0310
0001
,
2000
0000
0010
3010
0000
0100
0001
1000
,
0001
0100
0001
0100
0010
1000
0010
1000
,
0100
0010
0000
0010
0001
0000
0001
0100
,
0000
0000
0100
0000
0010
0000
0000
0000
0010
0000
1000
0000
0000
0001
0000
0000
,
0010
0000
0000
0100
0000
0000
1000
0000
0000
0000
0001
0000
0100
0000
0002
0000
,
0000
0000
0023
0000
0000
0230
0000
0000
2300
0000
0000
0000
3001
0000
0000
0000
,
1001
1001
0000
0000
;

//---------------dance-single - ----------------
#NOTES:
     dance-single:
     :
     Medium:
     10:
     0.449670,0.610720,0.532218,0.866755,0.000000,414.000000,344.000000,70.000000,114.000000,0.000000,0.000000,0.449670,0.610720,0.532218,0.866755,0.000000,414.000000,344.000000,70.000000,114.000000,0.000000,0.000000:
0000
0000
0000
0000
,
0000
0000
0000
0000
,
0000
0000
0000
0000
,
0000
0000
0000
0000
,
0000
0000
0000
0000
,
0000
0000
0000
0000
,
0000
0000
0000
0000
,
0000
0000
0000
0000
,
0000
0000
0000
0000
,
2000
0002
3003
0000
0011
0000
0020
0200
,
0330
0000
1100
0000
2000
0020
3030
0000
,
0200
0002
0303
0000
0101
0000
2000
0200
,
3300
0000
1010
0000
0002
0020
0033
0000
,
2000
0020
3030
0000
0110
0000
0002
0200
,
0303
0000
1001
0000
0002
0020
0033
0000
,
0200
2000
3300
0000
1010
0000
0020
0200
,
0330
0000
0110
0000
0002
2000
3003
0000
,
0001
0001
0100
0001
,
0001
0100
0100
0100
,
0001
0001
0100
0001
,
0001
0100
0100
0100
,
0001
0001
0100
0001
,
0001
0100
0100
0100
,
0001
0001
0100
0001
,
0001
0000
0100
0010
1000
0010
1000
0000
,
0011
0011
0100
1010
,
1010
0000
1000
0001
1000
0001
1000
0000
,
0101
0101
0010
1100
,
1100
0000
0010
0100
0010
0100
0010
0000
,
1001
1001
0001
0110
,
0110
0000
1000
0010
1000
0010
1000
0000
,
1100
1100
0010
0011
,
0011
0000
0100
0001
0100
0001
0100
0000
,
0020
0100
1030
2020
,
0000
0000
0030
0000
3001
1000
0100
0000
,
2000
0002
3003
0000
0002
0200
0303
0000
,
0200
0020
0330
0000
0020
2000
3030
0000
,
0002
0100
0013
0022
,
0000
0000
0030
0000
1003
0001
0010
0000
,
0002
0200
0303
0000
0200
0020
0330
0000
,
0020
2000
3030
0000
2000
0002
3003
0000
,
2000
0010
3001
2200
,
0000
0000
0300
0000
3010
0100
0001
0000
,
0020
0200
0330
0000
0020
0002
0033
0000
,
0002
2000
3003
0000
0200
2000
3300
0000
,
0200
0001
1300
2002
,
0000
0000
3000
0000
1003
0100
0010
0000
,
0002
2000
3003
0000
2000
0002
3003
0000
,
0200
0020
0330
0000
0020
0200
0330
0000
,
0001
0100
1000
0000
0000
2200
3000
0000
,
1300
0100
0001
0000
0000
0022
0003
0000
,
0031
0100
0010
0000
0000
0220
0300
0000
,
1030
0001
1000
0001
0100
0010
0000
0000
,
1000
0100
0010
0000
0000
0202
0003
0000
,
0310
1000
0001
0000
0000
2020
3000
0000
,
1030
0010
0100
0000
0000
2002
0003
0000
,
3010
0100
0010
0100
0001
1000
0000
0000
,
0100
1000
0001
0000
0000
0022
0030
0000
,
1003
0100
0001
0000
0000
0202
0003
0000
,
0310
1000
0100
0000
0000
2002
3000
0000
,
1003
0100
0010
0100
0010
0001
0000
0000
,
0100
0010
1000
0000
0000
2020
3000
0000
,
0130
0001
0010
0000
0000
2200
0300
0000
,
3001
0010
1000
0000
0000
0220
0030
0000
,
1300
0010
0100
0001
0010
0100
0000
0000
,
1100
1100
0001
1010
,
1010
0000
1000
0100
0010
0100
1000
0000
,
0011
0011
1000
0101
,
0101
0000
0001
0100
0010
0100
0001
0000
,
1001
1001
0010
0110
,
0110
0000
1000
0001
0010
0001
1000
0000
,
0101
0101
0010
1001
,
1001
0000
0100
0001
1000
0001
0100
0000
,
0020
0000
0000
2030
0000
0000
3002
0000
,
0000
0023
0000
0000
0230
0000
0000
2300
,
0000
0000
3002
0000
0000
0203
0000
0000
,
0320
0000
0000
0230
0000
0301
1000
0001
,
2000
0000
0000
3020
0000
0000
0230
0000
,
0000
0302
0000
0000
0023
0000
0000
0032
,
0000
0103
0010
0000
0010
1000
0000
1000
,
0001
0000
0001
0100
0000
0001
1000
0000
,
1100
1100
0101
0101
,
1010
0011
1010
0011
,
1001
0000
0000
0110
0000
0000
1000
0100
,
0001
0100
1000
0001
0100
0000
0010
0100
,
2000
0000
0000
3002
0000
0000
0023
0000
,
0000
0032
0000
0000
0103
0010
0000
1000
,
0100
0000
1100
0000
0011
0000
0100
0010
,
0000
2000
0000
3001
0200
0000
0310
0000
,
1001
1001
0000
0000
;

//---------------dance-single - ----------------
#NOTES:
     dance-single:
     :
     Easy:
     6:
     0.301952,0.407147,0.243300,0.015206,0.000000,278.000000,246.000000,32.000000,2.000000,0.000000,0.000000,0.301952,0.407147,0.243300,0.015206,0.000000,278.000000,246.000000,32.000000,2.000000,0.000000,0.000000:
0000
0000
0000
0000
,
0000
0000
0000
0000
,
0000
0000
0000
0000
,
0000
0000
0000
0000
,
0000
0000
0000
0000
,
0000
0000
0000
0000
,
0000
0000
0000
0000
,
0000
0000
0000
0000
,
0000
0000
0000
0000
,
1001
0000
0000
0110
,
0000
0001
1000
0000
,
0110
0000
0000
1001
,
0000
0010
0100
0000
,
1001
0000
0000
0110
,
0000
0100
0010
0000
,
0110
0000
0000
1001
,
0000
1000
0001
0000
,
0001
0001
0000
0001
,
0001
0100
0100
0100
,
0001
0001
0000
0001
,
0001
0100
0100
0100
,
0001
0001
0000
0001
,
0001
0100
0100
0100
,
0001
0001
0000
0001
,
0001
0000
1001
1001
,
1000
0010
0000
1000
,
0010
0100
0100
0100
,
0001
0010
0000
0001
,
0010
0000
0110
0110
,
0001
1000
0000
0001
,
1000
0100
0100
0100
,
1000
0010
0000
0100
,
0001
0000
0010
0010
,
1001
0000
1000
1000
,
0110
0000
0010
0100
,
0001
0010
0001
1000
,
0010
0010
0010
0100
,
1001
0100
0000
0000
,
0010
0100
0001
0110
,
0001
0100
1000
0000
,
0110
1001
0110
0000
,
1000
0001
0100
0000
,
1001
0010
1000
0001
,
0110
0110
0000
0001
,
1001
1001
0100
0010
,
0000
1000
0100
1000
,
0001
0010
0001
0100
,
0110
0000
1000
1001
,
0010
0100
0001
0000
,
1000
0100
0001
0000
,
0010
0100
1000
0000
,
0010
0100
0001
0000
,
0010
0010
0010
0000
,
0001
0010
1000
0000
,
0100
0010
0001
0000
,
1000
0001
0100
0000
,
0001
0001
0001
0000
,
0010
0001
0100
0000
,
0001
0010
1000
0000
,
0100
1000
0001
0000
,
0100
0100
0100
0000
,
0010
1000
0001
0000
,
1000
0100
0001
0000
,
0010
0001
0100
0000
,
1000
1000
1000
0000
,
0010
0100
0000
0010
,
0100
0001
0001
0001
,
1000
0100
0000
1000
,
0100
0010
0010
0010
,
0001
0100
0000
0001
,
0100
1000
1000
1000
,
0001
1000
0000
0001
,
1000
0100
0100
0100
,
1001
0000
0110
0000
,
0001
0000
1000
0000
,
0010
0000
1000
0000
,
0100
0000
0010
0001
,
1000
0000
0001
0100
,
1000
0001
1000
0000
,
0010
0010
0100
0100
,
0010
1000
0100
0001
,
2000
3000
0002
0003
,
0100
0100
0100
0010
,
0110
0000
1001
0000
,
1000
1000
0001
0000
,
0010
0000
0001
0000
,
0100
0000
1000
0000
,
0010
0010
0100
0100
,
1000
0001
1000
0001
,
0110
1001
0000
0000
;

//---------------dance-single - ----------------
#NOTES:
     dance-single:
     :
     Beginner:
     4:
     0.167269,0.271431,0.060825,0.000000,0.000000,154.000000,146.000000,8.000000,0.000000,0.000000,0.000000,0.167269,0.271431,0.060825,0.000000,0.000000,154.000000,146.000000,8.000000,0.000000,0.000000,0.000000:
0000
0000
0000
0000
,
0000
0000
0000
0000
,
0000
0000
0000
0000
,
0000
0000
0000
0000
,
0000
0000
0000
0000
,
0000
0000
0000
0000
,
0000
0000
0000
0000
,
0000
0000
0000
0000
,
0000
0000
0000
0000
,
1000
0000
0000
1000
,
0000
0000
1000
0000
,
0001
0000
0000
0001
,
0000
0000
0001
0000
,
0100
0000
0000
0100
,
0000
0000
0100
0000
,
0010
0000
0000
0010
,
0000
0000
0010
0000
,
1000
1000
0000
1000
,
1000
0000
0000
0000
,
0001
0001
0000
0001
,
0001
0000
0000
0000
,
0100
0100
0000
0100
,
0100
0000
0000
0000
,
0010
0010
0000
0010
,
0010
0000
1001
0000
,
0100
0100
0000
0100
,
0100
0000
0000
0000
,
0010
0010
0000
0010
,
0010
0000
0110
0000
,
1000
1000
0000
1000
,
1000
0000
0000
0000
,
0001
0001
0000
0001
,
0001
0000
1001
0000
,
0110
0000
0000
0001
,
0000
0000
1000
0000
,
0010
0000
0010
0000
,
0100
0000
0100
0000
,
0001
0000
0000
0010
,
0000
0000
0001
0000
,
1000
0000
1000
0000
,
0001
0000
0001
0000
,
1000
0000
0000
0100
,
0000
0000
0010
0000
,
0001
0000
0100
0000
,
0001
0000
0100
0000
,
1000
0000
0000
0001
,
0000
0000
0010
0000
,
1000
0000
0010
0000
,
1000
0000
0010
0000
,
0100
0100
0100
0000
,
0000
0000
0000
0000
,
0001
0001
0001
0000
,
0000
0000
0000
0000
,
0010
0010
0010
0000
,
0000
0000
0000
0000
,
1000
1000
1000
0000
,
0000
0000
0000
0000
,
0010
0010
0010
0000
,
0000
0000
0000
0000
,
0100
0100
0100
0000
,
0000
0000
0000
0000
,
0001
0001
0001
0000
,
0000
0000
0000
0000
,
1000
1000
1000
0000
,
0000
0000
0000
0000
,
0010
0010
0000
0010
,
0010
0000
0000
0000
,
0001
0001
0000
0001
,
0001
0000
0000
0000
,
1000
1000
0000
1000
,
1000
0000
0000
0000
,
0100
0100
0000
0100
,
0100
0000
1001
0000
,
0110
0000
0000
0001
,
0000
0000
0100
0000
,
0010
0000
0010
0000
,
1000
0000
1000
0000
,
0100
0000
0000
0010
,
0000
0000
0001
0000
,
0100
0000
0100
0000
,
0010
0000
0010
0000
,
1000
0000
0000
0001
,
0000
0000
0010
0000
,
0001
0000
0100
0000
,
0010
0000
1000
0000
,
0100
0000
0000
1000
,
0000
0000
0001
0000
,
1000
0000
0010
0000
,
0100
0000
0001
0000
,
1001
1001
0000
0000
;

//---------------dance-single - ----------------
#NOTES:
     dance-single:
     :
     Challenge:
     14:
     0.687539,0.780365,1.003612,0.228094,0.064627,633.000000,501.000000,132.000000,30.000000,0.000000,0.000000,0.687539,0.780365,1.003612,0.228094,0.064627,633.000000,501.000000,132.000000,30.000000,0.000000,0.000000:
// measure 0
0000
0000
0000
0000
,  // measure 1
0000
0000
0000
0000
,  // measure 2
0000
0000
0000
0000
,  // measure 3
0000
0000
0000
0000
,  // measure 4
0000
0000
0000
0000
,  // measure 5
0000
0000
0000
0000
,  // measure 6
0000
0000
0000
0000
,  // measure 7
0000
0000
0000
0000
,  // measure 8
0000
0000
0000
0000
,  // measure 9
1001
1000
0001
0000
0011
0000
1001
0001
,  // measure 10
1000
0000
1100
0000
1100
0001
0100
0000
,  // measure 11
0110
0010
1000
0000
1100
0000
0110
0001
,  // measure 12
0100
0000
0101
0000
0101
0010
0100
0000
,  // measure 13
1010
0001
1000
0000
0110
0000
0011
0100
,  // measure 14
0010
0000
1001
0000
1001
1000
0100
0000
,  // measure 15
0011
0100
1000
0000
1010
0000
0110
1000
,  // measure 16
0100
0000
0011
0000
0011
0001
1000
0000
,  // measure 17
0001
0000
0001
0000
0100
1000
0001
0000
,  // measure 18
0001
0000
0100
1000
0010
1000
0100
1000
,  // measure 19
0001
0000
0001
0000
0100
1000
0001
0000
,  // measure 20
0001
0000
0100
1000
0010
1000
0100
1000
,  // measure 21
0001
0000
0001
0000
0100
1000
0001
0000
,  // measure 22
0001
0000
0100
1000
0010
1000
0100
1000
,  // measure 23
0001
0000
0001
0000
0100
1000
0001
0000
,  // measure 24
0001
0000
0100
1000
0010
0010
0010
0100
,  // measure 25
0101
0000
0101
0000
1000
0001
1010
0000
,  // measure 26
1010
0000
0010
0010
0100
0100
0001
0001
,  // measure 27
0011
0000
0011
0000
0100
0010
1001
0000
,  // measure 28
1001
0000
1000
1000
0100
0100
0010
0010
,  // measure 29
0011
0000
0011
0000
0100
0010
1010
0000
,  // measure 30
1010
0000
0001
0001
1000
1000
0100
0100
,  // measure 31
1100
0000
1100
0000
0001
0100
0110
0000
,  // measure 32
0110
0000
0010
0010
1000
1000
0100
0100
,  // measure 33
1001
0100
0010
0000
1000
0001
1000
0010
,  // measure 34
0100
1000
0100
0010
0100
0001
0010
0100
,  // measure 35
1000
0010
0001
0010
1000
0100
0010
0001
,  // measure 36
0100
0100
0100
0100
0100
0010
1000
0001
,  // measure 37
0011
1000
0100
0000
0001
0100
1000
0000
,  // measure 38
1010
0001
0100
0010
1000
1000
1100
0000
,  // measure 39
0110
0001
0100
1001
0010
1000
0100
0010
,  // measure 40
0001
0001
0001
1000
0010
0100
0100
0000
,  // measure 41
0011
1000
0100
0010
0001
0100
1000
0000
,  // measure 42
1010
0000
0001
1000
0101
0000
0010
0100
,  // measure 43
1001
0001
0010
0000
0100
1000
1100
0000
,  // measure 44
1100
0001
1000
0001
0010
0010
0010
0000
,  // measure 45
0001
0100
0100
1000
0010
0010
1000
0100
,  // measure 46
0010
0001
1000
0001
0100
0010
1000
0000
,  // measure 47
0110
0001
0100
0010
1010
1000
0100
0000
,  // measure 48
1000
0100
0001
1000
0010
0001
0100
0000
,  // measure 49
0011
0001
0100
0010
1000
2200
0000
3300
,  // measure 50
1001
0010
1000
0100
0010
0022
0000
0033
,  // measure 51
0101
1000
0010
0100
0001
0220
0000
0330
,  // measure 52
1000
0100
0001
1000
0010
0001
0100
0000
,  // measure 53
1010
1000
0001
0010
0100
2002
0000
3003
,  // measure 54
0011
1000
0010
1000
0100
2020
0000
3030
,  // measure 55
0110
0001
1000
0010
1000
0202
0000
0303
,  // measure 56
0001
0010
1000
0001
0100
1000
0010
0000
,  // measure 57
1100
1000
0001
0010
0100
0220
0000
0330
,  // measure 58
0011
0100
0001
0010
1000
2020
0000
3030
,  // measure 59
1001
0100
0001
0010
0100
2200
0000
3300
,  // measure 60
0001
0100
1000
0001
0010
1000
0100
0000
,  // measure 61
0110
0001
1000
0001
0100
0202
0000
0303
,  // measure 62
0011
1000
0010
1000
0100
0022
0000
0033
,  // measure 63
0110
0010
0001
0100
1000
2002
0000
3003
,  // measure 64
1000
0010
0001
1000
0100
0001
0010
0000
,  // measure 65
1100
0000
1100
0000
0001
0010
0101
0000
,  // measure 66
0101
0000
1000
1000
0001
0001
0010
0010
,  // measure 67
0011
0000
0011
0000
0100
0010
0110
0000
,  // measure 68
0110
0000
0100
0100
0001
0001
1000
1000
,  // measure 69
1001
0000
1001
0000
0010
0100
0101
0000
,  // measure 70
0101
0000
0001
0001
0010
0010
0100
0100
,  // measure 71
1100
0000
1100
0000
0001
1000
0110
0000
,  // measure 72
0110
0000
0010
0010
1000
1000
0001
0001
,  // measure 73
0011
0000
0100
1010
0000
0001
1100
0000
,  // measure 74
0010
1001
0000
0100
1010
0000
0001
0110
,  // measure 75
0000
1000
0011
0000
0100
1001
0000
0010
,  // measure 76
1100
0000
1000
0110
0000
0001
0001
0001
,  // measure 77
1001
0000
0010
1100
0000
1000
0011
0000
,  // measure 78
0100
1010
0000
0010
0101
0000
1000
0011
,  // measure 79
0000
0101
0000
0000
1010
0000
0000
0101
0000
0000
0011
0000
0000
1100
0000
0000
,  // measure 80
1001
0000
0000
0110
0000
0000
1010
0000
0000
1100
0000
0000
0011
0000
0000
0000
,  // measure 81
1000
0100
0010
0002
0000
0000
1003
0010
0100
0002
0000
0000
,  // measure 82
1003
0100
0010
0001
0100
0010
2000
0000
0000
3010
0100
0001
,  // measure 83
2000
0000
3010
0110
0000
0001
0001
0001
,  // measure 84
1000
1000
0100
0010
0011
0000
0100
0010
,  // measure 85
1010
1010
0000
0101
0101
0000
0011
0011
,  // measure 86
0000
0000
1100
0000
1100
0000
0000
0000
0010
0000
0110
0000
0000
1001
0000
0000
,  // measure 87
1000
0100
0001
0010
0100
0010
0001
1000
,  // measure 88
0000
0000
2100
0000
0000
3002
0000
0000
1003
0000
0000
0000
0011
0000
0000
0000
,  // measure 89
1001
1001
0000
0000
;
