#TITLE:Brilliant 2U;
#ARTIST:NAOKI;
#BANNER:Brilliant 2U.png;
#BACKGROUND:Brilliant 2U-bg.png;
#JACKET:Brilliant 2U-jacket.png;
#MUSIC:Brilliant 2U.ogg;
#SAMPLESTART:52.755;
#SAMPLELENGTH:20;
#BPMS:0=150;
#BGCHANGES:;

//---------------dance-single - ----------------
#NOTES:
     dance-single:
     :
     Beginner:
     4:
     :
0000
0000
0000
0000
,
0000
0000
0000
0000
,
0000
0000
0000
0000
,
0000
0000
0000
0000
,
0000
0000
0000
0000
,
0000
0000
0000
0000
,
0000
0000
0000
0000
,
0100
0000
0100
0000
,
0001
0000
1000
0000
,
0001
0000
0100
0000
,
0000
0000
0001
0001
,
0001
0000
0100
0000
,
0000
0000
1000
1000
,
1000
0000
0010
0000
,
0010
0000
0001
0001
,
0001
0000
0010
0000
,
0100
0000
1001
0000
,
0000
0001
0001
0000
,
0100
0100
0100
0000
,
0000
1000
1000
0000
,
0100
0100
0100
0000
,
0000
0001
0001
0000
,
0010
0010
0010
0000
,
0000
1000
1000
0000
,
0010
0000
1001
0000
,
0000
0001
0000
0100
,
0000
1000
0000
0000
,
0000
1000
0000
0100
,
0000
0001
0001
0001
,
0000
1000
0000
0100
,
0000
0001
0000
1000
,
0000
1000
0000
0100
,
0100
0100
0100
0000
,
0001
0000
0100
0000
,
0000
0000
0001
0001
,
0001
0000
0100
0000
,
0000
0000
1000
1000
,
1000
0000
0010
0000
,
0010
0000
0001
0001
,
0001
0000
0010
0000
,
0100
0000
1001
0000
,
0000
0001
0001
0000
,
0100
0100
0100
0000
,
0000
1000
1000
0000
,
0100
0100
0100
0000
,
0000
0001
0001
0000
,
0010
0010
0010
0000
,
0000
1000
1000
0000
,
0010
0000
1001
0000
,
0010
0010
0000
0100
,
0100
0000
1000
0001
,
0001
0000
0000
0000
;

//---------------dance-single - ----------------
#NOTES:
     dance-single:
     :
     Easy:
     6:
     :
0000
0000
0000
0000
,
0000
0000
0000
0000
,
0000
0000
0000
0000
,
0000
0000
0000
0000
,
0000
0000
0000
0000
,
0000
0000
0000
0000
,
0000
0000
0000
0000
,
0010
0010
0010
0000
,
1000
1000
0001
0001
,
0010
0000
0010
0100
,
0110
0000
1001
0001
,
0010
0000
0010
0100
,
0100
0000
1000
0001
,
0100
0100
0100
0010
,
0110
0000
1001
1000
,
0100
0100
0100
0010
,
0100
0000
1001
1001
,
0000
0001
0001
0001
,
0100
1000
0100
1000
,
0000
1000
1000
1000
,
0100
0001
0100
0001
,
0000
0001
1000
0001
,
0010
1000
0010
1000
,
0000
1000
0001
1000
,
1000
0100
0010
0001
,
0000
1000
0000
0100
,
0000
0001
0010
0100
,
0000
0001
0000
0010
,
0000
1000
0001
0100
,
1000
1000
1000
0100
,
1000
0001
0010
0100
,
0001
0001
0001
0010
,
0100
0100
0010
0010
,
0010
0000
0010
0100
,
0110
0000
1001
0001
,
0010
0000
0010
0100
,
0100
0000
1000
0001
,
0100
0100
0100
0010
,
0110
0000
1001
1000
,
0100
0100
0100
0010
,
0100
0000
1001
1001
,
0000
0001
0001
0001
,
0100
1000
0100
1000
,
0000
1000
1000
1000
,
0100
0001
0100
0001
,
0000
0001
1000
0001
,
0010
1000
0010
1000
,
0000
1000
0001
1000
,
1000
0100
0010
0001
,
0100
0100
0100
0100
,
0100
1001
0010
1001
,
0100
0000
0000
0000
;

//---------------dance-single - ----------------
#NOTES:
     dance-single:
     :
     Medium:
     8:
     :
0000
0000
0000
0000
,
0000
0000
0000
0000
,
0000
0000
0000
0000
,
0000
0000
0000
0000
,
0000
0000
0000
0000
,
0000
0000
0000
0000
,
0000
0000
0000
0000
,
0010
0010
0010
0010
,
0001
1000
0001
1000
,
0010
0000
0000
0000
0100
0010
0010
0000
,
0011
0000
1100
0000
0001
1000
0100
0000
,
0010
0000
0000
0000
0100
0010
0010
0000
,
1000
0001
1000
0100
,
0100
0000
0100
0000
0010
0100
0100
0000
,
0001
0000
1000
0000
0001
1000
0100
0000
,
0100
0000
0100
0000
0010
0100
0100
0000
,
0011
1000
0001
0110
,
1000
0000
1000
0000
1000
0000
0001
0100
,
1000
0101
0001
1100
,
0001
0000
0001
0000
0001
0000
1000
0100
,
0001
1100
1000
0101
,
1000
0000
0001
0000
1000
0000
0001
0100
,
1000
1010
0001
0011
,
0001
0000
1000
0000
0001
0000
1000
0100
,
0010
0101
1010
1001
,
0001
0100
0010
0000
,
0100
0010
0001
1001
,
1000
0100
0010
0000
,
0100
0000
0010
0000
1000
0100
0010
0001
,
1000
0000
0100
0000
0010
0100
0001
0000
,
0100
0010
1000
1001
,
0001
0000
0100
0000
0010
0100
1000
0000
,
0010
0001
0100
0000
1000
0010
0100
0000
,
0100
0000
0000
0000
0010
0100
0100
0000
,
1100
0000
0011
0000
1000
0001
0010
0000
,
0100
0000
0000
0000
0010
0100
0100
0000
,
0001
1000
0001
0010
,
0010
0000
0010
0000
0100
0010
0010
0000
,
1000
0000
0001
0000
1000
0001
0010
0000
,
0010
0000
0010
0000
0100
0010
0010
0000
,
1100
0001
1000
0110
,
0001
0000
0001
0000
0001
0000
1000
0010
,
0001
1010
1000
0011
,
1000
0000
1000
0000
1000
0000
0001
0010
,
1000
0011
0001
1010
,
0001
0000
1000
0000
0001
0000
1000
0010
,
0001
0101
1000
1100
,
1000
0000
0001
0000
1000
0000
0001
0010
,
0100
1010
0101
1001
,
0100
0001
1000
0000
1000
0000
0100
0000
,
0010
1000
0001
0000
0010
0001
1000
0000
,
0100
0000
0000
0000
;

//---------------dance-single - ----------------
#NOTES:
     dance-single:
     :
     Hard:
     10:
     :
0000
0000
0000
0000
,
0000
0000
0000
0000
,
0000
0000
0000
0000
,
0000
0000
0000
0000
,
0000
0000
0000
0000
,
0000
0000
0000
0000
,
0000
0000
0000
0000
,
0010
0010
0010
0010
,
1000
0001
1000
0000
0001
1000
0001
1000
,
0011
0000
1100
0000
0001
0010
0100
0000
,
1000
0000
0001
0000
0100
0000
0000
0001
0010
0000
0100
0000
1000
0000
0001
0000
,
1010
0000
0101
0000
1000
0010
0100
0000
,
0001
1000
0100
0000
0010
0100
0001
0000
,
0101
0000
1010
0000
0001
0100
0010
0000
,
1000
0000
0001
0000
0010
0000
0000
1000
0010
0000
0000
0100
0001
0000
0000
0000
,
1100
0000
0011
0000
1000
0100
0010
0001
,
0011
0110
1010
1001
,
1000
0000
0100
0000
1000
0000
0001
0010
,
0100
0000
0000
0000
1100
0000
0000
0000
0001
0000
0000
0010
0100
0000
0001
0000
,
0001
0000
0100
0000
0001
0000
1000
0010
,
0100
0000
0000
0000
0101
0000
0000
0000
1000
0000
0000
0010
0100
0000
1000
0000
,
1000
0000
0110
0000
1000
0100
0001
0100
,
0010
0000
0000
0000
1010
0000
0000
0000
0001
0000
0000
0100
0010
0000
0001
0000
,
0001
0000
0110
0000
0001
0100
1000
0100
,
1010
0000
0101
0000
1000
0010
0110
0000
,
1000
1100
0010
0011
,
0100
0000
0110
0000
0001
0000
0101
0101
,
1100
1010
0100
0101
,
0010
0110
1001
0110
,
0001
0000
0101
0000
0010
1000
1010
0000
,
0100
0000
0110
0000
1000
0100
1100
0000
,
0011
0000
0101
0000
0010
0000
1010
1000
,
0100
0010
0001
0010
0100
0010
0001
1000
,
1010
0000
0101
0000
1000
0010
0100
0000
,
0001
0000
1000
0000
0100
0000
0000
1000
0010
0000
0100
0000
0001
0000
1000
0000
,
0011
0000
1100
0000
0001
0010
0100
0000
,
1000
0001
0100
0000
0010
0100
1000
0000
,
1100
0000
0011
0000
1000
0100
0010
0000
,
0001
0000
1000
0000
0010
0000
0000
0001
0010
0000
0000
0100
1000
0000
0000
0000
,
0101
0000
1010
0000
0001
0100
0010
1000
,
1100
0110
0101
1001
,
0001
0000
0100
0000
0001
0000
1000
0010
,
0100
0000
0000
0000
0101
0000
0000
0000
1000
0000
0000
0010
0100
0000
1000
0000
,
1000
0000
0100
0000
1000
0000
0001
0010
,
0100
0000
0000
0000
1100
0000
0000
0000
0001
0000
0000
0010
0100
0000
0001
0000
,
0001
0000
0010
0000
0001
0100
1000
0100
,
0010
0000
0000
0000
0011
0000
0000
0000
1000
0000
0000
0100
0010
0000
1000
0000
,
1000
0000
0010
0000
1000
0100
0001
0100
,
0011
0000
1100
0000
0001
0010
1000
0000
,
0010
1000
0100
1000
0100
0001
0100
0001
,
0010
0001
0100
1000
0010
1000
0100
0001
,
0010
0000
0000
0000
;

//---------------dance-single - ----------------
#NOTES:
     dance-single:
     :
     Challenge:
     12:
     :
0000
0000
0000
0000
,
0000
0000
0000
0000
,
0000
0000
0000
0000
,
0000
0000
0000
0000
,
0000
0000
0000
0000
,
2001
0000
0000
0001
0000
0000
0100
0000
0000
0010
0000
0000
0010
0000
0000
0000
,
0100
0000
0000
0010
0000
0000
0100
0000
0000
0001
0000
0000
3001
0000
0000
1000
,
0002
0000
0000
0010
0000
0000
1000
0000
0000
0100
0000
0000
0103
0000
0020
0000
,
1000
0001
1000
0130
,
1001
0000
0000
0001
0010
0000
0100
0000
1000
0000
0010
0000
1000
0000
0001
0000
,
0000
0101
0000
1100
0000
0101
0000
1100
,
1001
0000
0000
0100
1000
0000
0001
0000
0100
0000
0010
0000
0100
0000
0001
0000
,
0010
0001
0100
1000
0002
0100
0103
0000
,
0110
0000
0000
0001
1000
0000
0100
0000
1000
0000
0010
0000
0100
0000
0001
0000
,
0010
0000
0001
0000
1000
0000
0010
0000
0100
0000
0001
1000
0001
0000
1000
0001
,
1000
0000
0000
0010
0100
0000
1000
0000
0100
0000
0001
0000
0010
0000
0100
0000
,
2000
0001
0000
0000
0010
0000
0000
0010
0000
0000
3001
0000
1000
0000
0100
0000
,
0010
0001
0100
0010
0000
0010
1000
0100
,
1000
0001
0100
0020
0000
1000
1030
0001
,
0010
0001
0100
0010
0000
1000
0001
0200
,
0000
0010
0000
0310
1000
0000
0100
1000
0000
1000
0001
0000
0100
0000
0010
0000
,
1000
0000
0001
0100
0000
0001
0100
0000
0000
0000
0010
0000
1000
0000
0100
0000
,
0010
0000
0001
1000
0000
0001
1000
0000
0000
0000
0010
0000
1000
0000
0100
0000
,
1000
0001
1000
0000
0010
0000
0100
0000
0000
0000
0001
0000
1000
0000
0100
0000
,
1000
0000
0010
0000
0100
0000
0002
0000
0000
0013
0001
0000
1000
0000
0100
0000
,
1000
0000
0001
0100
0000
0100
0020
0000
0000
0000
0000
0000
0000
0000
1000
0000
,
1030
0000
0100
0010
0000
0010
0002
0000
0000
0000
0103
0000
0011
0000
0000
0000
,
1000
0010
0001
0200
0000
0000
0301
1000
,
1100
0000
0110
0000
0011
0000
0100
0010
,
1000
0100
0010
0001
0000
0001
1000
0100
,
0001
0100
1000
0010
0000
0010
0100
0001
,
0010
0001
0100
0010
0000
1000
0001
0100
,
0101
1100
0101
1100
,
1001
0000
0000
0001
0100
0000
0010
0000
1000
0000
0100
0000
1000
0000
0001
0000
,
0100
0000
0010
0000
1000
0000
0001
0000
0100
0010
0100
0000
0001
0000
1000
0000
,
1010
0000
0000
0001
1000
0000
0100
0000
0010
0000
1000
0000
0010
0000
0001
0000
,
0100
0010
1000
0001
0010
0010
0010
0000
,
0011
0000
0000
1000
0001
0000
0100
0000
0010
0000
0001
0000
0010
0000
1000
0000
,
0100
0000
0010
0000
0001
0000
0100
0000
0010
1000
0010
0000
1000
0000
0100
0000
,
0010
0000
0000
0001
0100
0000
0010
0000
1000
0000
0100
0000
1000
0000
0001
0000
,
0200
0010
0000
0000
1000
0000
0000
1000
0000
0000
0301
0000
0100
0000
0010
0000
,
1000
0001
0010
1000
0010
0100
0010
0001
,
0100
0010
0100
0001
0010
1000
0010
0001
,
0100
0010
0100
0001
1000
0100
1000
0001
,
0010
1000
0010
0100
0010
1000
0010
0001
,
0100
0010
1000
0001
0100
0010
0001
0010
,
1000
0010
0100
0001
0010
0100
0010
0100
,
0010
1000
0010
0001
1000
0100
1000
0010
,
0100
1000
0100
0001
0010
0100
1000
0001
,
0100
0010
0101
0000
1000
0000
1100
0001
,
0100
0010
1000
0001
1000
0100
0010
0001
,
1000
0020
0200
0000
0030
0000
0002
0000
,
0300
0000
2000
0000
0000
3003
0000
1001
;
