#TITLE:Break the Rules;
#ARTIST:kors k feat. ?IRE;
#ARTISTTRANSLIT:kors k feat. RIRE;
#BANNER:Break the Rules-bn.png;
#BACKGROUND:Break the Rules-bg.png;
#JACKET:Break the Rules-jacket.png;
#MUSIC:Break the Rules.ogg;
#SAMPLESTART:88.167;
#SAMPLELENGTH:20;
#DISPLAYBPM:130;
#BPMS:0=130;
#BGCHANGES:;

//---------------dance-single - ----------------
#NOTES:
     dance-single:
     :
     Beginner:
     4:
     :
0000
0000
0000
0000
,
0000
0000
0000
0000
,
0000
0000
0000
0000
,
0000
0000
0000
0000
,
0010
0000
0001
0001
,
0000
0000
1000
1000
,
0000
0000
0010
0010
,
0010
0000
1000
1000
,
1000
0000
0100
0000
,
1000
1000
1000
1000
,
0000
0001
0001
0000
,
0010
0000
0001
0001
,
0000
0100
0100
0000
,
0010
0000
1000
1000
,
0000
0100
0100
0000
,
1000
1000
1000
1000
,
0000
0001
0001
0000
,
1001
0000
0000
0100
,
0100
0000
0010
0000
,
1000
0000
0100
0000
,
0110
0000
0001
0000
,
1000
1000
1000
0000
,
0010
0010
0000
0000
,
0100
0100
0100
0100
,
0100
0000
0010
0000
,
1000
1000
1000
0000
,
0001
0000
0010
0000
,
0001
0001
0001
0001
,
0001
0000
0100
0000
,
0010
0010
0010
0000
,
1000
0000
0001
0000
,
1001
0000
0000
0000
,
0100
0100
0100
0000
,
1000
1000
1000
0000
,
0010
0000
1000
0000
,
0001
0001
0001
0000
,
0010
0010
0010
0000
,
0100
0100
0100
0000
,
0010
0000
0001
0000
,
1000
1000
1000
0000
,
0010
0010
0010
0000
,
1000
1000
1000
0000
,
0100
0000
1000
0000
,
0001
0001
0001
0000
,
0100
0100
0100
0000
,
0001
0001
0001
0000
,
0010
0000
0001
0000
,
0100
0100
0100
0000
,
0110
0000
0001
0000
,
1000
1000
1000
1000
,
0000
0100
0100
0000
,
0010
0010
0010
0010
,
0000
0001
0001
0000
,
1000
0000
0001
0000
,
0010
0010
0010
0000
,
0001
0001
0001
0001
,
0000
0100
0000
0010
,
0000
1000
0000
0100
,
0000
1000
0000
0001
,
0001
0000
0010
0010
,
0000
0100
0100
0000
,
1000
0000
0010
0000
,
1000
0000
0001
0000
,
0110
0000
1001
0000
;

//---------------dance-single - ----------------
#NOTES:
     dance-single:
     :
     Easy:
     8:
     :
0000
0000
0000
0000
,
0000
0000
0000
0000
,
0000
0000
0000
0000
,
0000
0000
0000
0000
,
0010
0000
0001
0000
0100
0010
1000
0000
,
0100
0000
0010
0000
0001
1000
0100
0000
,
1000
0000
0010
0000
0100
0001
0010
0000
,
2002
0003
0010
3100
,
1100
0000
0010
0000
0100
0001
1000
0000
,
0100
0000
0010
0001
1000
0000
0010
0000
,
1000
0000
0001
0000
0100
0010
1000
0000
,
0100
0000
0000
0000
0010
0000
0000
0000
0001
0000
0000
1000
0000
0000
0001
0000
,
0000
0000
0011
0000
0001
0100
0010
0000
,
1000
0000
0100
1000
0001
0000
0100
0000
,
0010
0000
1000
0000
0001
0010
0100
0000
,
1000
0001
0101
1100
,
1001
0010
1000
0100
,
1000
0001
0010
0100
,
2000
0000
0000
3002
0000
0000
1003
0200
,
0000
0000
1300
0002
0000
0000
0103
0000
,
0210
0000
0000
0302
0000
0000
0000
1003
,
0010
0000
0100
0001
0000
1000
0000
0000
,
1010
0000
0020
0200
0000
0000
0030
0000
,
0001
1000
0001
1300
,
0100
0001
0010
0100
,
1000
0001
0010
0001
,
0200
0000
0000
0320
0000
0000
2030
0000
,
0001
0100
0001
3100
,
0010
0000
2000
0002
0000
3003
0000
0100
,
0000
0100
0000
0010
0000
1000
0000
0000
,
0101
1000
1010
0001
,
2002
0000
0000
0003
0000
3002
0000
1003
,
0000
0000
0010
1000
0200
0000
0300
0000
,
1000
0001
0010
0001
1000
0000
1100
0000
,
0001
0100
0010
1000
,
0100
0000
1000
0001
1000
0000
0110
0000
,
1001
0000
0001
0010
0200
0000
1300
0000
,
0010
1000
0001
1000
0100
0000
0011
0000
,
1000
0010
1000
0100
,
0010
0001
1000
0001
0100
0000
0110
0000
,
0001
1000
0100
1000
0002
0000
0003
0000
,
0010
0001
1000
0001
0100
0000
1010
0000
,
0100
1000
0001
0100
,
0010
0000
1000
0100
1000
0000
1100
0000
,
0101
0000
0010
1000
0002
0000
0103
0000
,
0010
1000
0100
0010
0001
0000
1001
0000
,
0010
0001
0100
1000
,
0010
1000
0001
0100
,
0010
0000
1000
0000
0100
1000
0001
0000
,
0010
0000
0001
0000
0100
0010
1000
0000
,
0100
0000
1000
0001
1000
0000
0010
0000
,
0100
0000
0000
0000
0001
0000
0000
0000
0010
0000
0000
0100
0000
0000
0010
0000
,
0000
0000
0011
0000
0001
0100
0010
0000
,
1000
0100
1000
0000
0001
0000
0100
0000
,
0010
0000
0100
0000
0010
1000
0001
0000
,
0010
0001
0100
1010
,
0101
0000
0001
1000
0100
1000
0100
0000
,
0010
0000
0001
0000
0100
0010
1000
0000
,
0001
0000
0010
0000
0001
0100
0001
0000
,
1000
0010
0100
1001
,
0110
0000
0010
1000
0001
1000
0001
0000
,
0010
0100
1000
0000
0001
0000
0100
0000
,
0010
0000
1000
0001
0010
0000
0100
0000
,
1000
0000
0000
0000
0001
0000
0000
0000
0100
0000
0000
0010
0000
0000
1001
0000
;

//---------------dance-single - ----------------
#NOTES:
     dance-single:
     :
     Medium:
     11:
     :
0000
0000
0000
0000
,
0000
0000
0000
0000
,
0000
0000
0000
0000
,
0000
0000
0000
0000
,
0010
0001
1000
0001
0100
0010
1000
0001
,
0000
0010
0001
0100
0010
1000
0100
1000
,
0000
0001
1000
0010
1000
0100
0010
0001
,
2002
0003
0010
3100
,
1100
0001
1000
0100
1000
0001
0100
0010
,
1000
0100
1000
0001
0100
0010
1000
0001
,
0000
0010
0001
0100
0001
0010
0100
1000
,
0010
0000
1000
0000
0001
0000
1000
0000
0020
0000
0000
0230
0000
0000
0301
0000
,
0000
0010
0001
0100
0010
0100
0001
1000
,
0100
1000
0010
0100
0001
0010
0001
1000
,
0000
0100
1000
0001
0010
0001
0100
0010
,
1000
0100
1000
0001
0011
0000
0101
0000
,
1001
0000
0010
1000
0100
1000
0001
0200
,
0000
0320
0000
0000
0000
1030
0001
1000
,
2200
0000
0300
3002
0000
0000
0103
0020
,
0000
0000
2030
0002
3000
0100
0103
0000
,
0120
0000
1030
0020
1000
0000
0031
0010
,
1000
0000
1000
0002
0000
0013
0100
0000
,
1100
0000
0001
0200
1000
0000
0301
0000
,
0011
0110
1100
1010
,
1001
0010
1000
0001
1000
0000
0100
0020
,
0000
0032
0000
0203
0000
0320
0000
2030
,
0000
3001
1000
0020
0000
1000
1030
0000
,
1010
1100
0110
0011
,
0101
0000
0010
2000
0000
3001
0000
0200
,
0000
0320
0000
2030
0000
3001
0010
0000
,
0011
0000
0001
0100
1010
0000
1000
0100
,
2002
0000
0000
0000
0003
0001
0000
3001
,
1000
0000
0100
0010
0000
0001
0000
0001
0000
0000
0000
0000
0000
0000
0100
0000
,
0010
0000
1000
0001
0000
0100
0000
0100
0000
0000
0010
0000
1000
0000
0010
0000
,
1000
0100
0001
0100
1000
0010
0100
0001
,
0010
0000
0100
1000
0000
0001
0000
0001
0000
0000
0010
0000
0001
0000
1000
0000
,
0010
0000
1000
0100
0000
1000
0000
0001
0000
0000
0000
0000
0100
0000
0010
0000
,
1000
0000
0100
1000
0000
0001
0000
0100
0000
0000
0010
0000
1000
0000
0001
0000
,
1000
0100
0001
0100
1000
0010
0001
0010
,
1000
0000
0001
0100
0000
0010
0000
0010
0000
0000
0000
0000
0110
0000
0000
0000
,
1000
0000
0100
0010
0000
0010
0000
0010
0000
0000
0001
0000
1000
0000
0001
0000
,
0100
0000
0010
1000
0000
1000
0000
1000
0000
0000
0100
0000
0010
0000
0001
0000
,
1000
0100
0001
0100
0010
0100
1000
0010
,
0100
0000
0001
1000
0000
1000
0000
1000
0000
0000
0000
0000
1100
0000
0000
0000
,
0101
0000
0000
0000
0001
1000
0000
0010
0000
0000
0000
0000
0100
0000
0010
0000
,
1000
0000
0100
1000
0000
0001
0000
0001
0000
0000
0100
0000
0010
0000
0100
0000
,
0010
1000
0100
1000
0001
0010
0001
0100
,
0010
0000
1000
0001
0000
1000
0000
0001
0000
0000
0000
0000
0011
0000
0000
0000
,
1010
0001
0100
0010
1000
0100
1000
0001
,
0010
0100
1000
0010
1000
0001
1000
0100
,
0000
0010
0001
0100
0001
1000
0100
0010
,
0001
0000
0100
0000
1000
0000
0100
0000
0002
0000
0000
0023
0000
0000
1030
0000
,
0000
0010
0001
1000
0100
1000
0010
0100
,
0001
0010
0001
1000
0001
0100
0010
1000
,
0000
0100
1000
0010
1000
0100
0010
0001
,
0100
0000
0010
0000
1000
0000
0010
0000
0200
0000
0000
0302
0000
0000
1003
0000
,
0000
0001
0010
0001
0100
0010
1000
0001
,
0010
1000
0010
0100
0010
0001
0100
0010
,
0000
1000
0100
1000
0001
1000
0100
0010
,
0001
0000
0100
0000
0010
0000
1000
0000
1100
0000
0000
1001
0000
0000
0101
0000
,
0000
0010
0100
0001
0010
0001
1000
0100
,
1000
0010
0100
0001
0010
0100
1000
0010
,
0000
0100
0001
0010
0001
1000
0100
0001
,
0010
0000
0100
0000
0010
0000
0100
0000
0110
0000
0000
0011
0000
0000
1001
0000
;

//---------------dance-single - ----------------
#NOTES:
     dance-single:
     :
     Hard:
     14:
     :
0000
0000
0000
0000
,
0000
0000
0000
0000
,
0000
0000
0000
0000
,
0000
0000
0000
0000
,
0010
0000
0001
0000
0000
0100
0000
0000
0001
1000
0000
0001
1000
0000
0000
0010
0000
0000
0100
0000
0000
0001
0000
0000
,
1000
0000
0010
0000
0000
0100
0000
0000
0001
0010
0000
0001
0010
0000
0000
0100
0000
0000
1000
0000
0000
0001
0000
0000
,
0100
0000
0010
0000
0000
1000
0000
0000
0001
0100
0000
0001
0100
0000
0000
0010
0000
0000
1000
0000
0000
0100
0000
0000
,
2002
0003
0010
3100
,
1100
0000
1000
0000
0010
0000
0100
0000
0001
0000
0010
0001
0000
0100
0001
0000
,
1000
0000
1000
0000
1000
0000
0010
0100
0010
0000
2000
0000
3001
0000
0100
0000
,
0010
0000
1000
0000
0100
0000
1000
0000
0001
0000
0010
0100
0000
0010
0100
0000
,
1000
0000
0010
0000
0100
0000
0001
0000
0011
0000
0000
0101
0000
0000
1100
0000
,
0001
0000
0100
0000
0010
0000
1000
0000
0100
1000
0100
1000
0000
0001
0100
0000
,
0010
0000
1000
0100
1000
0000
0001
0100
0001
0000
0010
0100
0000
1000
0001
0000
,
0010
0000
0001
0000
1000
0000
0010
0000
0100
0000
0001
1000
0000
1000
0100
0000
,
0010
0001
1000
0001
0101
0000
1100
0000
,
1001
0000
0010
0010
1000
0001
1000
0200
,
1300
0010
0100
0001
0010
1000
0010
0001
,
0200
0010
0310
2000
0001
3001
0010
0100
,
1000
0001
0100
0010
1000
0100
0001
0000
,
0110
0000
0000
0010
0001
0000
0100
0000
0010
0000
1000
0100
0000
1000
0001
0000
,
0100
0000
0000
0010
1000
0000
0001
0000
0100
0000
1000
0000
0100
0000
0010
0000
,
1000
0000
0000
0100
1000
0000
0001
0000
0100
0000
0010
1000
0010
0000
0000
0000
,
1010
0000
0000
0000
0101
0000
0000
0000
1100
0000
0001
1000
0001
0000
0000
0000
,
0011
0001
1000
0010
0100
0001
1000
0100
,
0010
1000
0010
0100
0010
1000
0010
0001
,
0200
0010
0310
2000
0100
3100
1000
0001
,
0011
0000
1001
0000
0110
0010
1000
0001
,
0010
0000
1000
0100
1000
0000
0001
0000
0100
0000
0010
1000
0000
1000
0001
0000
,
0010
1000
0010
0100
0010
1000
0010
0001
,
0100
0000
0000
0001
1000
0000
0010
0000
0100
0000
0000
0001
0010
0000
1000
0000
,
2020
0000
0000
0000
3000
0001
0000
1030
,
0010
0000
0100
0000
0001
0010
0000
0001
1000
0000
0100
0010
0000
0010
0001
0000
,
0100
0000
0001
1000
0000
0010
0000
1000
0000
0100
1000
0000
0001
0000
0100
0000
,
0001
0000
0010
0000
0001
1000
0000
1000
0000
0100
1000
0000
0010
0000
0100
0000
,
0001
0000
0010
0100
0000
1100
0000
1001
0000
0010
1000
0000
0001
0000
0100
0000
,
0010
0000
1000
0000
0100
0010
0000
0010
0001
0000
0100
0010
0000
0010
1000
0000
,
0100
0000
1000
0001
0000
0011
0000
0101
0000
0010
0100
0000
0001
0000
1000
0000
,
0010
0000
0100
0000
0010
1000
0000
0100
0000
1000
0001
0000
0010
0000
0100
0000
,
1000
0000
0010
1000
0000
0100
0000
0010
0001
0000
0000
0000
1001
0000
0000
0000
,
0110
0000
0010
1000
0000
0100
0000
1000
0000
0000
0001
0000
0100
0000
0001
0000
,
0010
0000
0100
1000
0000
0010
0000
0100
0001
0000
0010
0000
0001
0000
1000
0000
,
0100
0000
1000
0000
0010
0100
0000
0001
0000
1000
0001
0000
0010
0000
0100
0000
,
1000
0000
0010
0100
0000
1010
0000
0110
0000
0100
0001
0000
0010
0000
1000
0000
,
0010
0000
0001
0000
0100
0010
0000
1000
0001
0000
0010
0100
0000
1000
0001
0000
,
0100
0000
0010
1000
0000
0001
0000
1000
0000
0100
0010
0000
0001
0000
0100
0000
,
0001
0000
0010
0000
0001
1000
0000
0100
0000
1000
0001
0000
0100
0000
0010
0000
,
1000
0000
0010
0100
0000
0100
0000
0100
0010
0000
0000
0000
0101
0000
0000
0000
,
1001
0000
0010
0000
1000
0001
0100
0000
0010
0000
1000
0100
0000
0010
0001
0100
,
0001
0000
0010
0100
1000
0000
0010
1000
0001
0000
0100
0010
1000
0000
0001
0000
,
0010
0000
0001
0000
0100
0000
0010
0000
1000
0100
1000
0001
0000
0001
0100
0000
,
0010
0000
1000
0000
0001
0000
1000
0000
1100
0000
0000
0110
0000
0000
0011
0000
,
0100
0000
0001
0010
0001
0000
1000
0001
0100
0000
0010
1000
0000
0100
1000
0001
,
0100
0000
0010
1000
0010
0000
1000
0001
0010
0000
0001
0100
0000
0100
0001
0000
,
0010
0000
0100
1000
0001
0000
0100
0010
1000
0000
0001
0010
0000
0001
1000
0000
,
0100
0000
0010
0000
0001
1000
0100
0000
0001
0000
0010
1000
0000
1000
0001
0000
,
0010
0000
0100
1000
0001
0000
1000
0010
0100
0000
0001
0010
0000
0001
1000
0000
,
0100
0000
1000
0010
1000
0000
0100
0010
0001
0000
0100
0010
0000
0010
1000
0000
,
0100
0000
1000
0001
0010
0000
0001
0010
0100
0000
1000
0001
0000
1000
0100
0000
,
0010
0000
0001
0000
0100
0000
0010
0000
1001
0000
0000
0010
1000
0000
0001
0000
,
0100
0000
0001
0010
0001
0000
1000
0100
0010
0000
0001
1000
0000
1000
0100
1000
,
0001
0000
0010
0001
0100
0000
0010
1000
0100
0000
1000
0001
0000
0010
0001
0000
,
0100
0000
0010
1000
0001
0000
0010
0100
1000
0000
0010
1000
0000
1000
0001
0000
,
0100
0000
0010
0000
0100
0000
0010
0000
1010
0000
0000
0101
0000
0000
1001
0000
;
