#TITLE:Brandy;
#SUBTITLE:(You're A Fine Girl);
#ARTIST:Looking Glass;
#TITLETRANSLIT:;
#SUBTITLETRANSLIT:;
#ARTISTTRANSLIT:;
#GENRE:;
#CREDIT:;
#BANNER:Brandy (You're A Fine Girl)-bn.png;
#BACKGROUND:Brandy (You're A Fine Girl)-bg.png;
#LYRICSPATH:;
#CDTITLE:;
#MUSIC:Brandy (You're a Fine Girl).ogg;
#OFFSET:-0.125000;
#SAMPLESTART:45.000000;
#SAMPLELENGTH:20.000000;
#SELECTABLE:YES;
#DISPLAYBPM:123.000000:127.000000;
#BPMS:0.000000=123.000000
,32.000000=125.999992
,48.000000=124.680008
,72.000000=126.999992
,80.000000=124.000000
,96.000000=124.999992
,128.000000=126.333000
,152.000000=125.199997
,156.000000=124.750000
,160.000000=124.000000
,188.000000=126.432098
,196.000000=125.999992
,208.000000=125.375000
;
#STOPS:
;
#BGCHANGES:;
#KEYSOUNDS:;
#ATTACKS:;

//---------------dance-single - x scale 2----------------
#NOTES:
     dance-single:
     :
     Beginner:
     2:
     0.106513,0.150202,0.026009,0.017339,0.000000,86.000000,83.000000,3.000000,2.000000,0.000000,0.000000,0.106513,0.150202,0.026009,0.017339,0.000000,86.000000,83.000000,3.000000,2.000000,0.000000,0.000000:
0000
0000
0000
0000
,
0000
0000
0000
0000
,
0000
0000
0000
0000
,
0000
0000
0000
0000
,
0000
0000
0000
0000
,
0000
0000
0000
0000
,
0010
0000
0100
0000
,
0001
0000
1000
0000
,
0001
0000
0000
0000
,
1000
0000
1000
0000
,
1000
0000
0000
0000
,
0001
0000
0001
0000
,
0100
0000
0000
0000
,
0010
0000
0010
0000
,
0100
0000
0010
0000
,
0100
0000
0000
0000
,
0001
0000
0000
0000
,
0010
0000
0010
0000
,
0010
0000
0000
0000
,
0001
0000
0001
0000
,
0100
0000
0000
0000
,
1000
0000
1000
0000
,
0100
0000
1000
0000
,
0100
0000
0000
0000
,
1001
0000
0000
1000
,
1000
0000
0000
0001
,
0001
0000
0000
0100
,
0100
0000
0000
0000
,
0010
0000
0100
0000
,
0010
0000
0000
0000
,
1000
0000
1000
0000
,
0001
0000
0001
0000
,
0100
0000
0000
0000
,
0001
0000
0001
0000
,
1000
0000
0100
0000
,
0010
0000
0010
0000
,
0100
0000
0000
0000
,
0001
0000
0001
0000
,
0100
0000
0010
0000
,
1000
0000
0000
0000
,
1000
0000
0000
0000
,
0100
0000
0010
0000
,
0100
0000
0000
0000
,
0001
0000
1000
0000
,
0010
0000
0010
0000
,
0100
0000
0100
0000
,
0001
0000
0001
0000
,
0001
0000
0000
0000
,
1001
0000
0000
0001
,
0001
0000
0000
1000
,
1000
0000
0000
0010
,
0010
0000
0000
0000
,
0100
0000
0001
0000
,
1000
0000
0000
0000
,
0010
0000
0010
0000
,
0100
0000
0100
0000
,
2002
0000
0000
0000
,
0000
0000
0000
3003
;

//---------------dance-single - x scale 4----------------
#NOTES:
     dance-single:
     :
     Easy:
     4:
     0.162246,0.200269,0.086696,0.008670,0.000000,131.000000,121.000000,10.000000,1.000000,0.000000,0.000000,0.162246,0.200269,0.086696,0.008670,0.000000,131.000000,121.000000,10.000000,1.000000,0.000000,0.000000:
0000
0000
0000
0000
,
0000
0000
0000
0000
,
0000
0000
0000
0000
,
0000
0000
0000
0000
,
0000
0000
0000
0000
,
0000
0000
0000
0000
,
1000
0100
1000
0000
,
0001
0100
0001
0000
,
1001
0000
0000
0000
,
0010
1000
0001
0000
,
0110
0000
0000
0000
,
0100
0010
1000
0000
,
0110
0000
0000
0000
,
1000
0100
0001
0000
,
0010
1000
0010
0100
,
0001
0000
0000
0000
,
1001
0000
0000
0000
,
0010
0001
0100
0000
,
1001
0000
0000
0000
,
1000
0100
0010
0000
,
0110
0000
0000
0000
,
0001
1000
0010
0000
,
0001
0100
0010
0100
,
1000
0000
0001
0000
,
0100
0010
0000
1000
,
0001
1000
0000
0100
,
0010
0100
0000
0001
,
0010
0000
0000
0000
,
1000
0000
1000
0000
,
0001
0000
0001
0000
,
0001
0010
0001
0000
,
1000
0010
1000
0000
,
1001
0000
0000
0000
,
0010
0100
1000
0000
,
1000
0100
0001
0000
,
0001
0100
0010
0000
,
0110
0000
0000
0000
,
1000
0010
0001
0000
,
1000
0100
0010
1000
,
0001
0000
0000
0000
,
0110
0000
0000
0000
,
0010
0100
0001
0000
,
1001
0000
0000
0000
,
1000
0001
0100
0000
,
0001
0010
1000
0000
,
1000
0010
0100
0000
,
0001
1000
0100
0010
,
0100
0000
0001
0000
,
0100
1000
0000
0010
,
0100
0010
0000
0001
,
1000
0001
0000
0001
,
1000
0000
0000
0000
,
0010
0000
0010
0000
,
0100
0000
0100
0000
,
0010
0010
0100
0000
,
1000
1000
0001
0000
,
0200
0000
0000
0000
,
0000
0000
0000
0300
;

//---------------dance-single - x scale 7----------------
#NOTES:
     dance-single:
     :
     Medium:
     7:
     0.266282,0.305605,0.069357,0.190732,0.000000,215.000000,207.000000,8.000000,22.000000,0.000000,0.000000,0.266282,0.305605,0.069357,0.190732,0.000000,215.000000,207.000000,8.000000,22.000000,0.000000,0.000000:
0000
0000
0000
0000
,
0000
0000
0000
0000
,
0000
0000
0000
0000
,
0000
0000
0000
0000
,
0000
0000
0000
0000
,
0000
0000
0000
0000
,
0110
0000
0010
0000
1000
0000
0001
1000
,
0000
0000
0100
0010
0100
0000
0001
0000
,
1001
0010
1000
0001
,
0100
0010
0000
1000
0000
0000
1000
0001
,
0000
0000
0100
0000
0010
1000
0010
0000
,
1000
0010
0000
0100
0000
0000
0100
0001
,
0100
0010
1000
0001
,
0010
0001
0000
0100
0000
0000
0000
0000
,
0001
2000
0000
3020
0000
0230
0000
0302
,
0000
1000
1000
1003
,
1010
0100
0001
1000
,
0010
0100
0000
0001
0000
0000
0001
1000
,
0000
1000
0010
0100
,
0100
0001
0000
1000
0000
0000
1000
0010
,
0000
0010
0100
0000
0001
0000
1000
0000
,
0010
1000
0000
0001
0000
0000
0000
0000
,
0100
0020
0000
2030
0000
3002
0000
0203
,
0000
0010
0010
0310
,
0100
0010
1000
0000
0000
1000
0001
0100
,
0000
0100
0000
0000
0000
1000
0010
0100
,
0000
0000
0010
0000
0000
1000
0001
1000
,
0000
0000
0000
0000
0000
0010
0100
0010
,
2000
0001
0100
3010
,
0002
1000
0010
0103
,
0101
0000
1000
0000
0001
0000
0100
0010
,
0000
0000
0001
0100
0010
0000
1000
0000
,
1001
0100
0001
0010
,
0001
0100
0000
1000
0000
0000
0010
0100
,
0010
0000
0000
1000
0000
0000
0001
0100
,
0001
1000
0000
0010
0000
0000
0000
0000
,
0100
0001
0100
1000
,
0001
0000
1000
0100
0000
0000
1000
0001
,
0200
0000
0310
2000
0000
3002
0000
0023
,
0000
0001
0001
0031
,
0101
0100
1000
0010
,
1000
0001
0000
0010
0000
0000
0100
0010
,
1000
0001
0100
0010
,
0010
1000
0000
0001
0000
0000
0100
0000
,
0001
1000
0000
0001
0000
0000
0000
0000
,
0100
0010
0000
0100
0000
0000
0000
0000
,
0001
0200
0000
0302
0000
2003
0000
3020
,
0000
1000
1000
1030
,
0010
0100
0001
0000
0000
1000
0010
1000
,
0000
0100
0000
0000
0000
0010
1000
0001
,
0000
0000
1000
0000
0000
0010
1000
0001
,
0000
0000
0000
0000
0000
0001
1000
0010
,
0200
0010
1000
0301
,
0020
0100
0001
1030
,
1010
0000
0010
0000
1000
0000
0100
0010
,
0000
0000
0001
1000
0001
0000
0100
0000
,
0220
0000
0000
0000
,
0000
0000
0000
0000
,
0000
0000
0000
0330
;

//---------------dance-single - ----------------
#NOTES:
     dance-single:
     :
     Hard:
     10:
     0.411189,0.458407,0.208071,0.086696,0.000000,332.000000,308.000000,24.000000,10.000000,0.000000,0.000000,0.411189,0.458407,0.208071,0.086696,0.000000,332.000000,308.000000,24.000000,10.000000,0.000000,0.000000:
// measure 0
0000
0000
0000
0000
,  // measure 1
0000
0000
0000
0000
,  // measure 2
0000
0000
0000
0000
,  // measure 3
0000
0000
0000
0000
,  // measure 4
0000
0000
0000
0000
,  // measure 5
0000
0000
0000
0000
,  // measure 6
1010
0000
0100
0010
1000
0010
0100
0101
,  // measure 7
0000
0000
0001
0010
0100
1000
0010
0100
,  // measure 8
0010
0000
1000
0001
0010
0000
0001
0100
,  // measure 9
0010
1000
0010
0100
0000
0100
0001
1000
,  // measure 10
0100
0000
0001
0001
0000
1000
1000
0010
,  // measure 11
0100
0010
1000
0001
0000
0000
0001
1000
,  // measure 12
0001
0100
1000
0000
0010
0000
1000
0001
,  // measure 13
1000
0100
0010
0001
0000
0100
0010
1000
,  // measure 14
0001
0011
0000
1100
0000
1001
0000
0110
,  // measure 15
0000
0000
0001
0000
0100
0010
0100
0001
,  // measure 16
1001
0000
0100
0000
0100
0010
1000
0001
,  // measure 17
0010
0001
0100
0010
0000
1000
0100
1000
,  // measure 18
0010
0000
0100
0001
0000
0100
0010
1000
,  // measure 19
0010
0010
1000
0001
0000
0100
0100
0001
,  // measure 20
0010
0001
0100
0000
1000
0000
1000
0010
,  // measure 21
0100
0010
0100
0101
0000
0001
1000
0001
,  // measure 22
0100
1100
0000
0011
0000
0010
1000
1010
,  // measure 23
0000
0000
0100
0010
1000
0010
0100
0110
,  // measure 24
0000
0010
1000
0000
0001
0010
0100
2000
,  // measure 25
0000
3010
0100
0002
0000
1003
0010
0200
,  // measure 26
0000
0000
0310
0000
1000
0100
0010
0001
,  // measure 27
0000
0001
1000
0020
0000
1030
0100
0001
,  // measure 28
1000
0001
1000
0001
0100
0010
0100
0010
,  // measure 29
0001
1000
0001
1000
0010
0100
0010
0100
,  // measure 30
0101
0000
0001
1000
0100
1000
0001
0110
,  // measure 31
0000
0000
1000
0100
0010
0100
1000
0000
,  // measure 32
0010
1000
0100
0000
1000
0000
0001
0100
,  // measure 33
0010
0100
0010
1000
0000
0000
1000
0001
,  // measure 34
0100
0010
0000
1010
0000
0010
0001
1000
,  // measure 35
0001
0010
0000
0011
0000
0000
0100
0010
,  // measure 36
0100
0010
1000
0000
0001
0001
0000
0100
,  // measure 37
0100
0000
0010
1000
0000
0100
1000
0001
,  // measure 38
0010
0000
0001
0100
0000
1001
0000
1100
,  // measure 39
0000
0000
0010
0000
0100
0001
0100
0010
,  // measure 40
1000
0000
0010
0010
0000
0100
0001
0100
,  // measure 41
0010
0100
0001
0100
0000
0000
1000
1000
,  // measure 42
0001
0000
0100
0000
0100
0010
1000
0001
,  // measure 43
1000
0100
0010
0001
0000
0010
0001
1000
,  // measure 44
0001
1000
0000
0001
0000
0100
0010
0100
,  // measure 45
0001
0010
0000
1000
0000
0001
0100
0010
,  // measure 46
1000
0001
0000
0110
0000
1001
0000
1100
,  // measure 47
0000
0000
0001
0100
0010
1000
0001
0101
,  // measure 48
0000
0010
0100
0000
1000
0010
0100
0002
,  // measure 49
0000
0103
0010
2000
0000
3001
1000
0020
,  // measure 50
0000
0000
0130
0000
0001
0100
0010
1000
,  // measure 51
0000
1000
0001
0200
0000
0310
0100
0001
,  // measure 52
1000
0100
1000
0100
0010
0100
0010
0100
,  // measure 53
0001
1000
0001
1000
0001
0010
0001
0010
,  // measure 54
0011
0000
0001
1000
0010
0100
0010
1010
,  // measure 55
0000
0000
0010
1000
0001
1000
0002
0020
,  // measure 56
0000
0000
0000
0000
,  // measure 57
0000
0000
0000
0000
,  // measure 58
0000
0000
0000
0033
;
