#VERSION:0.83;
#TITLE:Boundcloud;
#SUBTITLE:;
#ARTIST:DJ Simon;
#TITLETRANSLIT:;
#SUBTITLETRANSLIT:;
#ARTISTTRANSLIT:;
#GENRE:;
#ORIGIN:;
#TAGS:;
#CREDIT:;
#BANNER:Boundcloud-bn.png;
#BACKGROUND:Boundcloud-bg.png;
#PREVIEWVID:;
#JACKET:Boundcloud-jacket.png;
#CDIMAGE:;
#DISCIMAGE:;
#LYRICSPATH:;
#CDTITLE:;
#MUSIC:Boundcloud.ogg;
#OFFSET:0.000000;
#SAMPLESTART:7.385000;
#SAMPLELENGTH:20.000000;
#SELECTABLE:YES;
#DISPLAYBPM:130.000000;
#BPMS:0.000000=130.000000;
#STOPS:;
#DELAYS:;
#WARPS:;
#TIMESIGNATURES:0.000000=4=4;
#TICKCOUNTS:0.000000=4;
#COMBOS:0.000000=1;
#SPEEDS:0.000000=1.000000=0.000000=0;
#SCROLLS:0.000000=1.000000;
#FAKES:;
#LABELS:0.000000=Song Start;
#BGCHANGES:;
#KEYSOUNDS:;
#ATTACKS:
;

//---------------dance-single - ----------------
#NOTEDATA:;
#CHARTNAME:;
#CHARTHASH:3198877173:
#STEPSTYPE:dance-single;
#BANNER:;
#DESCRIPTION:;
#CHARTSTYLE:;
#DIFFICULTY:Challenge;
#METER:13;
#METERF:0.000000;
#RADARVALUES:0.562736,0.615096,0.207324,0.621971,0.617652,456.000000,432.000000,24.000000,72.000000,0.000000,0.000000,0.000000,0.000000,0.000000,0.562736,0.615096,0.207324,0.621971,0.617652,456.000000,432.000000,24.000000,72.000000,0.000000,0.000000,0.000000,0.000000,0.000000;
#CREDIT:;
#DISPLAYBPM:130.000000:0.000000;
#NOTES:
0000
0000
0000
0000
,
0000
0000
0000
0000
,
0000
0000
0000
0000
,
0001
0010
0001
1000
0010
1000
0001
0100
0001
1000
0100
1000
,
0001
0000
1000
0010
0000
0010
1000
0000
0200
0000
0001
0000
0301
0000
0000
0000
,
0200
0320
2030
3002
,
0013
0000
0001
0100
0000
0000
0010
0000
1000
0000
0001
0100
0000
0000
0010
0000
,
1000
0000
0000
0000
0000
0000
0002
0000
0000
0000
0000
0000
0000
0000
0000
0203
0000
0000
0000
0000
0000
0000
0000
0000
0320
0000
0000
0000
0000
0000
0000
0000
0000
1000
0030
0000
0000
0000
0000
0000
1000
0000
0001
0000
0000
0000
0000
0000
,
1000
0000
0010
0100
0000
0000
0001
0000
0010
0000
0100
1000
0000
0000
0001
0000
,
2000
3002
0203
0320
,
1030
0000
0100
0010
0000
0000
0001
0000
0010
0000
0001
1000
0000
0000
0010
0000
,
0000
0000
1000
0100
0000
0100
1000
0000
0010
0100
0000
0001
0000
0000
1000
0000
,
0010
0000
1000
0001
1000
0000
0100
0000
0020
0001
0000
0031
0000
0000
0100
0010
,
0200
0000
0001
0000
0301
0000
0000
0000
2000
0000
0000
3002
0000
0000
1003
0000
,
0010
0000
0100
0002
0000
0000
1000
0000
1003
0000
0010
0100
0000
0000
0001
0000
,
0020
0032
2003
3020
,
0130
0000
0001
1000
0001
0000
0100
0000
0020
1000
0000
1030
0000
0000
0001
0010
,
0001
0000
1000
0200
0000
0000
0010
0000
0310
0000
0001
0100
0000
0000
0010
0000
,
1000
0000
0001
0100
0001
0000
1000
0000
0020
0100
0000
0130
0000
0000
0001
1000
,
0002
0000
0010
0000
0013
0000
0100
0000
1000
0000
0010
0100
0000
0010
0100
0000
,
0001
0000
1000
0100
0000
0000
0010
0000
0001
0000
0100
0010
0000
0000
1000
0000
,
2100
0001
0100
3010
,
0102
0000
0000
0010
0000
0000
1003
0001
2000
0000
0000
0010
0000
0000
3001
0100
,
0001
0000
0010
0100
0000
0000
1000
0010
1000
0000
0001
0010
0001
0000
0100
0010
,
0200
0000
0000
0301
0000
0000
1000
0000
0020
0100
0000
0130
0000
0000
0001
0000
,
0011
1010
1001
0110
,
2000
0000
0000
0001
0000
0000
3010
0100
0020
0000
0000
0001
0000
0000
1030
0100
,
1000
0000
0001
0100
0001
0000
1000
0010
1000
0000
0001
0010
0001
0000
0100
0010
,
0200
0000
0000
0010
0000
0000
1000
0000
1000
0000
0000
0301
0000
0000
0100
0010
,
0200
0000
0001
0000
0301
0000
0000
0000
2000
0000
0000
3200
0000
0000
0310
0000
,
0100
0000
1000
0002
1000
0000
0000
0000
0010
0000
0000
0013
0000
0000
0001
0000
,
0200
0001
0010
1000
,
0301
0000
0000
0010
0100
0000
1000
0000
0002
0000
0000
0203
0000
0000
0301
0010
,
0001
0000
1000
0020
1000
0000
1030
0000
0100
0000
0001
0200
0001
0000
0000
0000
,
0310
0000
0000
1000
0010
0000
0000
0000
1000
0000
1001
0000
0000
0110
0000
0000
,
0002
0000
0010
0000
0013
0000
1000
0100
2000
0001
0000
3001
0000
0100
0010
0000
,
1000
0000
0000
0000
0001
0000
0000
0000
0000
0000
0101
0000
0000
0000
0000
0000
0000
0000
0010
0000
0000
0100
0000
0000
0010
0000
0000
0100
0000
0000
0000
0000
0000
0000
0000
0000
1010
0000
0000
0000
0000
0000
1000
0000
0000
0000
0002
0000
,
0010
0100
0010
0103
,
0001
0000
0000
0000
0010
0000
0000
0000
0000
0000
0011
0000
0000
0000
0000
0000
0000
0000
1000
0000
0000
0001
0000
0000
1000
0000
0000
0001
0000
0000
0000
0000
0000
0000
0000
0000
1100
0000
0000
0000
0000
0000
0010
0000
0000
0000
0200
0000
,
0001
1000
0001
1300
,
0010
0000
0000
0000
1000
0000
0000
0000
0000
0000
1010
0000
0000
0000
0000
0000
0000
0000
0001
0000
0000
0010
0000
0000
0001
0000
0000
0010
0000
0000
0000
0000
0000
0000
0000
0000
0011
0000
0000
0000
0000
0000
0001
0000
0000
0000
2000
0000
,
0100
0010
0100
3010
,
1000
0000
0100
0000
0000
1100
0000
0000
0000
0000
0000
0000
0010
0000
0001
0000
0000
0101
0000
0000
0000
0000
0000
0000
,
1000
0000
0000
0000
0000
0000
0010
0000
0000
0000
0100
0000
0000
0000
0000
0000
0100
0000
0001
0000
0000
0000
0000
0000
0010
0000
0000
0000
0000
0000
0210
0000
0000
0000
0000
0000
0000
0000
0000
1300
0000
0000
0000
0000
0000
0000
0000
0000
,
2001
0100
0100
3100
,
0002
0023
0230
2300
,
3020
0000
0100
0000
0000
0100
0000
0000
0001
0000
0000
1000
0030
0000
0001
1000
,
0001
0000
0000
0100
0000
0000
0010
0000
1000
0000
0000
0001
0000
0000
1000
0100
,
2000
0001
0001
3001
,
0020
0230
2300
3002
,
0203
0000
0010
0000
0000
0010
0000
0000
1000
0000
0000
0301
0000
0000
1000
0100
,
1000
0000
0001
0100
0001
0000
1000
0010
1000
0000
0001
0010
0001
0000
0100
0010
,
0100
0000
0001
1000
0001
0000
0000
0000
0010
1000
0000
0010
0000
0000
0100
0001
,
2000
0000
0100
0000
3100
0000
0000
0000
0020
0000
0000
0032
0000
0000
1003
0000
,
0010
0000
1000
0200
1000
0000
0000
0000
0301
0000
0000
0100
0000
0000
1000
0010
,
2000
3002
0023
0230
,
0301
0000
0100
0010
0100
0000
0000
0000
1000
0000
0001
1000
0000
0000
0010
0100
,
0001
0000
1000
0002
0000
0000
0100
0000
0103
0000
0010
2000
0000
0000
0000
0000
,
3001
0000
0010
0100
1000
0000
0000
0000
1000
0000
1100
0000
0000
0101
0000
0000
,
0020
0000
0001
0000
0031
0000
1000
0001
0200
0010
0000
0310
0000
1000
0001
0000
,
1001
1010
0011
0110
,
1000
0100
1000
0001
0100
0001
1000
0010
1000
0001
0010
0001
;

//---------------dance-single - ----------------
#NOTEDATA:;
#CHARTNAME:;
#CHARTHASH:2125060791:
#STEPSTYPE:dance-single;
#BANNER:;
#DESCRIPTION:;
#CHARTSTYLE:;
#DIFFICULTY:Hard;
#METER:10;
#METERF:0.000000;
#RADARVALUES:0.399839,0.481380,0.051831,1.019342,0.358497,324.000000,318.000000,6.000000,118.000000,0.000000,0.000000,0.000000,0.000000,0.000000,0.399839,0.481380,0.051831,1.019342,0.358497,324.000000,318.000000,6.000000,118.000000,0.000000,0.000000,0.000000,0.000000,0.000000;
#CREDIT:;
#DISPLAYBPM:130.000000;
#NOTES:
0000
0000
0000
0000
,
0000
0000
0000
0000
,
0000
0000
0000
0000
,
0002
2003
3002
2003
,
3020
0000
0000
0100
0000
0000
0000
0000
1000
0000
0000
1000
0030
0000
0000
0000
,
0002
0023
0230
2300
,
3020
0000
0000
0001
0000
0000
0000
0000
0100
0000
0000
0100
0030
0000
0000
0000
,
0001
0000
2000
0000
0000
3020
0000
0000
0230
0000
0000
0302
0000
0000
0000
0000
,
0023
0000
0000
1000
0000
0000
0000
0000
0001
0000
0000
0001
0030
0000
0000
0000
,
2000
3200
0320
0032
,
0203
0000
0000
0001
0000
0001
0000
0000
0000
0000
0000
1000
0000
0000
1000
0000
,
0000
0000
0000
0010
0000
0010
0000
0000
0000
0000
0000
1000
0300
0000
0001
0000
,
2000
0000
0000
0000
0010
0000
0000
0000
0100
0000
0000
0000
3001
0000
0100
0010
,
0200
0000
0000
0000
0301
0000
0000
0000
2000
0000
0000
3002
0000
0000
0103
0000
,
0010
0000
1000
0020
0000
0000
0000
0000
0100
0000
0000
0100
0030
0000
0000
0000
,
2000
3002
0023
0230
,
0320
0000
0000
0000
0100
0000
0000
0000
1000
0000
0000
0000
0031
0000
1000
0100
,
1000
0000
0001
2000
0000
0000
0000
0000
0010
0000
0000
0010
3000
0000
0000
0000
,
0200
0000
0000
0000
1000
0000
0000
0000
0001
0000
0000
0000
0310
0000
1000
0001
,
2000
0000
0000
0000
3100
0000
0000
0000
0020
0000
0000
0032
0000
0000
1003
0000
,
0002
0000
0000
0000
0100
0000
0000
0000
1000
0000
0000
0100
0003
0000
1000
0000
,
0020
0230
0302
2003
,
3020
0000
0000
0000
0000
0000
0130
0001
0200
0000
0000
0000
0000
0000
0301
1000
,
0002
0000
0000
0023
0000
0000
0032
0000
2003
0000
0000
3020
0000
0000
1030
0100
,
2000
0000
0000
0000
0001
0000
0000
0000
0010
0000
0000
3001
0000
0000
0010
0000
,
0002
0203
0320
2030
,
3002
0000
0000
0000
0000
0000
0013
0100
0020
0000
0000
0000
0000
0000
0031
1000
,
0001
0000
0000
0000
0101
0000
0000
0000
1100
0000
0000
0000
1000
0010
1000
0010
,
2000
0000
0000
0000
0001
0000
0000
0000
0100
0000
0000
0000
3010
0000
0100
0001
,
0200
0000
0000
0000
0310
0000
0000
0000
2000
0000
0000
3200
0000
0000
0310
0000
,
0001
0000
0100
0020
0000
0000
0000
0000
1000
0000
0000
0001
0000
0000
1030
0000
,
0020
2030
3002
0203
,
0302
0000
0000
0010
0000
0000
0013
0000
0001
0000
1000
0200
0000
0000
1300
0010
,
1000
0000
0010
0200
0000
0000
0301
0000
0010
0000
0100
2000
0000
0000
0000
0000
,
3002
0000
0000
0000
0100
0000
0000
0000
1003
0000
0002
0000
0000
2003
0000
0000
,
3020
0000
0000
0000
0000
0000
0130
0001
0200
0000
0000
0010
0000
0000
0310
0000
,
2000
0000
0001
0000
0000
3001
0000
0000
0000
0000
0000
0000
0000
0000
0000
0000
0000
0000
0100
0000
0000
0010
0000
2000
,
0000
0001
0001
3001
,
0020
0000
0100
0000
0000
0130
0000
0000
0000
0000
0000
0000
0000
0000
0000
0000
0000
0000
1000
0000
0000
0001
0000
0020
,
0000
0100
0100
0130
,
2000
0000
0010
0000
0000
3010
0000
0000
0000
0000
0000
0000
0000
0000
0000
0000
0000
0000
0100
0000
0000
0001
0000
2000
,
0000
0010
0010
3010
,
1000
0000
0001
0000
0000
0101
0000
0000
0000
0000
0000
0000
0001
0000
1000
0000
0000
1100
0000
0000
0000
0000
0000
0000
,
0020
0000
0000
2030
0000
0000
3001
0000
1000
0000
0020
0000
0000
0230
0000
0000
,
0302
0010
1000
0013
,
2000
3002
2003
3200
,
0320
0000
0000
0000
0000
0000
0031
0100
0002
0000
0000
0000
0000
0000
1003
0100
,
1000
0000
0010
0000
0100
0000
0001
0000
0010
0000
0100
0000
1000
0001
1000
0001
,
2000
0000
0000
0010
0000
0000
0000
0000
0001
0000
0000
0001
3000
0000
1000
0000
,
0020
2030
3200
0320
,
0032
0000
1000
0000
0000
0000
0103
0010
0200
0000
0000
0000
0000
0000
0310
1000
,
0010
0000
0100
0000
0001
0000
0010
0000
0100
0000
1000
0000
0001
0100
0001
0100
,
0002
0000
0000
0000
1000
0000
0000
0000
0010
0000
0000
0000
0103
0000
0001
1000
,
0002
0000
0100
0000
0103
0000
0000
0000
2000
0000
0000
3020
0000
0000
0130
0000
,
0001
0000
0010
0200
0000
0000
0000
0000
1000
0000
1000
0000
0000
0310
0000
0000
,
0002
0203
0320
2030
,
3002
0000
0000
0000
0010
0000
0000
0000
1003
0000
0010
0200
0000
0000
0301
1000
,
0001
0000
0010
0002
0000
0000
0100
0000
0103
0000
0010
2000
0000
0000
0000
0000
,
3020
0000
0000
0000
0100
0000
0000
0000
0031
0000
0020
0000
0000
2030
0000
0000
,
3002
0000
0100
0000
0103
0000
0001
1000
0002
0000
0000
0010
0000
0000
1003
0000
,
1200
0001
1000
0001
,
2300
0000
0000
3002
0000
0000
2003
0000
0000
3001
0000
0101
;

//---------------dance-single - ----------------
#NOTEDATA:;
#CHARTNAME:;
#CHARTHASH:0:
#STEPSTYPE:dance-single;
#BANNER:;
#DESCRIPTION:;
#CHARTSTYLE:;
#DIFFICULTY:Medium;
#METER:8;
#METERF:0.000000;
#RADARVALUES:0.259155,0.320920,0.000000,0.794741,0.181408,210.000000,210.000000,0.000000,92.000000,0.000000,0.000000,0.000000,0.000000,0.000000,0.259155,0.320920,0.000000,0.794741,0.181408,210.000000,210.000000,0.000000,92.000000,0.000000,0.000000,0.000000,0.000000,0.000000;
#CREDIT:;
#DISPLAYBPM:130.000000;
#NOTES:
0000
0000
0000
0000
,
0000
0000
0000
0000
,
0000
0000
0000
0000
,
0002
2003
3002
2003
,
3020
0000
0000
0000
,
2030
3002
0023
0230
,
2300
0100
0000
0100
,
0000
0010
0000
0010
,
3002
0000
0000
0000
,
0023
0032
2003
3200
,
0320
0001
0000
1000
,
0000
0001
0000
1000
,
0230
0000
0000
0000
0000
0000
0000
0000
0000
0000
0000
0000
0000
0000
1300
0001
,
2000
0000
0000
0000
0000
0000
0000
0000
3010
0000
0000
0100
0000
0000
0001
0000
,
1000
0000
0100
0020
0000
0000
0000
0000
0000
0000
0000
0000
0000
0000
0000
0000
,
0032
0203
0320
2030
,
3200
0000
0000
0000
0000
0000
0000
0000
0000
0000
0000
0000
0000
0000
1300
0001
,
1000
0000
0010
0200
0000
0000
0000
0000
0000
0000
0000
0000
0000
0000
0000
0000
,
0302
0000
0000
0000
0000
0000
0000
0000
0000
0000
0000
0000
0000
0000
0013
0100
,
0020
0000
0000
0000
0000
0000
0000
0000
0031
0000
0000
1000
0000
0000
0001
0000
,
0200
0000
0000
0000
0000
0000
0000
0000
0310
0000
0000
1000
0000
0000
0001
0000
,
2000
3200
0320
0032
,
0203
0000
0000
0001
0002
0000
0003
1000
,
1000
0010
0001
0310
,
2000
0000
0000
0000
0000
0000
0000
0000
3001
0000
0000
0010
0000
0000
0100
0000
,
2000
3002
0203
0320
,
2030
0000
0000
0100
0200
0000
0300
0010
,
0010
0100
0001
3100
,
0002
0000
0000
0000
0000
0000
0000
0000
0000
0000
0000
0000
0000
0000
1003
0010
,
2000
0000
0000
0000
0000
0000
0000
0000
3100
0000
0000
1000
0000
0000
0001
0000
,
0100
0000
0001
0020
0000
0000
0000
0000
0000
0000
0100
0000
0000
0001
0000
0000
,
0230
2300
3002
0203
,
0302
0000
0000
0000
0000
0000
0000
0000
0000
0000
0000
0000
0000
0000
1003
0100
,
1000
0000
0010
0200
0000
0000
0000
0000
0301
0000
1000
0001
0000
0000
0000
0000
,
0020
0000
0000
0000
0000
0000
0000
0000
0000
0000
0032
0000
0000
2003
0000
0000
,
3002
0000
0000
0000
0000
0000
0103
0010
0200
0000
0000
0000
0000
0000
0000
0000
,
0301
1000
0000
0001
0000
0000
0000
0000
0000
0000
0000
0000
0100
0000
0010
2000
,
0000
0000
0000
0000
,
3010
0100
0000
0010
0000
0000
0000
0000
0000
0000
0000
0000
1000
0000
0001
0200
,
0000
0000
0000
0000
,
0301
0010
0000
0001
0000
0000
0000
0000
0000
0000
0000
0000
1000
0000
0100
0020
,
0000
0000
0000
0000
,
0031
1000
0000
0001
0000
0000
0000
0000
0100
0010
0000
0100
0000
0000
0000
0000
,
0002
0000
0000
0000
0203
0000
0000
0000
1300
0000
0200
0000
0000
0302
0000
0000
,
2003
0000
0000
0000
,
3020
0230
0320
0230
,
0302
0000
0000
1000
2000
0000
3000
0010
,
0010
1000
0100
0013
,
0200
0000
0000
0000
,
2300
3002
2003
3002
,
0203
0000
0000
1000
2000
0000
3000
0001
,
0001
1000
0010
1300
,
0002
0000
0000
0000
0000
0000
0000
0000
0000
0000
0000
0000
0000
0000
0013
0100
,
0020
0000
0000
0000
0000
0000
0000
0000
0031
0000
0000
0100
0000
0000
0010
0000
,
0100
0000
0001
2000
0000
0000
0000
0000
0000
0000
0100
0000
0000
3100
0000
0000
,
2000
3002
2003
3200
,
0320
0000
0000
0000
0000
0000
0000
0000
0000
0000
0000
0000
0000
0000
0031
1000
,
0001
0000
0010
0200
0000
0000
0000
0000
1000
0000
0000
1000
0000
0000
0000
0000
,
0320
0000
0000
0000
0000
0000
0000
0000
0000
0000
0031
0000
0000
1000
0000
0000
,
0020
0000
0000
0000
0000
0000
1030
0001
2000
0000
0000
0000
0000
0000
0000
0000
,
3100
0100
0100
0100
,
0002
0000
0000
2003
0000
0000
3002
0000
0000
2003
0000
3001
;

//---------------dance-single - ----------------
#NOTEDATA:;
#CHARTNAME:;
#CHARTHASH:0:
#STEPSTYPE:dance-single;
#BANNER:;
#DESCRIPTION:;
#CHARTSTYLE:;
#DIFFICULTY:Easy;
#METER:5;
#METERF:0.000000;
#RADARVALUES:0.156727,0.267433,0.138216,0.380093,0.004319,127.000000,111.000000,16.000000,44.000000,0.000000,0.000000,0.000000,0.000000,0.000000,0.156727,0.267433,0.138216,0.380093,0.004319,127.000000,111.000000,16.000000,44.000000,0.000000,0.000000,0.000000,0.000000,0.000000;
#CREDIT:;
#DISPLAYBPM:130.000000;
#NOTES:
0000
0000
0000
0000
,
0000
0000
0000
0000
,
0000
0000
0000
0000
,
0002
0003
2000
3000
,
0020
0000
0000
0030
,
1000
0001
0010
0001
,
0200
0000
0000
0000
,
0000
0000
0000
0300
,
0020
0000
0000
0030
,
0100
0001
1000
0001
,
0020
0000
0000
0000
,
0000
0000
0000
0030
,
0002
0000
0000
0003
,
2000
3000
0010
0100
,
1001
0002
0000
0003
,
1000
0001
0100
0010
,
2000
0000
0000
3000
,
0110
0200
0000
0300
,
0020
0000
0000
0030
,
0002
0003
1000
0001
,
2002
0000
0000
0003
,
0010
0100
0010
3100
,
0002
0000
0000
0000
,
0000
0000
0000
0003
,
0220
0000
0000
0030
,
1000
0001
1000
0301
,
0020
0000
0000
0000
,
0000
0000
0000
0030
,
0002
0000
0000
0003
,
0200
0300
0010
1000
,
1001
0020
0000
0030
,
1000
0001
0100
0010
,
0200
0000
0000
0300
,
0110
0002
0000
0003
,
2000
0000
0000
3001
,
0020
0030
0200
0300
,
1000
1100
0000
0001
,
0200
0000
0000
0300
,
0001
0011
0000
1000
,
0020
0000
0000
0030
,
0100
0110
0000
0001
,
2000
0000
0000
3000
,
1010
0000
0101
0000
,
1000
0001
1000
1001
,
0020
0000
0000
0030
,
1000
0100
0010
0001
,
0200
0000
0000
0000
,
0000
0000
0000
0300
,
0002
0000
0000
0003
,
0010
0001
1000
0001
,
0200
0000
0000
0000
,
0000
0000
0000
0300
,
2000
0000
0000
3000
,
0020
0030
1000
0001
,
0110
0200
0000
0300
,
0001
0001
1000
0100
,
2000
0000
0000
3000
,
1001
0200
0000
0300
,
0020
0000
0000
1030
,
0002
0003
2000
3000
,
0110
0000
0000
0000
,
0002
0000
0000
0003
0000
0000
2000
0000
0000
3000
0000
1001
;

//---------------dance-single - ----------------
#NOTEDATA:;
#CHARTNAME:;
#CHARTHASH:0:
#STEPSTYPE:dance-single;
#BANNER:;
#DESCRIPTION:;
#CHARTSTYLE:;
#DIFFICULTY:Beginner;
#METER:1;
#METERF:0.000000;
#RADARVALUES:0.092555,0.133717,0.034554,0.000000,0.004319,75.000000,71.000000,4.000000,0.000000,0.000000,0.000000,0.000000,0.000000,0.000000,0.092555,0.133717,0.034554,0.000000,0.004319,75.000000,71.000000,4.000000,0.000000,0.000000,0.000000,0.000000,0.000000,0.000000;
#CREDIT:;
#DISPLAYBPM:130.000000;
#NOTES:
// measure 0
0000
0000
0000
0000
,  // measure 1
0000
0000
0000
0000
,  // measure 2
0000
0000
0000
0000
,  // measure 3
0001
0000
0000
0000
,  // measure 4
1000
0000
0000
0000
,  // measure 5
0010
0000
0010
0000
,  // measure 6
0100
0000
0000
0000
,  // measure 7
0000
0000
0000
0000
,  // measure 8
0010
0000
0000
0000
,  // measure 9
1000
0000
1000
0000
,  // measure 10
0001
0000
0000
0000
,  // measure 11
0000
0000
0000
0000
,  // measure 12
0100
0000
0000
0000
,  // measure 13
0001
0000
1000
0000
,  // measure 14
0001
0000
0000
0000
,  // measure 15
0010
0000
0100
0000
,  // measure 16
1000
0000
0000
0000
,  // measure 17
0010
0000
0000
0000
,  // measure 18
1000
0000
0000
0000
,  // measure 19
0001
0000
0001
0000
,  // measure 20
0001
0000
0000
0000
,  // measure 21
0100
0000
0010
0000
,  // measure 22
0100
0000
0000
0000
,  // measure 23
0000
0000
0000
0000
,  // measure 24
0001
0000
0000
0000
,  // measure 25
1000
0000
0100
0000
,  // measure 26
1000
0000
0000
0000
,  // measure 27
0000
0000
0000
0000
,  // measure 28
0010
0000
0000
0000
,  // measure 29
0100
0000
0001
0000
,  // measure 30
1000
0000
0000
0000
,  // measure 31
0001
0000
0010
0000
,  // measure 32
0001
0000
0000
0000
,  // measure 33
0100
0000
0000
0000
,  // measure 34
0010
0000
0000
0000
,  // measure 35
1000
0000
1000
0000
,  // measure 36
1001
0000
0000
0000
,  // measure 37
0010
0000
0000
0000
,  // measure 38
1001
0000
0000
0000
,  // measure 39
0100
0000
0000
0000
,  // measure 40
1001
0000
0000
0000
,  // measure 41
0010
0000
0000
0000
,  // measure 42
1000
0000
0001
0000
,  // measure 43
1000
0000
0100
0000
,  // measure 44
0010
0000
0000
0000
,  // measure 45
0001
0000
1000
0000
,  // measure 46
1000
0000
0000
0000
,  // measure 47
0000
0000
0000
0000
,  // measure 48
0100
0000
0000
0000
,  // measure 49
1000
0000
0010
0000
,  // measure 50
0010
0000
0000
0000
,  // measure 51
0000
0000
0000
0000
,  // measure 52
0100
0000
0000
0000
,  // measure 53
0001
0000
1000
0000
,  // measure 54
0100
0000
0000
0000
,  // measure 55
1000
0000
0010
0000
,  // measure 56
0001
0000
0000
0000
,  // measure 57
0100
0000
0000
0000
,  // measure 58
0001
0000
0000
0000
,  // measure 59
1000
0000
1000
0000
,  // measure 60
0010
0000
0000
0000
,  // measure 61
0001
0000
0000
0000
0000
0000
0000
0000
0000
0000
0000
1001
;
