#TITLE:Bossa Gabba;
#SUBTITLE:;
#ARTIST:BEMANI Sound Team "ZAQUVA";
#TITLETRANSLIT:;
#SUBTITLETRANSLIT:;
#ARTISTTRANSLIT:;
#GENRE:;
#CREDIT:;
#BANNER:Bossa Gabba-bn.png;
#BACKGROUND:Bossa Gabba-bg.png;
#LYRICSPATH:;
#CDTITLE:;
#MUSIC:Bossa Gabba.ogg;
#OFFSET:-0.222222;
#SAMPLESTART:38.573002;
#SAMPLELENGTH:20.000000;
#SELECTABLE:YES;
#DISPLAYBPM:200.000000;
#BPMS:0.000000=200.000000
;
#STOPS:
;
#BGCHANGES:;
#KEYSOUNDS:;
#ATTACKS:;

//---------------dance-single - ----------------
#NOTES:
     dance-single:
     :
     Hard:
     16:
     0.912529,1.110590,0.504957,0.201983,0.593324,759.000000,699.000000,60.000000,24.000000,0.000000,0.000000,0.912529,1.110590,0.504957,0.201983,0.593324,759.000000,699.000000,60.000000,24.000000,0.000000,0.000000:
0000
0000
0000
0000
,
0000
0000
0000
0000
,
0000
0000
0000
0000
,
0000
0000
0000
0000
,
0000
0000
0000
0000
,
0000
0000
0000
0000
,
0000
0000
0000
0000
,
0000
0000
0000
0000
,
0002
0003
2000
3000
,
1010
0000
1010
0000
0010
0100
0001
1000
,
0000
1000
0001
0000
0001
0010
0100
0000
,
0011
0000
0011
0000
1000
0001
0010
0100
,
0000
1000
0010
0000
1000
0001
0100
0000
,
0101
0000
0101
0000
0001
0010
0100
1000
,
0010
1000
0001
1000
0100
0010
0001
0000
,
1100
0000
1100
0000
0010
1000
0001
0010
,
0200
1300
0020
0031
,
1001
0000
0101
0000
1100
1000
0000
0101
,
0000
0001
0010
1000
0001
0100
0010
0000
,
0100
0000
0110
0000
0110
0001
1000
0100
,
0000
0010
0001
1000
0001
0000
0100
0010
,
1000
0000
1001
0000
1001
0001
0010
0100
,
0000
0011
1000
0001
0010
0000
0100
1000
,
1010
0000
1100
0000
0011
0001
1000
0100
,
2000
0010
3000
0100
0002
0000
1003
0001
,
1001
0000
0200
0010
0000
1000
0000
0001
,
0000
1300
0100
0001
0010
0000
0010
0000
,
0110
0000
0002
0010
0000
1000
0000
0100
,
0000
0000
1003
0000
0001
0000
0100
0010
0100
0000
0000
0000
0001
0000
0000
0000
,
0101
0000
1000
0100
0001
0010
1000
0001
,
0100
0010
1000
0010
0001
1000
0001
0100
,
0001
0010
1000
0100
0010
1000
0100
0001
,
1000
0000
0100
0000
0010
0000
0001
1000
0001
1000
0001
0000
0100
0000
0000
0000
,
1001
1010
1010
1010
,
1100
0000
0000
0000
0101
0000
0000
0000
1100
0000
0000
0000
0001
0000
0000
0001
,
0100
0000
0010
0000
1000
0000
1000
0000
1000
0000
0000
0000
0101
0000
0000
0001
,
1000
0000
0100
0000
0100
0000
0000
0000
0010
0000
0001
1000
0001
0000
0100
0000
,
0010
0000
0010
0000
0010
0000
1000
0001
1000
0000
0000
0000
0110
0000
0000
1000
,
0001
1000
0001
1000
0001
0000
0100
0000
0100
0000
0000
0000
1010
0000
0000
0001
,
1000
0000
0000
0000
0100
0000
0001
0010
0000
0001
0010
0000
0100
0000
1000
0001
,
1000
0000
0100
0000
0010
0000
0001
1000
0001
1000
0001
0000
0100
0000
0000
0000
,
1001
0000
0100
0000
0010
0000
1000
0100
1000
0000
0001
0000
0100
0010
0100
0010
,
0100
0000
0001
0000
0010
0100
0010
0000
0001
0000
1000
0100
2000
0000
0000
0000
,
3010
0100
0010
0100
0010
0000
1000
0001
1000
0000
0100
0000
0010
0001
0010
0001
,
0010
0000
0000
0001
1000
0000
0000
0001
1000
0000
0100
0010
0100
0000
0000
0000
,
0110
0000
0000
0011
0000
0001
1000
0000
1000
0010
0100
0010
,
0100
0001
0100
0001
0000
0001
1000
0100
1000
0100
0000
0000
,
1100
0000
1100
0000
0010
0001
0100
0000
0100
0010
1000
0001
,
2000
0000
0000
0000
3010
0000
0100
0001
0100
0001
0100
0000
0010
0000
0000
0000
,
1010
0000
0101
0000
1100
0001
0000
0101
,
0000
0001
0010
1000
0001
0200
0000
0310
,
1000
0200
0001
0000
0010
0010
0300
0100
,
0000
1000
0010
1000
0001
0000
0010
0100
,
1200
0000
0001
0000
1300
0010
0100
0002
,
0000
0010
0000
1000
1003
0010
0001
0100
,
0010
0000
0110
0000
0001
0100
1000
0000
,
0010
1000
0010
1000
0001
0100
0001
0100
,
1000
0000
1001
0000
0010
0100
0001
0001
,
0000
0011
0000
1100
0000
0101
0000
1000
,
0002
0000
0103
0010
1000
0001
1000
0100
,
0000
1000
0000
0001
1000
0000
0010
0100
,
0002
0000
0013
0100
1000
0010
1000
0002
,
0000
0103
0010
1000
0001
1000
0100
0000
,
0110
0000
0110
0000
0001
1000
0010
0100
,
0002
0100
0103
1000
0002
0010
0013
0000
,
1001
0000
0000
0000
0100
0000
0000
0100
0010
0000
1000
0000
0001
0000
0020
0000
,
0000
0000
0230
0000
0000
0000
1300
0000
0001
0000
0000
0001
0000
0000
1000
0100
,
2000
0000
0001
0000
3001
0000
0000
0100
0010
0000
1000
0000
0100
0000
0110
0000
,
0000
0000
0001
0000
0100
0000
0000
0000
0010
0000
0000
0010
0000
0000
1000
0001
,
1000
0010
0100
0001
0010
0001
0100
1000
,
0100
1000
0001
0010
0001
1000
0100
0010
,
1000
0010
0100
0001
0010
0001
0100
1000
,
0010
0000
1000
0000
0100
0000
0001
0010
0001
0010
0001
0000
1000
0000
0000
0000
,
1001
0000
0000
0000
0011
0000
0000
0001
1000
0000
0010
0000
0100
0000
0001
0000
,
0010
0000
0100
0000
1000
0001
0000
1000
0001
0000
0100
0010
0000
0100
0010
0000
,
1000
0000
1000
0000
1000
0000
0100
0010
0001
0000
0100
0000
0010
0000
1000
0000
,
0001
0000
0100
0000
0100
0001
1000
0000
0010
1000
0000
1000
0100
0000
1000
0001
,
0100
0000
0010
0000
1000
0000
0000
0001
1000
0000
0100
0010
0001
0000
0100
0000
,
0000
0000
0110
0000
0100
0000
0010
0000
1000
0100
0010
0100
1000
0000
0001
0010
,
0001
0000
0100
0000
0010
0000
1000
0001
1000
0100
0010
0000
0001
0100
0010
1000
,
0100
0000
1000
0010
1000
0000
0010
0100
0001
0010
0100
1000
0100
0010
0001
0000
,
0100
0000
0000
0000
1010
0000
0000
0001
1000
0100
1000
0000
0010
0000
0100
0001
,
0100
0000
0010
0000
1000
0100
1000
0100
0010
0001
1000
0000
0001
0100
0010
0100
,
0001
0000
1000
0000
0100
1000
0010
1000
0100
0000
0010
0000
0001
0000
0100
0000
,
0010
1000
0001
0000
0010
0000
0100
1000
0001
0100
0001
0100
0010
1000
0001
0010
,
0100
1000
0001
0000
1000
0100
0000
0100
0010
0000
0010
0001
0000
0001
0100
0000
,
0010
0000
1000
0000
1000
0001
0100
0000
0110
0000
0000
0100
0010
0000
1000
0001
,
0010
0000
0100
0000
1100
0000
0000
1000
0001
0000
0010
0000
0001
0000
0100
0010
,
1000
0000
0100
0010
0100
1000
0000
1000
0001
0100
0010
0100
0000
0001
1000
0000
,
0101
0000
0000
0000
0011
0000
0000
0001
1000
0000
0010
0000
0100
0000
1000
0000
,
0100
0000
0001
0010
0001
0000
1000
0010
1000
0000
0001
0100
0010
0000
1000
0000
,
0100
0010
0100
0010
0100
0000
1000
0001
0010
0000
0001
0000
0100
0010
1000
0001
,
1000
0010
0000
0010
0100
0001
0100
0010
1000
0000
0000
0000
0001
0000
0010
0100
,
1000
0000
0001
0010
0001
0000
1000
0010
1000
0000
0001
0100
0001
0000
1000
0100
,
1000
0000
0010
0100
0010
0000
1000
0001
1000
0000
0100
0010
0001
0000
0100
0010
,
1000
0000
0001
1000
0100
0000
0010
0000
0001
0100
0001
0010
0001
1000
0100
0000
,
0010
0001
0010
0001
0010
0000
0100
0000
0001
0100
1000
0100
1000
0001
1000
0000
,
0020
0200
0000
0330
;

//---------------dance-single - ----------------
#NOTES:
     dance-single:
     :
     Medium:
     13:
     0.690108,0.740393,0.521789,0.555453,0.244063,574.000000,512.000000,62.000000,66.000000,0.000000,0.000000,0.690108,0.740393,0.521789,0.555453,0.244063,574.000000,512.000000,62.000000,66.000000,0.000000,0.000000:
0000
0000
0000
0000
,
0000
0000
0000
0000
,
0000
0000
0000
0000
,
0000
0000
0000
0000
,
0000
0000
0000
0000
,
0000
0000
0000
0000
,
0000
0000
0000
0000
,
0000
0000
0000
0000
,
0002
0003
2000
3000
,
2020
0000
0000
3030
0000
0001
0100
2000
,
0000
0010
0100
3001
,
0011
0000
0110
0000
1100
0000
0000
0020
,
0000
0100
0001
1030
,
1001
1010
1100
0110
,
0011
0101
1001
0001
,
1000
0000
1010
0000
0001
1000
0100
0000
,
0020
0031
0200
1300
,
0110
0000
0001
0000
1000
0010
0000
0200
,
0000
0010
1000
0301
,
0101
0000
1010
0000
1100
0000
0000
0001
,
0000
0001
0100
0010
1000
0000
0010
0100
,
0010
0000
1001
0000
0001
0100
0010
1000
,
0000
0100
0000
1000
0001
0000
0001
0100
,
0010
0000
1010
0000
0001
1000
0100
0010
,
0200
1300
0002
0103
,
2002
0000
3000
0010
0000
0100
0000
0010
,
0000
0100
0000
1000
1000
0000
1003
0000
,
0210
0000
0001
0001
0000
1000
0000
0010
,
0000
1000
1000
0000
0301
0100
0001
0000
,
1000
0100
0001
0000
1000
0010
0001
0000
,
0100
0010
1000
0000
0100
0010
0001
0000
,
1000
0001
1000
0001
0100
0010
0100
0010
,
1000
0100
1000
0010
0001
1000
0100
0000
,
1001
1100
0101
1100
,
0011
0000
0000
0000
1010
0000
0000
0000
0011
0000
0000
0000
0110
0000
0000
0001
,
1000
0000
0000
0000
0010
0000
1000
0000
0001
0000
0000
0000
0011
0000
0000
0001
,
1000
0100
0010
0000
0010
0001
1000
0001
,
0100
0000
0010
0000
1000
0000
0100
0000
1000
0000
0000
0000
0101
0000
0000
0001
,
1000
0001
0000
0000
0100
0000
0010
0000
1000
0000
0000
0000
1100
0000
0000
0010
,
0002
0000
0103
0010
1000
0001
1000
0100
,
0010
0100
1000
0010
0001
0100
0001
0000
,
1001
0010
1000
0100
1000
0001
1000
0100
,
0010
0001
0100
0001
0010
0100
2000
0000
,
3010
1000
0010
0100
0001
0010
0100
1000
,
0001
0000
0000
1000
0001
0000
0000
1000
0001
0000
0100
0000
0010
0000
0000
0000
,
1010
0000
0000
0001
0000
0001
1000
0000
1000
0100
0000
0100
,
0010
0000
0010
0001
0000
0001
1000
0000
1000
0010
0000
0000
,
0100
0000
0100
0000
0100
0010
0100
0000
0100
0000
0100
0010
,
0100
0010
1000
0100
0001
1000
0010
0000
,
0101
0000
1100
0000
0010
1000
0001
0100
,
0000
0001
0010
0100
1000
0002
0000
0203
,
0000
0320
0000
0000
0000
0000
0000
0000
,
0000
0030
0110
0110
,
0202
0000
0000
0000
0000
0000
0000
0303
0000
0000
1000
0000
0010
0000
0200
0000
,
0000
0300
2000
3002
,
0203
0000
0001
0000
0310
1000
0200
0000
,
1000
0010
1000
0310
,
1001
0000
1001
0000
0011
0000
1000
0100
,
0000
0110
0000
0011
0000
0101
0000
1000
,
0002
0000
0000
0000
1003
0010
0100
0002
,
0000
2003
0000
3010
0200
0000
0320
0000
,
2030
0000
0000
0000
3100
0010
0001
2000
,
0000
3010
1100
0101
,
0020
0000
0001
0000
1030
0010
0001
0100
,
0020
0130
0002
1003
,
1001
0000
0110
0000
1000
0001
0000
0100
,
0000
0100
0000
0000
0100
0000
0000
0000
0010
0000
0000
1000
0000
0000
0001
1000
,
0001
0000
0100
0000
0010
0000
0000
0010
1000
0000
0001
0000
0000
0000
1100
0000
,
0000
0000
0001
0000
0000
1000
0000
0000
0100
0000
0000
0100
0000
0000
0010
0001
,
0010
0100
1000
0000
0010
0100
0001
0000
,
1000
0010
0001
0000
1000
0100
0001
0000
,
1000
0001
1000
0001
0100
0010
0100
0010
,
1000
0100
1000
0010
0001
1000
0100
0000
,
0110
0000
0000
0000
0001
0000
0000
1000
0001
0000
0100
0000
0010
0000
2000
0000
,
0000
3200
0000
0000
0310
0000
0000
0000
0001
0000
0000
0100
0000
0000
0001
1000
,
0001
0000
0100
0000
0010
0000
0000
1000
0001
0000
0100
0000
0000
0000
0102
0000
,
0000
0000
1000
0000
0000
1000
0000
0000
1003
0000
0000
0010
0000
0000
0100
0001
,
0100
0000
0010
0000
1000
0000
0000
1000
0001
0000
0100
0000
0000
0000
2010
0000
,
0000
0000
3002
0000
0000
2003
0000
0000
3020
0000
0000
2030
0000
0000
3001
0100
,
0001
0000
0010
0000
1000
0000
0100
0010
0100
0000
1000
0000
0000
0000
0001
1000
,
0001
0010
0100
1000
0001
0100
0010
0000
,
1010
0000
0000
0000
0011
0000
0000
0010
0100
0000
1000
0000
0010
0000
0100
0000
,
0000
0000
0002
0000
0000
2003
0000
0000
3020
0000
0000
2030
0000
0000
3100
0010
,
0100
0000
1000
0000
0001
0000
0100
0010
0100
0000
0001
0000
0000
0000
1100
0000
,
0000
0000
1002
0000
0000
0203
0000
0000
0320
0000
0000
2030
0000
0000
3001
0100
,
0001
0000
0010
0000
0100
0000
0000
1000
0010
0000
1000
0000
0000
0000
0110
0000
,
0000
0000
2010
0000
0000
3002
0000
0000
2003
0000
0000
3200
0000
0000
0310
0001
,
0010
0000
0100
0000
1000
0000
0000
0001
1000
0000
0010
0000
0100
0000
0001
1000
,
0001
0100
0010
1000
0001
0010
1000
0000
,
1100
0000
0000
0000
0011
0000
0000
1000
0001
0000
0100
0000
0010
0000
2000
0000
,
0000
0000
3002
0000
0000
0000
0203
0000
0000
0000
0310
0000
1000
0000
0010
0100
,
0020
1000
1030
0001
1000
0100
0010
0100
,
1000
0001
0010
0100
0010
0001
0100
0010
,
1000
0200
0000
0320
0000
0230
0000
0310
,
0001
0100
0010
1000
1200
0000
1300
0001
,
0010
0000
0100
0000
1000
0000
0000
0001
1000
0000
0010
0000
0100
0000
0001
0000
,
0010
0100
1000
0010
0001
1000
0100
0000
,
0021
0200
0000
0330
;

//---------------dance-single - ----------------
#NOTES:
     dance-single:
     :
     Easy:
     7:
     0.453259,0.575861,0.420797,0.067328,0.000000,377.000000,327.000000,50.000000,8.000000,0.000000,0.000000,0.453259,0.575861,0.420797,0.067328,0.000000,377.000000,327.000000,50.000000,8.000000,0.000000,0.000000:
0000
0000
0000
0000
,
0000
0000
0000
0000
,
0000
0000
0000
0000
,
0000
0000
0000
0000
,
0000
0000
0000
0000
,
0000
0000
0000
0000
,
0000
0000
0000
0000
,
0000
0000
0000
0000
,
0001
0000
1000
0000
,
1010
1010
0000
0000
,
0000
0001
0010
0100
,
1000
1100
1100
0000
,
0000
0010
1000
0001
,
1000
0100
1000
0010
,
0100
0010
1000
0001
,
0000
0011
0000
0000
,
0010
0000
0100
0000
,
1001
1001
0000
0000
,
0000
0001
0100
0010
,
1000
1010
1010
0000
,
0000
0010
1000
0001
,
0010
0100
0010
0001
,
0100
0010
1000
0001
,
0000
0101
0000
0000
,
1000
0000
0001
0000
,
1001
0100
0010
0010
,
0010
0010
0010
0010
,
0110
0001
1000
1000
,
1000
1000
1000
0001
,
0010
1000
0100
0001
,
0010
0100
1000
0001
,
0100
0001
1000
0010
,
1000
0100
0001
0100
,
1001
0010
0010
0010
,
1000
0001
1000
0100
,
0010
0011
0011
0100
,
0001
0010
1000
0100
,
0110
0110
0001
0100
,
0010
1001
0100
0100
,
1000
0001
0010
0100
,
1000
0100
0001
0010
,
1001
1100
1100
0001
,
0100
0010
1000
1020
,
0130
0001
0010
0100
,
1100
0101
1000
0002
,
0013
0101
0101
0100
,
0110
0001
0110
1000
,
0100
0100
1000
0001
,
0100
0010
1000
0001
,
1001
1001
0010
0100
,
0001
0000
1000
0100
,
1000
0010
0100
0000
,
0001
0010
0001
0100
,
1000
0010
1000
0100
,
0010
0100
1000
0001
,
0000
1010
0010
0100
,
0002
0003
2000
3000
,
1100
1100
0010
0100
,
0001
0010
0001
0100
,
1000
0011
0011
0000
,
0100
0010
0110
1000
,
0001
0010
0001
0100
,
1000
0010
0100
0001
,
0000
0110
0100
0001
,
2000
3000
0002
0003
,
1001
0010
1000
0001
,
1000
0100
0010
0001
,
0100
0010
0100
0001
,
0010
0100
1000
0001
,
0100
0001
0010
1000
,
0100
0010
1000
0001
,
0100
1000
0001
0010
,
0100
1000
0001
0100
,
1001
0110
1000
0001
,
1000
0100
0010
0001
,
0100
0010
1000
0001
,
1000
0100
0010
0100
,
1000
0001
1000
0100
,
0010
0010
0010
0100
,
1000
0001
1000
0100
,
0010
0100
0001
0010
,
1001
1001
0110
0110
,
1000
0100
1000
0001
,
0010
0001
0100
1000
,
0010
1000
0100
0010
,
0001
0100
0001
0010
,
0001
0100
1000
0010
,
1000
0001
1000
0100
,
0010
1000
0001
0010
,
1001
0100
1000
0001
,
0011
1000
0010
0100
,
0101
0101
1000
0100
,
1100
0001
1000
0101
,
0010
0010
0010
0010
,
1000
0001
1000
0100
,
0010
0001
0100
0010
,
1000
0100
0001
0010
,
2000
0200
0000
3300
;

//---------------dance-single - ----------------
#NOTES:
     dance-single:
     :
     Beginner:
     5:
     0.275322,0.368303,0.100991,0.016832,0.000000,229.000000,217.000000,12.000000,2.000000,0.000000,0.000000,0.275322,0.368303,0.100991,0.016832,0.000000,229.000000,217.000000,12.000000,2.000000,0.000000,0.000000:
// measure 0
0000
0000
0000
0000
,  // measure 1
0000
0000
0000
0000
,  // measure 2
0000
0000
0000
0000
,  // measure 3
0000
0000
0000
0000
,  // measure 4
0000
0000
0000
0000
,  // measure 5
0000
0000
0000
0000
,  // measure 6
0000
0000
0000
0000
,  // measure 7
0000
0000
0000
0000
,  // measure 8
0001
0000
1000
0000
,  // measure 9
0010
0010
0000
0000
,  // measure 10
0000
0100
0100
0000
,  // measure 11
1000
1000
1000
0000
,  // measure 12
0000
0010
0010
0000
,  // measure 13
1000
0000
0001
0000
,  // measure 14
0100
0000
0001
0001
,  // measure 15
0000
1001
0000
0000
,  // measure 16
0010
0000
0100
0000
,  // measure 17
0001
0001
0001
0000
,  // measure 18
1000
0000
0000
0000
,  // measure 19
0000
0010
0010
0000
,  // measure 20
0100
0100
0100
0000
,  // measure 21
0010
0010
0010
0000
,  // measure 22
1000
1000
1000
0000
,  // measure 23
0100
0100
0100
0000
,  // measure 24
1000
0000
0001
0000
,  // measure 25
1001
0000
0100
0100
,  // measure 26
0100
0000
0100
0000
,  // measure 27
0110
0000
0001
0001
,  // measure 28
0001
0000
0001
0000
,  // measure 29
2000
0000
3000
0000
,  // measure 30
0020
0000
0030
0000
,  // measure 31
0100
0100
0100
0100
,  // measure 32
0100
0000
0001
0000
,  // measure 33
1001
0000
0100
0000
,  // measure 34
1000
0000
0010
0000
,  // measure 35
1000
1000
1000
0000
,  // measure 36
0001
0000
0010
0010
,  // measure 37
0010
0010
0010
0000
,  // measure 38
0001
0000
0100
0100
,  // measure 39
0100
0000
0000
0000
,  // measure 40
1000
0000
0001
0000
,  // measure 41
1000
1000
1000
1000
,  // measure 42
1000
1000
1000
0000
,  // measure 43
0001
0001
0001
0000
,  // measure 44
0100
0100
0100
0100
,  // measure 45
0000
0010
0010
0000
,  // measure 46
1000
0000
0001
0001
,  // measure 47
0001
0000
0100
0000
,  // measure 48
1000
0000
1000
0000
,  // measure 49
0010
0010
0000
0000
,  // measure 50
0000
0100
0100
0000
,  // measure 51
1000
1000
1000
0000
,  // measure 52
0000
0001
0001
0000
,  // measure 53
0010
0000
0100
0000
,  // measure 54
1000
0000
0001
0001
,  // measure 55
0000
0110
0000
0000
,  // measure 56
0010
0000
0010
0000
,  // measure 57
1000
1000
0000
0000
,  // measure 58
0000
0100
0100
0000
,  // measure 59
1000
1000
1000
0000
,  // measure 60
0000
0010
0010
0000
,  // measure 61
0100
0000
0010
0000
,  // measure 62
0100
0000
0001
0001
,  // measure 63
0000
0110
0000
0000
,  // measure 64
0001
0000
0001
0000
,  // measure 65
1001
0000
0000
0000
,  // measure 66
1000
0000
0001
0000
,  // measure 67
0100
0000
0100
0000
,  // measure 68
0010
0000
1000
0000
,  // measure 69
0100
0000
0010
0000
,  // measure 70
0001
0000
0100
0000
,  // measure 71
1000
0000
0010
0000
,  // measure 72
1000
0000
0001
0000
,  // measure 73
0100
0100
0100
0000
,  // measure 74
0010
0010
0010
0000
,  // measure 75
1000
1000
1000
0000
,  // measure 76
0001
0001
0001
0000
,  // measure 77
0100
0000
0110
0000
,  // measure 78
0010
0000
0110
0000
,  // measure 79
1000
0000
0001
0000
,  // measure 80
0100
0000
0001
0000
,  // measure 81
1001
0000
0010
0010
,  // measure 82
0010
0000
1000
0000
,  // measure 83
0100
0000
0100
0100
,  // measure 84
0100
0000
0010
0000
,  // measure 85
0001
0001
0001
0001
,  // measure 86
0001
0001
0001
0000
,  // measure 87
0100
0100
0100
0100
,  // measure 88
0100
0000
0001
0000
,  // measure 89
1001
0000
0000
0000
,  // measure 90
0110
0000
0000
0000
,  // measure 91
1000
1000
1000
1000
,  // measure 92
0001
0001
0001
0001
,  // measure 93
0100
0100
0100
0100
,  // measure 94
0010
0010
0010
0010
,  // measure 95
1000
0100
0010
0001
,  // measure 96
1000
0000
0001
0000
,  // measure 97
0100
0100
0000
0000
;
