#TITLE:Bongo!;
#ARTIST:WaveGroup feat. Scott D.;
#BANNER:Bongo!.png;
#BACKGROUND:Bongo!-bg.png;
#JACKET:Bongo!-jacket.png;
#MUSIC:Bongo!.ogg;
#SAMPLESTART:17.108;
#SAMPLELENGTH:20;
#DISPLAYBPM:119;
#BPMS:0=119;
#STOPS:104=1.51;
#BGCHANGES:;

//---------------dance-single - ----------------
#NOTES:
     dance-single:
     :
     Beginner:
     2:
     :
0000
0000
0000
0000
,
0000
0000
0000
0000
,
0000
0000
0000
0000
,
0000
0000
0000
0000
,
0000
0000
0000
0000
,
1000
0000
1000
0000
,
0001
0000
0001
0000
,
0002
0000
0000
0003
,
0000
0000
0000
0000
,
0010
0000
0000
0000
,
0010
0000
0000
0000
,
0100
0000
0000
0000
,
0100
0000
0100
0000
,
0000
1000
0000
1000
,
0000
0001
0000
0001
,
0000
1000
0000
1000
,
0000
0010
0000
0010
,
0000
0100
0000
0100
,
0000
0010
0000
0010
,
0020
0000
0000
0030
,
0010
0000
0000
0000
,
1000
0000
0000
0000
,
0001
0000
0000
0000
,
0010
0010
0000
0000
,
0100
0100
0000
0000
,
0110
0000
0000
0000
,
0000
1001
0000
0001
,
0001
0000
0001
0000
,
0001
0000
1000
0000
,
1000
0000
1000
0000
,
0010
0000
0010
0000
,
0010
0000
0100
0000
,
0100
0000
0001
0000
,
1000
0000
1000
0000
,
0000
1000
0000
1000
,
0000
0001
0000
0001
,
0000
0010
0010
0010
,
0000
0100
0100
0100
,
0000
1000
0000
1000
,
0000
0001
0001
0001
,
0000
0001
0000
0100
,
0000
1000
0000
0000
,
0000
1001
0000
0001
,
0000
1000
0000
0010
,
0010
0000
0010
0000
,
0010
0000
0100
0000
,
0100
0000
0100
0000
,
0001
0000
0001
0000
,
0001
0000
1000
1000
,
1000
1000
0000
0000
,
0000
1001
0000
0000
;

//---------------dance-single - ----------------
#NOTES:
     dance-single:
     :
     Easy:
     4:
     :
0000
0000
0000
0000
,
0000
0000
0000
0000
,
0000
0000
0000
0000
,
0000
0000
0000
0000
,
0000
0000
0000
0000
,
0001
0000
0001
0000
,
0010
0000
0010
0000
,
1000
0000
0000
0000
,
0000
0000
1001
0000
,
1000
1000
0000
0000
,
0010
0010
0000
0000
,
0001
0001
0000
0000
,
0100
0000
0000
0000
,
0001
0000
0001
0000
,
0100
0000
0100
0000
,
1000
0000
1000
0000
,
0010
0000
0010
0000
,
0001
1000
0001
0000
,
0010
0100
0010
0000
,
0010
0100
0001
1000
,
1001
0000
0000
0000
,
1001
0001
0000
0000
,
1000
1001
0000
0000
,
1001
0001
0000
0000
,
0001
0000
1000
1000
,
1001
0000
0000
0000
,
0000
2000
3000
1000
,
1000
0002
0003
0001
,
0001
0020
0030
0010
,
0010
0000
0000
0000
,
0000
0200
0000
0000
,
0300
2000
0000
0000
,
3000
0002
0000
0000
,
0003
1000
0000
0000
,
0000
1001
0000
0010
,
0000
0100
0000
0010
,
0000
0001
0000
1000
,
0000
0001
0000
0000
,
0000
0001
0000
1000
,
0000
0001
0000
0010
,
0000
0100
0010
0001
,
1000
1001
0000
0000
,
0000
0001
1000
0001
,
0000
0010
0000
0010
,
0000
1000
0001
1000
,
0000
0100
0000
0100
,
0000
0010
0100
0010
,
0000
0001
0000
0001
,
0000
0100
0010
1000
,
0001
0100
0000
0000
,
0000
1001
0000
0000
;

//---------------dance-single - ----------------
#NOTES:
     dance-single:
     :
     Medium:
     8:
     :
0000
0000
0000
0000
,
0000
0000
0000
0000
,
0000
0000
0000
0000
,
0000
0000
0000
0000
,
0000
0000
0000
0000
,
0010
0000
0100
0000
1000
1000
0000
0000
,
0010
0000
0100
0000
0001
0001
0000
0000
,
1000
0002
0000
0010
,
0000
0000
0013
0000
0100
0010
0100
0000
,
2000
0000
3002
0000
0013
0001
0010
0000
,
0002
0000
2003
0000
3100
1000
0100
0000
,
0020
0230
0310
0100
,
1001
0000
0000
0000
0000
0010
0100
1000
,
0001
0000
0100
0000
0010
0010
1000
0010
,
0010
0100
0001
0010
,
1000
0000
0100
0000
0010
0010
0001
0010
,
0010
0000
0100
0000
1000
0001
1000
0001
,
1000
0010
0001
0100
,
1000
0000
0001
0000
,
0001
0010
0001
0010
0001
1000
0001
0100
,
0001
0000
0000
0000
,
1010
0000
0010
0000
1000
0100
0000
0000
,
0001
0000
0011
0000
0001
0100
0000
0000
,
1000
0000
1100
0000
1000
0010
0000
0000
,
0001
0000
0101
0000
0001
0010
0000
0000
,
0100
0000
0010
0100
0000
0100
0010
0000
,
0000
0000
0110
0000
0100
0000
0010
0010
,
0010
0000
1001
0000
1000
0000
0001
0001
,
0001
1100
0010
0011
,
0001
0000
0101
0000
0001
0100
0001
0000
,
1000
0000
2000
0000
0000
0000
3001
0100
,
0010
0000
0200
0000
0000
0000
0301
0010
,
0100
0000
0020
0000
0000
0000
0031
0100
,
1000
0000
0110
0000
1010
0000
1000
0010
,
1000
0100
1000
0000
0001
0000
0100
0100
,
0100
0000
0010
0000
1000
0000
0001
0100
,
0010
0000
1000
0000
0100
0000
1000
0010
,
0100
0000
0001
0000
1000
0000
0010
0100
,
1000
0100
0010
0000
1000
0000
0100
0010
,
0001
0000
0010
0000
0001
0000
1000
0001
,
1000
0000
0010
1000
0100
0000
0010
0001
,
0100
0001
1000
0000
0000
0010
0000
0100
,
0000
0001
1001
0000
0100
0000
0010
0010
,
0001
0010
0010
0000
0100
0000
1000
1000
,
0010
1000
1000
0000
0001
0000
0100
0100
,
0001
0100
0100
0000
0010
0000
1000
1000
,
0100
1000
1000
0000
1000
0000
0001
0001
,
0010
0001
0001
0000
1000
0000
0001
0001
,
0100
0001
0010
0001
1000
0100
0010
0100
,
1000
0001
1000
0000
0000
0001
0000
1000
,
0000
0001
1001
0000
0000
0000
0000
0000
;

//---------------dance-single - ----------------
#NOTES:
     dance-single:
     :
     Hard:
     10:
     :
0000
0000
0000
0000
,
0000
0000
0000
0000
,
0000
0000
0000
0000
,
0000
0000
0000
0000
,
0000
0000
0000
0000
,
0011
0000
0000
0000
1000
0000
0000
0100
0010
0000
0001
0000
1000
0000
0100
0000
,
0100
0000
0000
0000
1010
0000
0000
0100
0010
0000
1000
0000
0001
0000
0100
0000
,
0100
0000
0010
0100
1000
0001
0100
1000
,
0001
0000
0000
0000
0010
0000
0000
0000
1000
0010
1000
0010
1000
0000
0000
0000
,
0010
0100
0010
0100
0010
0000
0100
0000
0001
0000
1000
0000
0001
0000
0000
0000
,
0010
0001
0010
0001
0010
0000
0100
0000
1000
0000
0001
0000
0100
0000
0000
0000
,
0001
0100
0001
0100
0001
0000
1000
0000
0010
0000
0000
0000
0100
0000
0000
0000
,
0220
0000
0000
0000
0300
0130
0001
0010
,
0100
1000
0010
1000
0001
0010
0001
0100
,
0001
0000
1100
0000
0010
0001
0010
0100
,
1000
1000
0001
1000
0001
0001
0100
0000
,
1000
0000
0100
0000
0010
0001
1000
0100
,
1000
0001
0010
0001
0100
0001
1000
0000
,
0010
1000
0100
1000
0010
0100
0001
0000
,
0010
0001
0100
0001
0010
0001
0100
0010
,
1000
0000
0001
0101
0000
1100
0000
1010
,
0010
0000
0101
0000
0001
0101
0000
0000
,
0001
0000
1100
0000
1000
1100
0000
0000
,
0110
0000
0001
0000
0010
0110
0000
0000
,
1001
0000
1000
0000
0001
1001
0000
0000
,
0011
0000
1000
1100
0000
0001
0101
0000
,
0000
0000
0000
0000
0001
0010
0001
0000
1000
0000
0010
0000
0010
0000
1000
0000
,
0100
0000
0000
0000
1000
0100
1000
0000
0001
0000
0100
0000
0100
0000
0001
0000
,
0010
0000
0000
0000
0010
0100
0010
0000
1000
0000
0001
0000
1001
0000
0000
0000
,
0001
0000
1000
0010
0100
1000
0001
0010
,
1000
0100
0020
0000
0001
0031
0010
1000
,
0100
0000
0020
0000
1000
1030
0010
0001
,
0100
0000
0020
0000
0100
0130
0010
0000
,
1001
0000
0110
0000
1010
0000
0001
0100
,
0010
0000
1000
0000
1100
0000
0000
0000
1000
0000
0000
0100
0010
0000
0001
0000
,
1000
0000
0100
0000
0100
0000
0000
0000
1010
0000
0000
0100
0010
0000
1000
0000
,
0001
0000
0100
0000
0100
0000
0000
0000
0001
0000
0000
0010
0100
0000
1000
0000
,
0001
0000
0010
0000
0010
0000
0000
0000
0101
0000
0000
0010
0100
0000
0001
0000
,
1000
0000
0010
0000
0010
0000
0000
0000
0101
0000
0000
0010
1000
0000
0100
0000
,
0010
0000
0100
0000
1000
0000
0000
0000
1100
0000
0000
0010
0001
0000
0100
0000
,
0010
0100
0001
0010
0100
1000
0100
0010
,
0001
0100
0010
0000
0000
1010
0000
0101
,
0000
0000
0001
0000
0011
0000
0000
0000
0100
0000
0000
0001
1000
0000
0001
0000
,
0010
0000
0100
1000
0100
0000
0000
0000
0110
0000
0000
1000
0001
0000
0010
0000
,
1000
0000
0010
0000
0001
0000
0000
0000
0101
0000
0000
1000
0001
0000
1000
0000
,
0001
0000
0010
0001
0010
0000
0000
0000
0110
0000
0000
1000
0001
0000
0100
0000
,
1000
0000
0100
0000
0001
0000
0000
0000
1010
0000
0000
0100
0001
0000
0001
0000
,
1000
0000
0100
0000
0010
0000
0000
0000
0101
0000
0000
0010
1000
0000
1000
0000
,
0100
1000
0010
0100
0010
1000
0100
0010
,
0001
1000
1001
0000
0000
0101
0000
1100
,
0000
0010
0110
0000
0000
0000
0000
0000
;

//---------------dance-single - ----------------
#NOTES:
     dance-single:
     :
     Challenge:
     13:
     :
0000
0000
0000
0000
,
0000
0000
0000
0000
,
0000
0000
0000
0000
,
0000
0000
0000
0000
,
0000
0000
0000
0000
0000
0000
1001
0000
1001
0000
1001
0000
,
0010
0000
0100
0000
0001
0000
1000
0010
1000
0000
0100
0000
1000
0000
0002
0000
,
0013
0000
0001
0000
0100
0000
0010
1000
0010
1000
0010
0000
0100
0000
0002
0000
,
1003
0000
0000
0000
0001
0100
0001
0100
0001
0000
0010
0000
0001
0000
1000
0000
,
0100
0000
0010
0000
0110
0000
0000
0000
0001
1000
0001
1000
0100
0000
0000
0000
,
1000
0001
1000
0001
0100
0000
0010
0000
1000
0000
0100
0000
1000
0000
0020
0000
,
0130
0001
0100
0001
1000
0000
0010
0000
0100
0000
0001
1000
0001
0000
0010
0000
,
0100
1000
0100
1000
0100
0010
0001
0000
1001
0000
0100
0000
1001
0000
0100
0000
,
1001
0000
0100
0000
0010
0000
1000
0100
1000
0000
0002
0000
0023
0000
0130
0000
,
1100
0000
0000
0000
0001
1000
0100
1000
0001
0000
0010
0000
0100
0000
1000
0000
,
0010
0100
0010
0100
0010
0000
1000
0000
0001
0100
0001
0100
0001
0000
1000
0000
,
0100
0000
0000
0010
0001
0000
1000
0010
1000
0000
0001
0000
0100
0000
0020
0000
,
1000
0000
0000
0000
1030
0000
0100
0010
0001
0000
2000
0000
3002
0000
0203
0000
,
0310
0000
0101
0000
1000
0000
0001
0010
0001
0000
0100
0000
0010
0000
2000
0000
,
3100
0000
0000
1000
0001
0000
0010
0100
0010
0000
0001
0000
1000
0000
0010
0000
,
2000
0100
3001
2000
0010
3001
2000
0100
,
3001
0000
0010
0100
0010
0000
0011
0000
0000
0000
1100
0000
0000
0000
0101
0000
,
1001
0000
0000
0010
1000
0000
0001
0000
0100
0010
1000
0001
1000
0000
0100
0000
,
0010
0000
0001
0100
0000
0100
0001
0000
1000
0010
1000
0000
0001
0000
0100
0010
,
0100
0000
0000
0000
0000
0000
0000
0000
0110
0000
0000
0000
0000
0000
0000
0000
0110
0000
0000
0000
0000
0000
0000
0000
1000
0000
0000
0100
0000
0000
1000
0000
0000
0100
0000
0000
1000
0000
0000
0001
0000
0000
0100
0000
0000
0010
0000
0000
,
1000
0000
0100
0010
0000
0010
0100
0000
1000
0001
1000
0000
0010
0000
0100
0001
,
1000
0000
1010
0001
1000
0101
0100
0010
,
0110
0000
0000
0000
1000
0001
0010
0001
1000
0000
0100
0000
0010
0000
0001
0000
,
1000
0000
0010
0000
0100
0001
1000
0001
0100
0000
0010
0000
1000
0000
0100
0000
,
1000
0000
0001
0000
0010
0100
0010
0100
0010
0001
1000
0000
1001
0000
0100
0000
,
0010
0000
2000
0000
3001
0000
0000
0000
1000
0100
1000
0100
1000
0000
0010
0000
,
0100
0000
0001
0000
0010
0100
1000
0100
0010
0000
0001
0000
1000
0000
0001
0100
,
0001
0000
0010
0000
0100
0010
0001
0010
0100
0000
1000
0000
0010
0000
1000
0001
,
1000
0000
0100
0000
0010
0001
1000
0001
0010
0001
0100
0000
1001
0000
0100
0000
,
1001
0100
0010
0000
1001
0000
1000
0200
,
2300
0000
3001
0000
1100
0000
0000
0000
0011
0000
0001
1000
0001
0000
0100
0000
,
0010
0000
2000
0000
3001
0000
0000
0100
0010
0000
1000
0000
0100
0000
0010
0001
,
0010
0000
0100
0000
1000
0000
0000
0000
0010
1000
0010
1000
0100
0000
0010
0000
,
0001
0000
0200
0000
0010
0000
0000
0000
0310
0000
1000
0001
1000
0000
0200
0000
,
0320
0000
0032
0000
1003
0000
0110
0000
0010
0000
0100
0001
1000
0000
0010
0000
,
1000
0000
0002
0000
0013
0000
0000
0001
1000
0000
0100
0000
1000
0000
0010
0000
,
0100
0001
2000
0100
3001
2000
0010
3001
,
2000
0100
3001
1001
0000
0011
0000
1100
,
0000
0000
0101
0000
1100
0000
0000
0000
1000
0010
1000
0010
1000
0000
0001
0000
,
0100
0020
1000
0000
0130
0001
0010
0002
,
0203
0000
0320
0000
1030
0100
0010
0001
0100
0000
0010
1000
0010
0000
0100
0000
,
0001
2000
0100
0100
3100
0011
0001
0200
,
0302
0000
1003
0000
1100
0000
0000
0000
0001
0010
0001
0100
0001
0000
1000
0010
,
1000
0000
0200
0000
0010
0000
0000
0000
0301
0000
0100
1000
0100
0000
0010
0000
,
0001
0000
1000
0010
2000
0000
0100
0000
3001
0000
2000
0000
0010
0000
3001
0000
,
2000
0100
3001
0001
0000
0011
0000
1100
,
0000
0101
1100
0000
0000
0000
0000
0000
;

//---------------dance-double - ----------------
#NOTES:
     dance-double:
     :
     Easy:
     4:
     :
00000000
00000000
00000000
00000000
,
00000000
00000000
00000000
00000000
,
00000000
00000000
00000000
00000000
,
00000000
00000000
00000000
00000000
,
00000000
00000000
00000000
00000000
,
00000001
00000000
00000001
00000000
,
00000100
00000000
00000100
00000000
,
00001000
00000000
00000000
00000000
,
00000000
00000000
00011000
00000000
,
00010000
00010000
00000000
00000000
,
00100000
00100000
00000000
00000000
,
10000000
10000000
00000000
00000000
,
01000000
00000000
00000000
00000000
,
00010000
00000000
00010000
00000000
,
00001000
00000000
00001000
00000000
,
00010000
00000000
00010000
00000000
,
00000010
00000000
00000010
00000000
,
00001000
00000100
00000010
00000000
,
00000010
00000001
00000100
00000000
,
00000100
00001000
00010000
00001000
,
00011000
00000000
00000000
00000000
,
01100000
00000000
00000000
00000000
,
01000000
00000000
00000000
00000000
,
10010000
00000000
00000000
00000000
,
00001000
00000000
00010000
00001000
,
00011000
00000000
00000000
00000000
,
00000000
00000002
00000000
00000000
,
00000003
00000200
00000000
00000000
,
00000300
00002000
00000000
00000000
,
00003000
00011000
00000000
00000000
,
00000000
00020000
00000000
00000000
,
00030000
02000000
00000000
00000000
,
03000000
20000000
00000000
00000000
,
30000000
00010000
00000000
00000000
,
00000000
00011000
00000000
00000010
,
00000000
00001000
00000000
00000001
,
00000000
00001000
00000000
00000100
,
00000000
00010000
00000000
00000000
,
00000000
00001000
00000000
01000000
,
00000000
00010000
00000000
10000000
,
00000000
01000000
00010000
00001000
,
00010000
00011000
00000000
00000000
,
00000000
00000010
00001000
00001000
,
00000000
00000001
00000000
00000001
,
00000000
00001000
00000100
00000100
,
00000000
00010000
00000000
00010000
,
00000000
00100000
01000000
01000000
,
00000000
10000000
00000000
10000000
,
00000000
10000000
01000000
00010000
,
00001000
00010000
00000000
00000000
,
00000000
00011000
00000000
00000000
;

//---------------dance-double - ----------------
#NOTES:
     dance-double:
     :
     Medium:
     8:
     :
00000000
00000000
00000000
00000000
,
00000000
00000000
00000000
00000000
,
00000000
00000000
00000000
00000000
,
00000000
00000000
00000000
00000000
,
00000000
00000000
00000000
00000000
,
00100000
00000000
10000000
00000000
01000000
01000000
00000000
00000000
,
00010000
00000000
00001000
00000000
00010000
00010000
00000000
00000000
,
00000010
00002000
00000000
00000001
,
00000000
00000000
00003001
00000000
00000100
00000010
00000100
00000000
,
00000002
00000000
00002003
00000000
00003100
00001000
00000100
00000000
,
00020000
00000000
00032000
00000000
00013000
00001000
00010000
00000000
,
00200000
02300000
03100000
01000000
,
10010000
00000000
00000000
00000000
00000000
10000000
00010000
01000000
,
00100000
00000000
10000000
00000000
01000000
01000000
00100000
01000000
,
01000000
00010000
00001000
00000100
,
00000001
00000000
00000010
00000000
00000100
00000100
00000010
00000100
,
00000100
00000000
00000010
00000000
00000001
00000100
00001000
00010000
,
00001000
00100000
00010000
01000000
,
00001000
00000000
00010000
00000000
,
00000010
00001000
00000010
00001000
00000001
00000100
00000001
00001000
,
00000100
00000000
00000000
00000000
,
00000011
00000000
00000010
00000000
00000001
00000100
00000000
00000000
,
00001000
00000000
00001010
00000000
00001000
00000100
00000000
00000000
,
00010000
00000000
00011000
00000000
00010000
00001000
00000000
00000000
,
00100000
00000000
00110000
00000000
00010000
01000000
00000000
00000000
,
10000000
00000000
00010000
10000000
00000000
10000000
00010000
00000000
,
00000000
00000000
00011000
00000000
00000010
00000000
00000100
00000100
,
00000100
00000000
00001001
00000000
00000000
00000000
00000010
00000010
,
00000010
00001100
00010000
00011000
,
00100000
00000000
00110000
00000000
01000000
10000000
01000000
00000000
,
10000000
00000000
00020000
00000000
00000000
00000000
01030000
00001000
,
00010000
00000000
00020000
00000000
00000000
00000000
00031000
00010000
,
00000100
00000000
00000020
00000000
00000000
00000000
00000031
00001000
,
00000100
00000000
00000110
00000000
00000011
00000000
00000010
00000001
,
00000100
00001000
00010000
00000000
00001000
00000000
00100000
00100000
,
00100000
00000000
00100000
00000000
00010000
00000000
10000000
01000000
,
00100000
00000000
01000000
00000000
10000000
00000000
10000000
01000000
,
00010000
00000000
00001000
00000000
00000100
00000000
00000001
00000010
,
00000100
00000010
00000001
00000000
00001000
00000000
00000001
00000100
,
00000010
00000000
00001000
00000000
00000100
00000000
00010000
00001000
,
00010000
00000000
00100000
00010000
01000000
00000000
00100000
10000000
,
01000000
10000000
00010000
00000000
00000000
00001000
00000000
00010000
,
00000000
00001000
00011000
00000000
00000010
00000000
00001000
00001000
,
00000100
00001000
00001000
00000000
00000010
00000000
00000100
00000100
,
00000001
00000100
00000100
00000000
00001000
00000000
00010000
00010000
,
00001000
00010000
00010000
00000000
00100000
00000000
10000000
10000000
,
00100000
10000000
10000000
00000000
00010000
00000000
01000000
01000000
,
00010000
01000000
01000000
00000000
00100000
00000000
10000000
10000000
,
01000000
00010000
00001000
00010000
00001000
00000100
00000010
00000100
,
00000001
00001000
00000001
00000000
00000000
00001000
00000000
00010000
,
00000000
00001000
00011000
00000000
00000000
00000000
00000000
00000000
;

//---------------dance-double - ----------------
#NOTES:
     dance-double:
     :
     Hard:
     10:
     :
00000000
00000000
00000000
00000000
,
00000000
00000000
00000000
00000000
,
00000000
00000000
00000000
00000000
,
00000000
00000000
00000000
00000000
,
00000000
00000000
00000000
00000000
,
01010000
00000000
00000000
00000000
00100000
00000000
00000000
10000000
01000000
00000000
00010000
00000000
00001000
00000000
00010000
00000000
,
00001000
00000000
00000000
00000000
00011000
00000000
00000000
00010000
00001000
00000000
00000100
00000000
00000001
00000000
00000010
00000000
,
00000001
00000000
00000000
00000000
00000100
00000000
00000000
00001000
00010000
00000000
01000000
00000000
00010000
00000000
00001000
00000000
,
00000010
00000000
00000000
00000000
00000100
00000000
00000000
00000000
00010000
00001000
00010000
00001000
00010000
00000000
00000000
00000000
,
00010000
00100000
00010000
00000000
00100000
00000000
01000000
00000000
10000000
00000000
00100000
00000000
01000000
00000000
00000000
00000000
,
10000000
01000000
10000000
01000000
10000000
00000000
01000000
00000000
00010000
00000000
00001000
00000000
00100000
00000000
00000000
00000000
,
00001000
00010000
00001000
00010000
00001000
00000000
00000010
00000000
00000001
00000000
00000000
00000000
00000100
00000000
00000000
00000000
,
00002000
00000000
00100000
00000000
00013000
00000010
00001000
00000100
,
00010000
00000000
00101000
00000000
00010000
01000000
00100000
10000000
,
00010000
00000000
11000000
00000000
00100000
00010000
01000000
00001000
,
00010000
00000000
01000000
00000000
10000000
01000000
00010000
00001000
,
00100000
00000000
00011000
00000000
00010000
00000100
00001000
00000010
,
00000100
00000000
00001010
00000000
00000010
00000100
00001000
00010000
,
00100000
00000000
10100000
00000000
00010000
10000000
01000000
00000000
,
00001000
00100000
00010000
01000000
00001000
00010000
00000010
00001000
,
00000100
00000000
00000001
00000101
00000000
00001010
00000000
00001100
,
00001000
00000000
00010100
00000000
00010000
00011000
00000000
00000000
,
00101000
00000000
00010000
00000000
00100000
00110000
00000000
00000000
,
11000000
00000000
10000000
00000000
00010000
01010000
00000000
00000000
,
01001000
00000000
00010000
00000000
00001000
00011000
00000000
00000000
,
00001100
00000000
00000001
00000101
00000000
00001000
00001100
00000000
,
00000000
00000000
00000000
00000000
00000010
00001000
00000010
00000000
00010000
00000000
00001000
00000000
00100000
00000000
00010000
00000000
,
00100000
00000000
00000000
00000000
01000000
00010000
01000000
00000000
00001000
00000000
00010000
00000000
00000100
00000000
00001000
00000000
,
00000010
00000000
00000000
00000000
00000001
00000100
00000001
00000000
00001000
00000000
00000100
00000000
00001100
00000000
00000000
00000000
,
00011000
00000000
00100000
00010000
10000000
00100000
01000000
00010000
,
10000000
01000000
00020000
00000000
00001000
00031000
00100000
00010000
,
01000000
00000000
00002000
00000000
00010000
00013000
00000010
00001000
,
00000100
00000000
00000002
00000000
00000010
00000013
00000001
00000000
,
00001010
00000000
00000101
00000000
00001100
00000000
00000001
00000100
,
00001000
00000000
00010000
00000000
00011000
00000000
00000000
00000000
00100000
00000000
00000000
01000000
00010000
00000000
00100000
00000000
,
00010000
00000000
10000000
00000000
01000000
00000000
00000000
00000000
01010000
00000000
00000000
10000000
01000000
00000000
00010000
00000000
,
00001000
00000000
00000100
00000000
00000001
00000000
00000000
00000000
00000010
00000000
00000000
00000100
00001000
00000000
00000010
00000000
,
00001000
00000000
00000001
00000000
00000100
00000000
00000000
00000000
00001100
00000000
00000000
00000001
00000010
00000000
00001000
00000000
,
00010000
00000000
00100000
00000000
01000000
00000000
00000000
00000000
10010000
00000000
00000000
00010000
10000000
00000000
00010000
00000000
,
01000000
00000000
00001000
00000000
00010000
00000000
00000000
00000000
00011000
00000000
00000000
00001000
00010000
00000000
00000010
00000000
,
00001000
00000100
00010000
00000010
00010000
00001000
00100000
00001000
,
01000000
00010000
00100000
00000000
00000000
00011000
00000000
00010100
,
00000000
00000000
00001000
00000000
00001010
00000000
00000000
00000000
00010000
00000000
00000000
00000010
00001000
00000000
00000001
00000000
,
00000100
00000000
00001000
00010000
00001000
00000000
00000000
00000000
01100000
00000000
00000000
00010000
00100000
00000000
01000000
00000000
,
00100000
00000000
00010000
00000000
00000000
00000000
00000000
00000000
00001000
00000000
00000000
00100000
00010000
00000000
10000000
00000000
,
01000000
00000000
00010000
00001000
00010000
00000000
00000000
00000000
00000110
00000000
00000000
00001000
00000010
00000000
00000100
00000000
,
00000010
00000000
00001000
00000000
00000001
00000000
00000000
00000000
00000011
00000000
00000000
00001000
00000001
00000000
00000100
00000000
,
00010000
00000000
00001000
00000000
00010000
00000000
00000000
00000000
01010000
00000000
00000000
00100000
10000000
00000000
01000000
00000000
,
00100000
10000000
00100000
00010000
00001000
00000100
00000010
00001000
,
00000001
00001000
00001001
00000000
00000000
00001010
00000000
00010010
,
00000000
00001000
00011000
00000000
00000000
00000000
00000000
00000000
;
