#TITLE:Blown Away;
#ARTIST:Carrie Underwood;
#BANNER:Blown Away-bn.png;
#BACKGROUND:Blown Away-bg.png;
#JACKET:Blown Away-jacket.png;
#MUSIC:Blown Away.ogg;
#SAMPLESTART:49;
#SAMPLELENGTH:20;
#DISPLAYBPM:137;
#BPMS:0=137;
#BGCHANGES:;

//---------------dance-single - ----------------
#NOTES:
     dance-single:
     :
     Beginner:
     3:
     :
0000
0000
0000
0000
,
0000
0000
0000
0000
,
0000
0000
0000
0000
,
0000
0000
0000
0000
,
0010
0000
0001
0000
,
0100
0000
0010
0000
,
2000
0000
0000
3000
,
0000
0000
0000
0000
,
0001
0000
1000
0000
,
0010
0000
1000
0000
,
0200
0000
0000
0300
,
0000
0000
0000
0000
,
1001
0000
1000
0000
,
0001
0001
0001
0001
,
0000
0000
0100
0000
,
0010
0000
1000
0000
,
0110
0000
0001
0000
,
0010
0010
0010
0010
,
0000
0000
0001
0000
,
0100
0100
0000
0000
,
0010
0000
0010
0000
,
1000
0000
1000
0000
,
0001
0000
0001
0000
,
0100
0000
0100
0000
,
0001
0000
0010
0000
,
0001
0000
1000
0000
,
0010
0000
0100
0000
,
0001
0000
0000
0000
,
1000
1000
1000
0000
,
0001
0001
0001
0000
,
0020
0000
0000
0000
,
0030
0000
0000
0000
,
0001
0000
1000
0000
,
0100
0000
1000
0000
,
0020
0000
0000
0000
,
0030
0000
0000
0000
,
0100
0100
0100
0000
,
0010
0010
0010
0000
,
2000
0000
0000
0000
,
3000
0000
0000
0000
,
0001
0001
0001
0000
,
0010
0010
0010
0000
,
0002
0000
0000
0000
,
0003
0000
0100
0000
,
0110
0000
0000
0000
,
0000
0000
0000
0000
,
0000
0000
0000
0000
,
0000
0000
0000
0000
,
1000
0000
0001
0000
,
1000
0000
0001
0000
,
0010
0000
0100
0000
,
0010
0000
0100
0000
,
1000
0000
0010
0000
,
0100
0000
0001
0000
,
0010
0000
0100
0000
,
1000
0000
0000
0000
,
0010
0010
0010
0000
,
1000
1000
1000
0000
,
0200
0000
0000
0000
,
0300
0000
0000
0000
,
1000
0000
0010
0000
,
0100
0000
0001
0000
,
0200
0000
0000
0000
,
0300
0000
0000
0000
,
0001
0001
0001
0000
,
0100
0100
0100
0000
,
0002
0000
0000
0000
,
0003
0000
0000
0000
,
0010
0000
0001
0000
,
0010
0000
0100
0000
,
2000
0000
0000
0000
,
3000
0000
0010
0000
,
1001
0000
0000
0000
;

//---------------dance-single - ----------------
#NOTES:
     dance-single:
     :
     Easy:
     7:
     :
0000
0000
0000
0000
,
0000
0000
0000
0000
,
0000
0000
0000
0000
,
0000
0000
0000
0000
,
0010
0100
0001
0001
,
0010
0001
0100
0010
,
1000
0200
0000
0300
,
1000
0001
0100
0100
,
0010
1000
1000
0100
,
1000
0010
0100
0001
,
0100
0020
0000
0030
,
1000
0001
0010
0010
,
1001
0000
0001
0100
,
1000
1000
0001
1000
,
0010
0000
0100
0001
,
0010
0001
1000
0100
,
0110
0000
0001
0001
,
1000
0010
1000
1000
,
0100
1000
0002
0003
,
1000
0200
0000
0300
,
0010
0001
0022
0033
,
0001
0100
0202
0303
,
0010
0010
1000
0001
,
0100
0010
2000
3000
,
0100
1000
2200
3300
,
1000
0010
2020
3030
,
0001
0001
0010
0100
,
1000
0010
0200
0300
,
0001
0001
1000
0001
,
0010
0010
1001
0100
,
0002
0000
0000
0000
,
0000
0000
0000
0013
,
0110
0001
0110
1000
,
0010
0100
1001
0010
,
2000
0000
0000
0000
,
0000
0000
0000
3100
,
1000
0001
0100
0100
,
0001
0010
0100
1000
,
0010
0100
0010
1000
,
0100
0010
0001
1000
,
0010
0101
0010
1100
,
0001
0100
1001
0010
,
0200
0000
0000
0000
,
0310
1000
0100
0001
,
2020
0000
0000
0030
,
0002
0000
0000
3000
,
0200
0000
0000
0003
,
0020
0000
0000
0330
,
1000
1000
1000
1000
,
0001
0001
0001
0001
,
0100
0100
0100
0100
,
0010
0010
0010
0010
,
1000
0100
1000
0100
,
0010
0001
0010
0001
,
1000
0010
0100
0001
,
0010
0001
0100
1000
,
0010
0010
1000
0001
,
0100
0100
0110
0001
,
2000
0000
0000
0000
,
0000
0000
0000
3100
,
1100
0001
0101
0010
,
1000
0001
0110
0010
,
0200
0000
0000
0000
,
0000
0000
0000
0310
,
1000
0001
1000
1000
,
0100
0010
0001
0100
,
0010
1000
0100
1000
,
0001
0010
0100
1000
,
0100
0011
0100
1010
,
0001
0100
1001
0010
,
2000
0000
0000
0000
,
3001
0100
0010
1000
,
2002
0000
0000
0000
,
0000
0000
0000
0000
,
0000
0000
0000
3003
;

//---------------dance-single - ----------------
#NOTES:
     dance-single:
     :
     Medium:
     9:
     :
0000
0000
0000
0000
,
0000
0000
0000
0000
,
0000
0000
0000
0000
,
0000
0000
0000
0000
,
0010
0100
1000
0000
1100
0000
0101
0000
,
0002
0000
0013
0200
0000
0000
1300
0020
,
0000
0200
0000
0000
0000
0000
0330
0000
,
0001
0100
1000
0000
0010
0000
0100
0000
,
0001
0100
0010
0000
1010
0000
0011
0000
,
0200
0000
0310
2000
0000
0000
3001
0200
,
0000
0020
0000
0000
0000
0000
0330
0000
,
1000
0100
0001
0000
0010
0000
0100
0000
,
1000
0001
0100
0000
0010
1000
0010
1000
,
0002
0023
0230
2300
,
3010
0100
0001
0000
1000
0010
1000
0010
,
2000
0000
3100
0010
0000
0010
0002
0000
,
0103
0010
1000
0000
0001
0100
0001
0000
,
1001
0000
0010
1000
0100
0000
0110
0000
,
0001
0010
0200
0000
2300
0000
3010
0200
,
0000
0301
0200
0000
0000
0000
0300
0001
,
1000
0001
1000
0000
2020
0000
3030
0001
,
1000
0000
0010
0100
0000
0100
0000
0001
,
0010
0000
0001
2000
0000
0000
3100
0000
,
1000
0000
0000
0001
0000
0000
2000
0000
0000
0000
0000
0000
3000
0000
0010
0000
,
0100
0010
0100
0000
0202
0000
0303
0001
,
0010
0000
0001
1000
0000
1000
0000
0100
,
1000
0000
0010
0200
0000
0000
0301
0000
,
1000
0000
0002
0020
0000
0000
0033
0000
,
0001
0100
0001
0100
0010
0000
0110
0000
,
0001
0010
1000
0000
1001
0000
0010
0200
,
0000
0000
0000
0000
,
0000
0000
0000
0000
0000
0000
1300
0100
,
1000
0000
0010
0100
0001
0000
0010
0100
,
1000
0001
1000
0000
0101
0000
0001
2000
,
0000
0000
0000
0000
,
0000
0000
0000
0000
0000
0000
3010
1000
,
0001
0100
0001
0000
0011
0000
1100
0000
,
0001
0010
0001
1000
0001
0000
0100
0020
,
0000
0000
0000
0000
,
0000
0000
0000
0000
0030
0000
0010
0100
,
0010
1001
1010
1100
,
1000
0001
0100
0000
0110
0000
0001
0200
,
0000
0000
0000
0000
,
0310
0100
0010
2000
0000
3002
0000
2003
,
0000
0000
0010
0000
0000
3100
0000
0000
,
1000
0000
0001
0100
0000
0001
0100
0000
,
0000
0202
0000
0300
,
1000
1000
1000
1003
,
0010
0100
0001
0000
0001
0000
0001
0000
,
0001
0000
0010
0000
0001
0100
1000
0000
,
0010
0000
1000
0001
1000
0000
0100
0000
,
1000
0000
0000
0001
0000
0000
2000
0000
0000
0000
0000
0000
3000
0000
0010
0000
,
0100
0010
0100
0000
0001
0000
0010
0000
,
0001
0000
0100
0000
1000
0010
0100
0000
,
0001
0000
0010
0100
1000
0000
0001
0000
,
1000
0000
0020
0200
0000
0000
0330
0000
,
0001
1000
0010
1000
0001
0000
1010
0000
,
1000
0100
0010
0000
0011
0000
0001
2000
,
0000
0000
0000
0000
,
0000
0000
0000
0000
3000
0000
1000
0001
,
0010
0000
0010
0001
0100
0000
0100
0010
,
1000
0010
0100
0000
1001
0000
0001
0020
,
0000
0000
0000
0000
,
0000
0000
0000
0000
0030
0000
0010
0001
,
0100
0010
1000
0000
1100
0000
0011
0000
,
0100
0010
1000
0010
0100
0000
0001
1000
,
0010
0000
0110
0000
0001
0100
1000
0000
,
0010
0000
1000
0000
0101
0000
1000
0001
,
1000
1001
0101
0011
,
0010
0100
1000
0000
1010
0000
0001
0200
,
0000
0000
0000
0000
,
0310
1000
0100
0020
0000
0031
1000
0000
,
2002
0000
0000
0000
,
0000
0000
0000
0000
,
0000
0000
0000
3003
;

//---------------dance-single - ----------------
#NOTES:
     dance-single:
     :
     Hard:
     12:
     :
0000
0000
0000
0000
,
0000
0000
0000
0000
,
0000
0000
0000
0000
,
0000
0000
0000
0000
,
0010
0100
1000
0000
1100
0000
0101
0000
,
0010
0001
0100
0020
1000
0000
0130
0001
,
0010
0001
1000
0000
1000
0010
0100
0001
,
0010
0100
1000
0001
0000
0001
0100
0010
,
1000
0100
0001
0000
0011
0000
1010
0000
,
0001
0010
0100
2000
0010
0000
3001
1000
,
0010
1000
0100
0000
0100
0010
0001
1000
,
0010
1000
0100
0000
1000
0001
0010
0001
,
0100
0010
0102
0000
1003
0010
1000
0001
,
0010
0001
0100
0010
1000
0100
0001
0000
,
0010
0100
0021
0000
0031
1000
0010
1000
,
0100
0010
0001
1000
0010
0100
0001
0000
,
0010
0100
0010
0001
1000
0010
0100
0000
,
0001
0010
1000
0001
1000
0010
0100
0000
,
0010
0100
1001
0000
0210
0000
0301
0100
,
0010
0000
1000
0000
0200
0000
0000
0000
1300
0000
0001
0100
0001
0000
1000
0000
,
0010
1000
1010
0000
0202
0000
0303
0001
,
2000
0000
3010
0200
0000
0301
0000
0010
,
0012
0000
1000
2003
0000
3010
0100
0000
,
0101
0000
0000
1100
0000
0000
0202
0000
0000
0000
0000
0000
0303
0000
1000
0000
,
0001
0010
0011
0000
2200
0000
3300
1000
,
0020
0000
1030
0002
0000
0013
0000
0001
,
2001
0000
0100
3200
0000
1300
0002
0000
,
0203
0000
0310
0220
0000
0000
0330
0000
,
1000
0100
0001
0100
1000
0001
0100
0000
,
0010
1000
0100
0000
1001
0001
0010
0100
,
1000
0010
1000
0001
0010
0100
1000
0000
,
0010
1000
0100
0000
0010
0001
1000
0001
,
0101
0000
0001
0010
1100
0000
0010
1000
,
0100
0010
0001
0000
1001
0010
1000
0001
,
0010
0001
0100
0010
1000
0100
0001
0000
,
1000
0010
0100
0002
0000
0013
0001
1000
,
0001
0100
0010
1000
0200
0010
0310
0000
,
0001
0010
0001
0100
1000
0100
0001
0010
,
0100
1000
0010
1000
0001
0010
0100
0000
,
1000
0010
1000
0001
0010
0000
1000
1000
,
1000
1100
0110
0011
,
0001
0100
0010
0000
0110
0001
1000
0100
,
0010
0001
0100
0010
1000
0100
0001
0000
,
0010
0001
1000
0020
0000
0230
0000
0301
,
1010
0000
0001
0000
0000
1000
0000
0000
,
0010
0000
1000
0100
0000
0100
0001
0000
,
0000
0000
0010
0001
0010
0001
0010
0001
,
1000
0001
0010
0100
1000
0010
0100
0001
,
0010
0100
1100
0000
0102
0000
0103
0010
,
2000
0000
3001
0020
0000
0031
0000
0100
,
0020
0000
1030
0002
0010
0000
0103
0000
,
0011
0000
0000
1100
0000
0000
0022
0000
0000
0000
0000
0000
0033
0000
1000
0000
,
0001
0100
1001
0000
0120
0000
1030
0100
,
1000
0010
0100
0002
0000
0013
0000
0100
,
1000
0010
0100
0001
0010
1000
0010
0100
,
0010
0001
0100
0010
1000
0001
1000
0100
,
0010
0001
0100
0001
0010
0100
1000
0000
,
0010
1000
0100
0000
1010
0001
1000
0100
,
0010
0001
1000
0010
1000
0100
0001
0000
,
0010
0001
0100
0010
1000
0000
0100
1000
,
0110
0000
0001
0010
0101
0000
1000
0001
,
0010
0100
1000
0000
1001
0010
0100
0001
,
0010
0100
1000
0010
1000
0001
0100
0020
,
0000
0000
1030
0100
1000
0000
0000
0000
1100
0000
0000
0001
0100
0001
0100
0000
,
0010
1000
0010
0100
0002
1000
1003
0000
,
0010
1000
0100
1000
0001
0010
0100
1000
,
0010
1000
0100
0001
0100
1000
0010
0000
,
1000
0001
1000
0010
0100
0000
0001
0001
,
0001
0101
1001
1010
,
0100
0010
1000
0000
0110
0001
0010
0100
,
1000
0001
0100
0010
1000
0100
0010
0000
,
0001
0010
0100
2000
0000
0001
3001
0000
,
2002
0000
0000
0000
,
0000
0000
0000
0000
,
0000
0000
0000
3003
;
