#TITLE:Blinding Lights;
#ARTIST:The Weeknd;
#BANNER:Blinding Lights-bn.png;
#BACKGROUND:Blinding Lights-bg.png;
#JACKET:Blinding Lights-jacket.png;
#MUSIC:Blinding Lights.ogg;
#SAMPLESTART:95.439;
#SAMPLELENGTH:20;
#DISPLAYBPM:171;
#BPMS:0=171;
#BGCHANGES:;

//---------------dance-single - ----------------
#NOTES:
     dance-single:
     :
     Beginner:
     3:
     :
0000
0000
0000
0000
,
0000
0000
0000
0000
,
0000
0000
0000
0000
,
0000
0000
0000
0000
,
0001
0000
0001
0000
,
0001
0000
0001
0000
,
1000
0000
1000
0000
,
1000
0000
1000
0000
,
0010
0000
0010
0000
,
0100
0000
0100
0000
,
0002
0000
0003
0000
,
1000
0000
0010
0010
,
0010
0000
0000
0000
,
0000
0000
1000
1000
,
1000
0000
0000
0001
,
0000
0000
0100
0100
,
0100
0000
0000
0010
,
0000
0000
1000
0000
,
2000
0000
3000
0000
,
0010
0000
0100
0100
,
0100
0000
0000
0000
,
0000
0000
0001
0001
,
0001
0000
0000
1000
,
0000
0000
0010
0010
,
0010
0000
0000
0100
,
0000
0000
0001
0000
,
0020
0000
0030
0000
,
0001
0000
1000
1000
,
0000
0000
0110
0000
,
1000
0000
0100
0000
,
0000
0000
1001
0000
,
0010
0000
0001
0000
,
0000
0000
1000
0000
,
0001
0000
0100
0000
,
0010
0000
0010
0000
,
0010
0000
0100
0000
,
2002
0000
0000
0000
,
0000
0000
3003
0000
,
0010
0000
0000
0200
,
0000
0000
0300
0000
,
0001
0000
0001
0000
,
1000
0000
1000
0000
,
0000
0110
0000
0000
,
0000
0000
1000
0000
,
2002
0000
0000
0000
,
0000
0000
3003
0000
,
0001
0000
0000
0020
,
0000
0000
0030
0000
,
0001
0000
0100
0000
,
0001
0000
1000
0000
,
0000
0110
0000
0000
,
0000
0000
0010
0010
,
0010
0000
0000
1000
,
0000
0000
0100
0100
,
0100
0000
0000
0020
,
0000
0000
0030
0000
,
0001
0000
0000
1000
,
0000
0000
0010
0010
,
0000
0100
0000
0000
,
0000
0000
0001
0000
,
2002
0000
0000
0000
,
0000
0000
3003
0000
,
0010
0000
0000
2000
,
0000
0000
3000
0000
,
0100
0000
1000
0000
,
0010
0000
0100
0000
,
0000
0110
0000
1001
,
0000
0110
0000
0001
,
0001
0000
0001
0000
,
1000
0000
1000
0000
,
0001
0000
0001
0000
,
1000
0000
1000
0000
,
0010
0000
1000
0000
,
0100
0000
1000
0000
,
0010
0000
0000
0110
,
0000
1001
0000
1000
,
1000
0000
0010
0000
,
1000
0000
0010
0000
,
0100
0000
0001
0000
,
0100
0000
0001
0000
,
0010
0000
0001
0000
,
0100
0000
0010
0000
,
1000
0000
0000
0000
,
0010
0000
0010
0000
,
0220
0000
0000
0000
,
0000
0000
0330
0000
,
0001
0000
0000
0020
,
0000
0000
0030
0000
,
1001
0000
0100
0000
,
1001
0000
0010
0000
,
0000
0110
0000
0000
;

//---------------dance-single - ----------------
#NOTES:
     dance-single:
     :
     Easy:
     7:
     :
0000
0000
0000
0000
,
0000
0000
0000
0000
,
0000
0000
0000
0000
,
0000
0000
0000
0000
,
0001
1000
0001
0010
,
0001
0100
0010
1000
,
0100
0010
0100
0010
,
0001
0100
0010
1000
,
0100
1000
0010
1000
,
0100
0010
0001
0100
,
0001
0010
0001
0100
,
0010
1000
0100
0010
,
0001
0101
0000
0101
,
0000
0101
0000
0101
,
1000
0010
1000
0100
,
0000
0000
0010
0001
,
0010
0001
0100
0010
,
0000
0000
2000
3000
,
0001
0010
0001
0100
,
0010
1000
0100
0010
,
0100
1100
0000
1100
,
0000
1100
0000
1100
,
1000
0001
0010
0100
,
0000
0000
1000
0010
,
1000
0100
0010
0001
,
0000
0000
0002
0003
,
0010
0001
0010
0100
,
1000
0010
1000
0001
,
0000
1100
1100
0000
,
0001
1000
0010
0100
,
0010
0101
0101
0000
,
0001
0010
0100
1000
,
0010
0110
0110
0000
,
0001
0010
1000
0100
,
0010
0000
0010
0000
,
0010
0000
0001
0100
,
2002
0000
0000
0000
,
0000
0000
3003
0001
,
0010
0001
0100
0010
,
1000
0100
1000
0001
,
0010
0001
0100
0100
,
0010
1000
0100
0100
,
0010
0110
0001
0100
,
1000
0000
0001
0100
,
2002
0000
0000
0000
,
0000
0000
3003
0010
,
1000
0100
1000
0010
,
0100
0001
0010
0100
,
1000
0010
0100
0100
,
0001
0010
0100
0100
,
1000
1001
0010
0100
,
0001
0000
1000
1000
,
1100
1000
0010
0100
,
0002
0000
1000
0103
,
0101
0010
1000
0100
,
2000
0000
0000
3001
,
0010
0001
0100
0010
,
1000
0000
1001
0110
,
0000
2000
0002
0000
,
0000
3003
0010
0100
,
2002
0000
0000
0000
,
0000
0000
3003
0100
,
0001
0010
0001
0100
,
1000
0010
1000
0100
,
1000
0010
0001
0100
,
0001
0010
1000
0100
,
0010
0110
0000
1001
,
0000
0110
0000
1001
,
1000
0010
1000
0100
,
0010
0001
0100
0010
,
0100
0001
0010
0100
,
1000
0010
1000
0001
,
0010
0001
0010
0100
,
0010
0001
0010
0100
,
1000
0010
1000
0010
,
1000
0100
0010
0001
,
0100
0001
0010
0001
,
0010
0100
1000
0010
,
1000
0100
1000
0010
,
0100
0001
0010
0100
,
0010
0001
1000
0001
,
0010
1000
0100
0010
,
0001
0100
0010
1000
,
0100
0010
0001
0100
,
0220
0030
0020
0030
,
2000
3000
0002
0303
,
0202
0300
2000
3000
,
0020
0030
0200
0303
,
2200
0300
0002
3003
,
1001
0010
1000
0200
,
0300
0110
0000
0000
;

//---------------dance-single - ----------------
#NOTES:
     dance-single:
     :
     Medium:
     9:
     :
0000
0000
0000
0000
,
0000
0000
0000
0000
,
0000
0000
0000
0000
,
0000
0000
0000
0000
,
0002
0000
0003
0000
0002
0000
0003
0010
,
0001
1000
0000
1010
0000
0101
0000
0000
,
2000
0000
3000
0000
2000
0000
3000
0010
,
1000
0001
0000
0011
0000
1100
0000
0000
,
0002
0100
0000
0010
0000
0103
0000
0000
,
2000
0010
0000
0100
0000
0010
0000
3200
,
0000
0010
1000
0310
,
0002
0000
0003
0000
1000
0001
1000
0001
,
0100
0101
0000
0101
,
0000
0000
0101
0000
1000
0010
1000
0001
,
0010
0000
0001
0010
0000
0100
1000
0000
,
0000
0000
0000
0000
1000
0001
1000
0001
,
0100
0000
0010
1000
0000
0010
1000
0000
,
0000
0000
0002
0103
,
0110
0001
1000
0001
,
0020
0000
0030
0001
0100
0010
1000
0010
,
1000
1010
0000
1010
,
0000
0000
1010
0000
1000
0010
0100
0001
,
0010
0000
0010
0001
0000
0001
1000
0000
,
0000
0000
0000
0000
0010
1000
0100
1000
,
0010
0000
0100
0001
0000
0100
0001
0000
,
0000
0000
2000
3001
,
1001
0010
0100
0010
,
2000
0000
3000
0001
1000
0010
0100
0010
,
0000
0000
0101
0000
1000
0001
0000
0020
,
0000
0032
0000
2003
0000
3020
0000
0000
,
1030
0000
1100
0000
0010
1000
0000
0200
,
0000
2300
0000
3002
0000
0203
0000
0000
,
0301
0000
0011
0000
0010
0100
0000
0020
,
0000
0032
0000
2003
0000
3200
0000
0000
,
0310
1001
0010
1001
,
0010
0000
1000
0100
0000
0110
0000
0000
,
2001
0001
0000
0100
,
0000
0000
3001
0000
1000
0100
0010
0000
,
0001
0000
1000
0100
0000
1000
0002
0000
,
0000
0000
0103
0000
0000
0010
1000
0000
,
0100
1000
0000
1100
0000
0101
0000
0000
,
0001
0010
0000
1001
0000
0100
2000
0000
,
3010
0110
0001
0110
,
2000
0000
0000
0010
0000
3100
0000
0000
,
1002
0010
0000
0100
,
0000
0000
0013
0000
0001
1000
0100
0000
,
1000
0000
0010
0100
0000
0100
0002
0000
,
0000
0000
1003
0000
0001
0010
0100
0000
,
1000
0010
0000
1010
0000
0011
0000
0000
,
0001
0100
0000
0110
0000
0010
2000
0000
,
3001
1001
0010
0100
,
1002
0000
0103
0000
1000
0100
0010
0001
,
0100
0000
0001
1000
0000
0001
2000
0000
,
0000
0000
3000
0000
0100
0010
0100
0010
,
0001
0000
1000
0010
0000
1000
0010
0200
,
0000
0000
0300
0101
,
1010
0000
1000
0001
0000
0100
0020
0000
,
0000
0030
1001
0110
,
1000
0100
2000
0002
0000
0000
3000
0000
,
0203
0000
0000
0010
0000
0301
0000
0000
,
2001
0100
0000
0010
,
0000
0000
3100
0000
1000
0001
0100
0000
,
0010
0000
1000
0001
0000
0001
0200
0000
,
0000
0000
0310
0000
1000
0100
0001
0000
,
0010
0001
0000
0101
0000
1010
0000
0000
,
1000
0100
0000
0110
0000
0010
0002
0000
,
0103
0110
0100
0110
,
1001
0000
0110
0000
0000
1000
0001
1000
,
0002
0000
0003
0000
0002
0000
0003
0100
,
0001
0010
0000
0011
0000
1100
0000
0000
,
2000
0000
3000
0000
2000
0000
3000
0010
,
1000
0100
0000
1100
0000
0101
0000
0000
,
0020
0001
0000
1000
0000
0031
0000
0000
,
0200
0010
0000
1000
0000
0001
0000
0320
,
0000
1000
0100
1030
,
0001
0000
0100
0000
0000
0001
1000
0001
,
2000
0000
3000
0000
2000
0000
3000
0001
,
1000
0010
0000
0110
0000
1001
0000
0000
,
0002
0000
0003
0000
0002
0000
0003
0010
,
0001
0010
0000
0110
0000
1001
0000
0000
,
2000
0100
0000
0001
0000
3010
0000
0000
,
0002
0010
0000
1000
0000
0010
0000
0203
,
0000
0010
0001
1000
,
0320
0000
0000
1000
0000
0130
0000
0000
,
0220
0000
0000
0000
,
0300
0000
0000
0000
0000
1030
0000
0000
,
0100
0000
1000
0001
0000
1000
0020
0000
,
0000
0000
0130
0000
0000
0002
0000
0000
,
0013
0001
0000
0101
0000
1010
0000
0000
,
1000
0100
0000
1000
0000
0001
0100
0000
,
0000
0110
0000
0000
;

//---------------dance-single - ----------------
#NOTES:
     dance-single:
     :
     Hard:
     12:
     :
0000
0000
0000
0000
,
0000
0000
0000
0000
,
0000
0000
0000
0000
,
0000
0000
0000
0000
,
0002
0000
0013
0000
0002
0000
0103
0010
,
1000
0100
0010
0001
0000
0001
0100
0010
,
2000
0000
3001
0000
2000
0000
3100
0010
,
0100
0010
0001
1000
0000
0001
0100
0000
,
1010
2000
0000
3002
0000
1003
0100
0000
,
0011
0002
0000
2003
0000
3002
0000
0203
,
0010
0000
0301
0000
1000
0100
0010
0001
,
0200
0000
0320
0000
1030
0001
1000
0100
,
0010
0011
0010
0011
,
0010
0000
0011
0000
0010
0001
0100
0001
,
1000
0000
0010
1000
0000
0001
0100
0000
,
0010
0000
1010
0000
0001
0010
0100
1000
,
0010
0000
1000
0001
0000
1000
0100
0000
,
0010
0000
0110
0000
0001
0100
1000
0000
,
0010
1001
0010
1001
,
0010
0000
1001
0100
0001
1000
0001
0100
,
0010
1010
0010
1010
,
0010
0000
1010
0000
1000
0001
0100
0010
,
0100
0000
0001
0010
0000
0100
1000
0000
,
0010
0000
0101
0000
0001
1000
0001
0100
,
0010
0000
1000
0100
0000
0010
0001
0000
,
0100
0000
0110
0000
0001
0010
1000
0000
,
0100
1001
0100
1001
,
0100
0000
1001
0001
0010
0100
0010
0100
,
1000
0000
1010
0000
1010
0001
0000
0020
,
0000
0032
0000
0203
0000
0302
1000
0000
,
0013
0000
0011
0000
0011
0100
0000
2000
,
0000
3002
0000
2003
0000
3020
0100
0000
,
1030
0000
1100
0000
1100
0010
0000
0002
,
0000
2003
0000
3020
0000
0230
0001
0000
,
0310
0101
0010
1100
,
0010
0000
0001
1000
0100
1000
0001
1000
,
2001
0010
0001
0100
,
0010
0000
0100
0000
3001
0010
1000
0000
,
1200
0000
0001
0001
0000
1000
1300
0000
,
0010
0100
0001
0000
0010
0100
1000
0000
,
0011
0001
0000
0100
0000
0010
1000
0000
,
1010
0010
0000
0100
0000
0001
2000
0000
,
3010
0000
0110
0000
0001
1000
0100
0000
,
1000
0010
0100
0002
0000
1003
0100
0010
,
1002
0010
1000
0100
,
0010
0000
0100
0000
1003
0010
0001
0000
,
0201
0000
1000
1000
0000
0001
0301
0000
,
0010
0001
1000
0000
0010
0100
0001
0000
,
0101
0100
0000
0001
0000
1000
0010
0000
,
1100
0100
0000
1000
0000
0001
0020
0000
,
0130
0000
0110
0000
0001
1000
0010
0000
,
1000
0000
0000
0010
0000
0000
0100
0000
0001
0000
1000
0000
0001
0000
1000
0000
,
1020
0000
0100
0100
0000
1000
1030
0000
,
0101
0000
0010
1000
0100
0010
0100
0010
,
0021
0000
0001
0001
0000
0100
0130
0010
,
0120
0000
0031
1000
0000
1000
0010
0100
,
0002
0000
0010
0010
0000
1000
1003
0000
,
0100
1000
0001
0000
1001
0000
0110
0000
,
1000
0010
0001
0200
0000
0000
0310
0000
,
1000
0000
0100
1000
0000
0010
0100
0001
,
2001
0100
0010
0100
,
0001
0000
0010
0000
3001
0100
1000
0000
,
2010
0000
0001
0001
0000
0100
3100
0000
,
0010
0001
1000
0000
0100
0010
0001
0000
,
0011
0001
0000
0010
0000
0100
1000
0000
,
1100
1000
0000
0010
0000
0100
0002
0000
,
0013
0110
0010
0110
,
0010
0000
0110
0000
0010
0001
1000
0001
,
0200
0000
0310
0000
0200
0000
0301
1000
,
0010
0100
0001
1000
0000
1000
0100
1000
,
0020
0000
0130
0000
0020
0000
1030
0100
,
1000
0010
0100
0001
0000
0010
0100
0000
,
0011
0002
0000
0203
0000
0320
1000
0000
,
0130
0020
0000
2030
0000
3002
0000
0203
,
0010
0000
1300
0000
0100
0001
0010
0000
,
0001
0000
0010
0000
0001
0100
0010
1000
,
0200
0000
0310
0000
0200
0000
1300
0001
,
1000
0010
0100
0001
0000
0010
0001
0100
,
0002
0000
1003
0000
0002
0000
0013
0100
,
1000
0010
1000
0001
0000
0100
0010
0000
,
1010
0010
0000
1000
0000
0100
0010
0000
,
0011
0002
0000
0023
0000
0230
0000
2300
,
0010
0000
3001
0000
1000
0010
0100
0000
,
0001
0010
0100
1000
0000
0001
1000
0000
,
0220
0300
0001
0000
,
1000
1000
0000
0001
0000
0130
0000
0000
,
1000
0000
1000
0010
0000
0100
0002
0000
,
0000
0000
0000
0000
0000
0023
0000
0000
,
0031
0100
0000
0101
0000
0101
0000
0000
,
1000
0100
0000
1000
0000
0001
0100
0000
,
0000
0110
0000
0000
;
