#TITLE:Black Magic;
#ARTIST:Little Mix;
#BANNER:Black Magic-bn.png;
#BACKGROUND:Black Magic-bg.png;
#JACKET:Black Magic-jacket.png;
#MUSIC:Black Magic.ogg;
#OFFSET:1.556;
#SAMPLESTART:73.444;
#SAMPLELENGTH:20;
#LASTBEATHINT:1.022;
#DISPLAYBPM:112;
#BPMS:0=112;
#BGCHANGES:;

//---------------dance-single - ----------------
#NOTES:
     dance-single:
     :
     Beginner:
     3:
     :
0000
0000
0000
0000
,
0000
0000
0000
0000
,
0000
0000
0000
0000
,
0000
0000
0000
0000
,
0000
0000
0000
0000
,
0010
0000
0000
1000
,
1000
0000
0100
0100
,
0100
0000
0000
0110
,
0000
0000
0000
0001
,
0001
0000
0000
0100
,
0100
0000
0010
0000
,
1000
0000
0000
0001
,
0001
0000
0010
0000
,
0001
0000
0000
1000
,
1000
0000
0010
0010
,
0010
0000
0000
1001
,
0000
0000
1000
0000
,
0010
0000
0100
0000
,
0001
0000
1000
1000
,
0000
0000
0010
0010
,
0000
0000
1000
1000
,
0000
0000
0100
0100
,
0000
0000
0001
0001
,
0000
0000
0010
0010
,
0000
0000
0001
0001
,
0001
0000
1000
0000
,
0010
0000
0100
0000
,
0001
0000
0010
0000
,
0001
0000
0100
0000
,
0010
0000
1000
0000
,
0010
0000
0100
0000
,
0010
0000
1000
0000
,
0100
0000
0010
0000
,
0001
0000
0100
0000
,
0001
0000
1000
0000
,
0010
0000
0100
0000
,
0001
0000
1000
0000
,
0100
0000
0010
0000
,
0001
0000
1000
0000
,
0010
0000
0100
0100
,
0000
0000
0001
0001
,
0001
0000
1000
0000
,
0010
0010
0010
0010
,
0000
0000
1000
1000
,
0000
0000
0001
0001
,
0000
0000
0010
0010
,
0000
0000
0100
0100
,
0000
0000
0010
0010
,
0000
0000
0100
0100
,
0100
0000
1000
0000
,
0001
0000
0100
0000
,
0010
0000
1000
0000
,
0010
0000
0100
0000
,
0001
0000
0010
0000
,
0001
0000
1000
0000
,
0001
0000
0010
0000
,
0001
0000
0100
0000
,
1000
0000
0010
0000
,
1000
0000
0001
0000
,
0010
0000
0000
0000
;

//---------------dance-single - ----------------
#NOTES:
     dance-single:
     :
     Easy:
     7:
     :
0000
0000
0000
0000
,
0000
0000
0000
0000
,
0000
0000
0000
0000
,
0000
0000
0000
0000
,
0000
0000
0000
0000
,
0010
0100
0001
0101
,
0010
0000
1000
0100
,
0001
0010
0001
1100
,
0010
1000
0100
0001
,
1000
0010
1000
0100
,
0010
0001
0100
0010
,
1000
0100
1000
0001
,
0010
0001
0100
0010
,
1000
0100
0010
0011
,
0001
0000
0010
0001
,
1000
0010
0100
1010
,
0010
1000
0100
0010
,
0001
0100
0001
0100
,
0010
1000
0110
1001
,
0010
1000
0100
0001
,
0010
0001
0010
1000
,
0100
0010
0001
1000
,
0010
1000
0100
0010
,
0001
0100
0010
0010
,
1000
0001
1000
1000
,
0100
0010
0001
0001
,
0010
0100
1000
0010
,
1000
0001
0100
1001
,
0010
1000
0100
0110
,
0001
0010
0001
1100
,
0010
1000
0100
0011
,
0001
1000
0010
1010
,
1000
0001
0010
0101
,
0001
0010
0001
1000
,
0010
0100
0010
1000
,
0000
0100
0010
0001
,
0000
0010
0001
0100
,
0000
1000
0010
1000
,
0000
0001
0010
1000
,
0000
0100
1000
0001
,
0000
0010
0001
0100
,
1000
1000
0001
0001
,
1000
0100
0010
0001
,
0100
0001
0010
0001
,
0010
1000
0100
0010
,
0001
0100
0001
0010
,
0001
1000
0010
0100
,
0010
1000
0100
0100
,
1000
0001
0010
0010
,
0001
0100
1000
0010
,
1000
0001
0010
0100
,
1000
0010
0100
0110
,
0001
0010
1000
1100
,
0101
0001
0010
0011
,
0001
0100
0010
1010
,
1001
0001
0010
1000
,
0100
0010
0001
0011
,
1100
0001
0100
1010
,
0101
0010
0001
1001
,
0110
0000
0000
0000
;

//---------------dance-single - ----------------
#NOTES:
     dance-single:
     :
     Medium:
     10:
     :
0000
0000
0000
0000
,
0000
0000
0000
0000
,
0000
0000
0000
0000
,
0000
0000
0000
0000
,
0000
0000
0000
0000
,
0010
0000
0000
1000
0000
0000
0100
0000
0100
0000
0000
0000
1000
0000
0001
0000
,
0010
0000
0100
0000
0000
0000
1000
0001
1000
0000
0000
0100
0000
0000
0010
0000
,
0001
0000
0000
0100
0000
0000
0010
0000
1000
0000
0000
0000
1100
0000
0000
0000
,
0010
0000
0000
1000
0000
0000
0001
0000
0100
0000
0000
0000
0001
0000
0010
0000
,
0001
1000
0010
0100
0100
0000
0001
0010
,
0200
0000
2300
0000
3020
0000
1030
0001
,
0010
0001
1000
0100
0100
0000
1000
0001
,
2000
0000
3020
0000
0130
0001
1000
0001
,
0010
0001
0010
0100
0100
0000
1000
0001
,
1000
0000
0010
0000
0000
0000
0100
0001
0100
0000
0000
0001
0000
0000
1000
0000
,
0010
0000
0000
1000
0000
0000
0001
0000
0100
0000
0000
0000
0101
0000
0000
0000
,
0001
0000
0000
0010
0000
0000
0100
0000
1000
0000
0001
0000
0100
0000
0010
0000
,
1000
0100
1000
0010
0001
0100
0001
0010
,
0100
0000
1000
0000
0001
0000
0100
0000
0010
1000
0010
1000
0010
0000
0000
0000
,
0000
0100
0001
0010
0001
0100
0010
1000
,
0000
0100
0100
1000
0001
0010
0001
1000
,
0000
0010
1000
0100
1000
0010
0100
0001
,
0000
0010
0010
0001
1000
0010
1000
0100
,
0000
1000
0010
1000
0100
0010
0001
0100
,
0000
0000
0001
0000
0010
0000
0001
0000
0010
0000
0100
0000
1000
0000
0010
0100
,
0020
0000
0000
1000
0000
0000
0001
0000
0000
1030
0000
0000
0000
0000
0001
0100
,
0001
0000
0000
1000
0000
0000
0100
0000
0000
0000
1000
0000
0010
0000
0100
0000
,
0001
0010
0001
0100
0010
1000
1001
0000
,
0000
1000
0010
1000
0100
0010
0001
1000
,
0010
1000
0100
0010
0001
0100
0110
0000
,
0000
0001
1000
0001
1000
0100
0010
0001
,
0100
0001
0010
0100
1000
0010
1010
0000
,
0000
1000
0100
1000
0010
0100
0001
1000
,
0100
1000
0010
0100
0001
0010
0011
0000
,
0000
0001
1000
0010
1000
0001
0100
0010
,
0000
1000
0100
1000
0010
0100
0001
1000
,
0000
0010
0010
0100
0010
1000
0001
0100
,
0000
0001
0010
0100
1000
0010
1000
0001
,
0000
0100
0100
0010
1000
0100
1000
0001
,
0000
0010
0001
0100
0001
1000
1001
0000
,
0000
0000
0010
0000
1000
0000
0100
0000
0010
0000
0100
0000
1000
0000
0001
0100
,
0002
0000
0000
0000
0003
0000
1000
0100
2000
0000
0000
0000
3000
0000
0001
0100
,
0001
0000
0000
0010
0000
0000
1000
0000
0100
0000
0010
0000
0110
0000
0000
0000
,
0000
0000
0001
0010
0001
0000
0100
0000
0010
0000
1000
0000
0001
0000
0100
0000
,
0000
0000
0010
0000
1000
0000
0001
0000
0001
0000
1000
0000
0100
0000
0010
0100
,
0000
0000
1000
0010
1000
0000
0100
0000
0010
0000
0001
0000
1000
0000
0001
0000
,
0000
0100
0001
0100
0010
1000
0100
1000
,
0001
1000
1000
0001
0010
0100
0010
0001
,
0000
0000
0100
0000
0001
0000
0010
0000
0001
0000
0100
0000
1000
0000
0010
0100
,
0020
0000
0000
1000
0000
0000
0001
0000
0000
1030
0000
0000
0000
0000
0001
0100
,
0001
0000
0000
1000
0000
0000
0100
0000
0000
0000
1000
0000
0010
0000
0100
0000
,
0001
0000
0000
0010
0000
0000
0100
0000
1000
0000
0000
0000
1010
0000
0000
0000
,
1000
0000
0000
0010
0000
0000
0100
0000
0001
0000
1000
0100
2000
0000
0000
0000
,
3010
0000
0000
0100
0000
0000
0001
0000
1000
0000
0000
0000
0101
0000
0000
0000
,
0001
0000
0000
0010
0000
0000
0001
0000
0100
0000
0010
1000
0010
0000
0000
0000
,
1000
0000
0000
0100
0000
0000
0010
0000
0001
0000
0000
0000
0011
0000
0000
0000
,
0100
0000
0000
0001
0000
0000
0010
0000
1000
0000
0001
0100
0001
0000
0000
0000
,
0010
0000
0000
0001
0000
0000
0100
0000
1000
0000
0000
0000
1100
0000
0000
0000
,
0010
0000
0000
0100
0000
0000
0001
0000
1000
0000
0000
0000
0020
0000
0000
0000
,
1030
0002
0000
0000
0000
0000
0000
0000
,
0003
0000
0000
0000
;

//---------------dance-single - ----------------
#NOTES:
     dance-single:
     :
     Hard:
     14:
     :
0000
0000
0000
0000
,
0000
0000
0000
0000
,
0000
0000
0000
0000
,
0000
0000
0000
0000
,
0000
0000
0000
0000
,
0010
0000
1000
0100
0000
0010
0001
0000
0001
0000
0000
0000
1000
0000
0100
0000
,
1000
0000
0010
0100
0000
0001
1000
0001
1000
0000
0000
0100
0000
0000
0010
0000
,
0001
0000
0100
0010
0000
1000
0001
0000
0001
0000
0000
0000
1100
0000
1000
0010
,
1000
0000
0001
0010
0000
0100
1000
0000
1000
0000
0000
0000
0011
0000
0001
0000
,
0100
0000
0010
1000
0000
0001
0100
0000
0100
0000
0000
0000
0110
0000
0010
0000
,
1000
0000
1000
0100
0001
0010
0001
0100
,
0010
0000
1000
0001
0000
0010
0100
0000
0100
0000
0000
0000
1001
0000
0001
0000
,
0020
0000
0230
0000
1300
0010
1000
0001
,
0100
0000
0001
0010
0000
0100
1000
0000
1000
0000
0010
0000
0100
0000
0001
0000
,
0010
0000
0001
1000
0000
0100
0010
0100
0010
0000
0000
0001
1000
0000
0100
0000
,
1000
0000
0100
0010
0000
0001
1000
0000
1000
0000
0000
0000
1010
0000
0001
0100
,
0001
0000
0010
0100
0000
1000
0001
0000
1000
0010
1000
0010
1000
0000
0001
0100
,
0001
0000
0010
0000
0100
0000
1000
0010
1000
0000
0001
0100
0001
0000
0010
0000
,
1000
0000
0000
0010
0100
0000
0001
1000
0001
1000
0010
0100
0001
0000
0000
0000
,
0101
0000
1000
0100
0010
0000
0001
0100
0010
0000
0010
0000
1001
0000
1001
0000
,
0000
0000
0010
0000
1000
0000
0100
0000
1000
0000
0001
0000
0010
0100
1000
0001
,
0000
0000
0010
0001
0100
0000
0010
0000
1000
0000
1000
0000
0110
0000
0110
0000
,
0000
0000
0001
0000
0010
0000
0001
0000
0100
0000
0010
0000
1000
0100
1000
0100
,
0000
0000
0010
0000
1000
0000
0100
1000
0010
0000
0100
0000
0001
0000
1000
0000
,
0000
0000
0100
0000
0100
0000
0010
0000
0001
0000
1000
0000
1000
0000
0001
0010
,
0001
0000
0000
0101
0000
0000
1010
0000
0000
1100
0000
0000
0101
0000
1000
0010
,
1000
0000
0000
1100
0000
0000
0011
0000
0000
0000
0100
0010
1000
0001
0100
0000
,
0010
0000
1000
0100
1000
0000
0001
0100
0001
0000
0010
0000
0010
0000
0000
0000
,
0001
0000
0100
0000
0100
0000
1000
0000
1000
0000
0010
0000
0010
0000
0100
0001
,
0100
0000
0001
0010
0001
0000
1000
0010
1000
0000
1100
0000
1100
0000
0000
0000
,
0001
0000
1000
0000
1000
0000
0010
0000
0100
0001
0100
0001
0100
0000
0010
1000
,
0001
0000
0010
0100
1000
0000
0010
0100
0001
0000
0101
0000
0101
0000
0000
0000
,
1000
0000
0001
0000
0001
0000
0100
0000
0100
0000
0010
0000
0010
0000
1000
0001
,
1000
0000
0100
0010
0001
0000
0100
0010
1000
0000
1010
0000
1010
0000
0000
0000
,
0001
0000
1000
0000
1000
0000
0100
0000
0010
0001
0010
0100
1000
0000
0001
0000
,
0000
0000
0100
0010
0100
0000
0001
1000
0001
0000
0010
0000
0100
0000
1000
0000
,
0000
0000
0010
0000
1000
0000
0001
0000
0010
0000
0001
0000
0100
0000
0010
1000
,
0000
0000
0100
1000
0001
0000
1000
0000
0010
0000
0100
0000
0001
0000
0010
0000
,
0000
0000
0001
0000
0001
0000
1000
0000
1000
0000
0010
0000
0100
0001
0100
0010
,
0000
0000
1000
0000
0100
0000
0010
0000
0001
0000
0100
0000
1001
0000
0010
1000
,
0000
0000
0100
0000
0100
0000
0010
0000
0010
0000
0001
0000
1000
0000
0001
0100
,
0010
0000
0000
0110
0000
0000
0001
0100
1000
0000
0010
0000
0110
0000
0001
0010
,
0001
1000
0000
1010
0000
0010
0100
0001
0000
1000
0010
1000
0100
0000
0000
0000
,
0110
0000
0001
0010
0100
0000
1000
0010
0100
0000
0001
0000
0011
0000
0011
0000
,
0000
0000
0100
0000
0001
0000
0010
0000
0100
0000
1000
0000
0001
0100
0010
1000
,
0000
0000
0100
1000
0001
0000
0010
0000
0001
0000
0100
0000
1010
0000
1010
0000
,
0000
0000
1000
0100
0010
0000
0001
0000
0010
0000
0100
0000
1000
0010
0100
0001
,
0010
0001
0100
0010
1010
0101
1010
0100
,
0010
0000
0001
0000
0001
0000
1000
0000
1000
0000
0010
0000
0100
0000
0001
1000
,
0010
0000
0000
1001
0000
0000
1000
0001
0100
0000
0000
0110
0000
0000
0010
1000
,
0100
0000
0000
0011
0000
0000
1100
0000
0001
0100
0010
0100
0010
1000
0001
0000
,
0010
0000
0001
0100
0000
0010
1000
0000
0100
0000
1000
0001
0010
0000
0000
0000
,
0001
0000
1000
0010
0000
0100
0001
0000
0010
0000
0001
1000
0100
0000
0010
0000
,
0100
0000
1000
0001
0000
1000
0010
0000
0100
0000
0001
0010
1000
0000
0000
0000
,
0100
0000
0010
0100
0000
1000
0001
0100
0010
1000
0010
1000
0001
0000
0000
0000
,
0010
0000
0001
0100
0000
0010
1000
0000
0001
0000
1000
0100
0010
0000
0000
0000
,
0001
0000
1000
0001
0000
0100
0010
0000
1000
0000
0100
0010
0001
0000
1000
0000
,
0001
0000
0010
0001
0000
1000
0100
0000
1000
0010
0100
0001
0010
0000
0000
0000
,
0001
0000
0010
0001
0000
0100
1000
0000
0010
1000
0100
0010
0002
0000
0000
0000
,
1003
0001
0200
0000
0000
0000
0000
0000
0000
0000
0000
0000
0000
0000
0000
0000
,
0300
0000
0000
0000
;
