#TITLE:Bite Me;
#ARTIST:Avril Lavigne;
#BANNER:Bite Me-bn.png;
#BACKGROUND:Bite Me-bg.png;
#JACKET:Bite Me-jacket.png;
#MUSIC:Bite Me.ogg;
#SAMPLESTART:39.529;
#SAMPLELENGTH:20;
#DISPLAYBPM:170;
#BPMS:0=170;
#BGCHANGES:;

//---------------dance-single - ----------------
#NOTES:
     dance-single:
     :
     Beginner:
     3:
     :
0000
0000
0000
0000
,
0000
0000
0000
0000
,
0000
0000
0000
0000
,
0000
0000
0000
0000
,
0000
0000
0000
0000
,
0000
0000
0000
0000
,
0000
0000
0000
0000
,
0000
0000
0000
0000
,
0000
0000
0010
0000
,
0001
0000
0100
0000
,
0000
0000
0010
0000
,
1000
0000
0100
0000
,
0000
0000
1000
0000
,
0001
0000
1000
0000
,
0010
0000
0010
0000
,
0100
0000
0100
0000
,
0000
0000
0001
0000
,
1000
0000
0010
0000
,
0000
0000
1000
0000
,
0100
0000
0001
0000
,
0000
0000
0100
0000
,
0010
0000
0100
0000
,
0001
0000
0001
0000
,
1000
0000
1000
0000
,
1001
0000
0000
0000
,
0000
0000
0000
0000
,
0010
0010
0010
0010
,
0010
0000
0000
0000
,
1000
1000
1000
0000
,
0002
0000
0003
0000
,
0100
0000
0001
0000
,
0010
0000
0001
0001
,
0001
0000
0100
0000
,
0020
0000
0030
0000
,
1000
0000
0100
0000
,
1000
0000
0010
0010
,
0010
0000
1000
0000
,
0100
0000
0001
0000
,
0010
0000
0001
0000
,
0100
0000
1000
0000
,
0010
0010
0010
0000
,
2000
0000
3000
0000
,
0100
0000
0010
0000
,
0001
0000
1000
1000
,
0000
0000
0010
0000
,
0100
0000
0010
0000
,
1000
0000
0100
0000
,
1000
0000
0001
0000
,
0000
0000
0010
0000
,
0001
0000
0010
0000
,
0100
0000
0010
0000
,
0001
0000
1000
0000
,
0000
0000
0010
0000
,
1000
0000
0100
0000
,
1000
0000
0010
0000
,
0100
0000
0001
0000
,
0000
0000
0010
0000
,
0100
0000
0010
0000
,
0001
0000
0100
0000
,
0001
0000
1000
0000
,
0001
0000
0100
0000
,
0020
0000
0030
0000
,
0000
0000
0000
0000
,
0000
0000
0000
0000
,
1000
1000
1000
0000
,
0200
0000
0300
0000
,
1000
0000
0001
0000
,
0010
0000
0100
0100
,
0100
0000
1000
0000
,
0010
0000
0001
0000
,
0100
0000
0001
0000
,
0010
0000
1000
0000
,
0001
0001
0001
0000
,
2000
0000
3000
0000
,
0010
0000
0100
0000
,
0010
0000
0010
0000
,
0110
0000
0000
0000
;

//---------------dance-single - ----------------
#NOTES:
     dance-single:
     :
     Easy:
     7:
     :
0000
0000
0000
0000
,
0000
0000
0000
0000
,
0000
0000
0000
0000
,
0000
0000
0000
0000
,
0000
0000
0000
0000
,
0000
0000
0000
0000
,
0000
0000
0000
0000
,
0000
0000
0000
0000
,
0000
0010
0001
0100
,
0010
1000
0001
0000
,
0000
0100
0010
1000
,
0100
1000
0001
0000
,
0000
1000
0001
1000
,
0010
0100
0001
0100
,
0020
0030
0200
0300
,
0002
0003
2000
3000
,
0000
0100
1000
0010
,
1000
0100
0001
0000
,
0000
0010
0001
1000
,
0001
0100
0010
0000
,
0000
1000
0100
1000
,
0100
0010
0001
0100
,
2000
3000
0020
0030
,
0200
0300
0002
0003
,
0020
0001
0001
0031
,
2000
0010
0010
3010
,
0100
0001
0100
0010
,
1000
0100
1000
0001
,
1001
1001
0020
0030
,
2000
0100
3001
0000
,
0010
0001
0010
0100
,
1000
0001
0110
0110
,
1001
1001
0200
0300
,
0002
1000
0013
0000
,
0001
0100
0001
0010
,
1000
0100
0110
0110
,
0001
0010
0001
0100
,
0010
1000
0001
0100
,
0010
1000
0010
0100
,
0001
0010
0001
1000
,
0110
0110
0002
0103
,
0020
1000
0031
0000
,
0010
1000
0010
0100
,
0001
0010
1001
1001
,
0000
0001
0010
0001
,
0100
0010
2000
3000
,
0100
0010
0002
0003
,
1000
0001
0200
0300
,
0000
0010
0100
0010
,
1000
0100
2000
3000
,
0001
0010
0002
0003
,
0100
0010
2000
3000
,
0001
0010
0001
0100
,
0010
0010
2000
3001
,
0010
0010
0002
0103
,
0010
0010
0200
0301
,
1000
0010
1000
0010
,
0100
0001
0100
0001
,
0010
0100
0010
0001
,
0100
0010
1000
0001
,
2000
3000
0020
0030
,
0200
0000
0000
0300
,
0001
0001
1000
1000
,
0001
1000
1001
0110
,
1001
1001
0020
1030
,
0200
0010
1000
0301
,
0100
0010
0100
1000
,
0010
0100
0110
1001
,
0001
0010
1000
0100
,
0010
0100
0001
1000
,
0100
0010
0100
1000
,
0001
0010
0001
1000
,
0110
0110
0002
1003
,
0200
1000
0310
0000
,
0100
0010
0001
0100
,
1000
0001
1001
0110
;

//---------------dance-single - ----------------
#NOTES:
     dance-single:
     :
     Medium:
     10:
     :
0000
0000
0000
0000
,
0000
0000
0000
0000
,
0000
0000
0000
0000
,
0000
0000
0000
0000
,
0000
0000
0000
0000
,
0000
0000
0000
0000
,
0000
0000
0000
0000
,
0000
0000
0000
0000
,
0010
0001
2000
0000
3200
0000
0320
0000
,
0032
0000
0203
0000
0301
1000
0100
0000
,
0100
0010
0002
0000
2003
0000
3020
0000
,
2030
0000
3200
0000
0310
0001
0010
0000
,
0001
0100
2000
0000
3002
0000
0023
0000
,
0032
0000
2003
0000
3100
0010
0001
0000
,
1000
0010
1000
0000
0001
0100
0001
0000
,
1000
0100
1000
0000
0001
0010
0001
0000
,
0100
0010
1000
0010
2000
0000
3002
0000
,
0023
0000
0230
0000
1300
0010
1000
0000
,
0001
0100
0010
1000
0002
0000
2003
0000
,
3100
0010
0001
0000
1000
0001
0100
0000
,
0010
1000
0002
0000
0023
0000
0230
0000
,
0320
0000
0032
0000
1003
0100
0001
0000
,
1000
0100
1000
0000
0001
0100
0001
0000
,
1000
0010
1000
0000
0001
0010
0001
0000
,
0100
1010
1001
0101
,
0000
0001
0010
0100
1000
0000
1100
0000
,
0010
0001
0010
0001
0010
0001
0010
0001
,
0100
0000
0001
1000
0001
0000
0100
0000
,
1001
0000
1001
0000
1000
0010
1000
0000
,
0001
0100
0001
0000
0110
0000
0000
0000
,
0001
1000
0001
0010
0000
0011
0000
0100
,
0010
1000
0010
1000
0001
0000
0001
0000
,
0101
0000
0101
0000
0010
0100
0010
0000
,
1000
0001
1000
0000
1100
0000
0000
0010
,
2000
0000
3100
0020
0000
0031
0100
0010
,
1000
0001
1000
0001
0100
0000
0110
0000
,
0010
1000
0200
0000
2300
0000
3001
0100
,
0010
1000
0100
0002
0000
0103
0010
0000
,
0001
0100
2000
0000
3020
0000
1030
0001
,
0100
0010
0000
2010
0000
3001
1000
0000
,
0110
0000
0110
0000
0001
0010
0001
0000
,
1000
0100
1000
0001
0000
0100
0010
0000
,
1000
0100
1000
0001
0000
0011
0000
0010
,
0001
0100
0010
1000
0100
0000
1001
0000
,
0000
1000
0010
0001
,
0100
0010
0100
0000
0002
0000
2003
0000
,
3100
1000
0100
0000
0020
0000
0032
0000
,
1003
0001
0100
0000
0020
0000
2030
0000
,
3000
0100
1000
0001
,
0010
0001
0010
0100
2000
0000
0000
0000
,
3010
1000
0100
0010
0002
0000
0000
0000
,
1003
0001
0100
0001
2000
0000
3002
0000
,
0103
0010
1000
0000
0001
0100
0010
0000
,
1000
0001
0100
0000
0102
0000
0013
0000
,
0001
1000
0100
0000
2100
0000
3010
0000
,
0100
0001
0010
0000
0120
0000
1030
0000
,
0010
0001
0200
0000
0320
0000
2030
0000
,
3100
0010
0100
0010
0002
0000
2003
0000
,
3010
1000
0010
1000
0002
0000
0203
0000
,
0301
0010
0100
0010
0002
0000
2003
0000
,
3020
0000
0230
0000
,
0302
0000
0000
0003
,
1000
0010
0100
0001
0000
0011
0000
0001
,
0010
0001
0100
0010
2000
0000
3001
0000
,
1100
0000
1100
0000
0010
1000
0001
0000
,
0010
0001
0100
0000
0010
1000
0000
0100
,
1000
0001
1000
0010
0000
0100
0001
0000
,
0010
0001
0010
0100
1000
0000
1100
0000
,
0001
0100
0020
0000
2030
0000
3100
1000
,
0010
1000
0100
0002
0000
0013
0200
0000
,
1300
0001
2000
0000
3020
0000
0130
0001
,
0010
0200
0000
0320
0000
0031
1000
0000
,
0011
0000
0011
0000
1000
0100
0010
0000
,
0001
0100
0001
1000
0000
0000
0000
0010
,
1000
0100
0010
0001
0000
0101
0000
0100
,
0010
1000
0001
1000
0010
0000
0110
0000
;

//---------------dance-single - ----------------
#NOTES:
     dance-single:
     :
     Hard:
     13:
     :
0000
0000
0000
0000
,
0000
0000
0000
0000
,
0000
0000
0000
0000
,
0000
0000
0000
0000
,
0000
0000
0000
0000
,
0000
0000
0000
0000
,
0000
0000
0000
0000
,
0000
0000
0000
0000
,
0010
1000
0100
0000
1000
0010
0001
0000
,
0100
0001
0010
0001
0100
0010
1000
0000
,
0001
0100
0010
0000
1000
0001
0100
0000
,
0001
0010
0100
0010
0100
1000
0001
0000
,
0100
0001
0010
0000
0001
0100
1000
0000
,
0010
1000
0001
1000
0010
1000
0100
0000
,
0010
0001
0100
0000
0001
0010
0100
0000
,
1000
0000
0001
0000
0100
0000
0000
0000
0010
0000
1000
0000
0001
0100
0001
0100
,
0001
0010
0001
0100
0010
1000
0100
0000
,
1000
0001
0010
0000
0001
0100
1000
0000
,
0010
1000
0100
1000
0100
0010
0001
0000
,
0100
0001
1000
0000
0001
0010
0100
0000
,
1000
0001
1000
0010
0100
0001
1000
0000
,
0010
1000
0001
0000
1000
0100
0010
0000
,
0001
0100
0010
0000
1000
0100
1000
0000
,
0010
1000
0100
0010
0001
0100
0001
1000
,
0100
1010
1001
0101
,
0010
0001
0100
0010
1000
0000
1100
0000
,
0001
0001
1000
1000
0010
0010
0100
0100
,
0110
0000
0100
0001
0010
0000
0011
0000
,
1001
0000
1001
0000
1000
0100
0001
0100
,
0010
0100
1000
0000
0001
0100
0010
0000
,
1000
0100
0001
1000
0010
0001
1000
0100
,
0001
0010
0100
1000
0100
0010
0001
0000
,
0101
0000
0101
0000
0001
0010
1000
0010
,
0001
0100
0010
0000
1000
0001
0000
1000
,
0010
0001
1000
0100
0001
1000
0010
0001
,
1000
0000
0100
0000
0010
0000
0001
0000
0010
0000
0100
0000
1000
0001
1000
0001
,
1000
0010
0110
0000
1001
0000
0010
1000
,
0100
1000
0010
0002
0000
0100
0103
0010
,
1000
0100
1100
0000
0011
0000
0100
0010
,
1000
0000
0001
0000
1000
0000
0200
0000
0000
0000
0010
0000
0310
0000
0001
0100
,
0001
0000
0011
0000
1000
0100
0001
0100
,
1000
0010
0100
1000
0100
0001
0010
0000
,
0001
0100
1000
0001
0010
1000
0001
0100
,
1000
0010
0100
0001
1001
0000
0110
0000
,
0000
0010
1000
0100
1000
0010
1000
0100
,
0001
0100
1000
0000
1020
0000
0230
0000
,
0301
1000
0100
0000
0021
0000
0230
0000
,
0310
0001
1000
0000
0102
0000
0203
0000
,
0310
1000
0100
0000
0100
0000
1000
0001
,
1000
0010
0100
0010
2000
0000
3002
0000
,
0013
0001
0010
0100
2000
0000
3002
0000
,
0103
0001
0100
0010
2000
0000
3001
0100
,
0000
0010
0100
0010
1000
0001
1000
0100
,
0001
0000
0100
0000
2000
0000
0000
0000
3010
0000
0100
0000
0001
1000
0001
1000
,
0001
0000
0010
0000
0100
0000
0000
0000
1000
0000
0001
0000
1000
0000
0010
0100
,
0010
0000
1000
0000
0001
0000
0000
0000
0010
0000
0100
0000
1000
0001
1000
0001
,
1000
0010
0200
0000
0302
0000
0013
0100
,
0001
0100
1000
0010
0100
0001
1000
0010
,
0100
1000
0100
0001
0010
1000
0010
0001
,
0100
0001
0010
1000
0010
0100
1000
0001
,
2002
0003
0020
3000
,
2000
0000
0000
0000
0000
0000
3030
0100
,
1000
0001
0100
0001
1000
0100
1000
0001
,
0100
0000
0010
0000
0100
0000
0010
0000
1000
0000
0001
0100
0001
0000
0000
0000
,
1010
0000
1010
0000
0001
1000
0010
0100
,
1000
0100
0001
0000
0010
0001
0010
0100
,
1000
0010
0001
1000
0100
0001
1000
0010
,
0001
0000
0100
0000
0010
0000
0100
0000
0001
0000
1000
0000
0010
1000
0010
1000
,
0010
0100
0001
0000
0011
0001
0100
0010
,
1000
0100
0010
0002
0000
0100
0103
0010
,
1000
0001
0100
0000
0010
1000
0010
0100
,
1000
0000
0100
0000
0001
0000
0020
0000
0000
0000
0100
0000
0130
0000
1000
0001
,
1000
0000
1100
0000
0001
0100
0010
0100
,
1000
0100
0001
0010
0000
0001
0100
1000
,
0010
1000
0100
0010
0001
0100
0010
1000
,
0001
0100
0010
1000
0100
0010
0100
0110
;
