#TITLE:Bitch;
#ARTIST:Meredith Brooks;
#BANNER:Bitch-bn.png;
#BACKGROUND:Bitch-bg.png;
#JACKET:Bitch-jacket.png;
#MUSIC:Bitch.ogg;
#SAMPLESTART:47.905;
#SAMPLELENGTH:20;
#DISPLAYBPM:95:98;
#BPMS:0=96.3,20=96,26=96.4,34=96.2,38=96.951,54=96.38,78=95.7,86=96.135,90=96.29,93=98,95=96.58,106=95,108=97,118=96.375,126=95.98,134=96.42,142=95.483,146=96.188,154=96.235,157=97.895,161=96.333,174=96.57,178=96.125,182=96.6,197=96.456,201=96.089;
#BGCHANGES:;

//---------------dance-single - ----------------
#NOTES:
     dance-single:
     :
     Beginner:
     3:
     :
0000
0000
0000
0000
,
0000
0000
0000
0000
,
0000
0000
0000
0000
,
0000
0000
0000
0000
,
0001
0000
0000
1000
,
1000
0000
0000
0000
,
0100
0000
0000
0010
,
0010
0000
0000
0000
,
0001
0000
1000
0000
,
0010
0000
0100
0000
,
0010
0000
1000
0000
,
0000
0000
0010
0000
,
0000
0100
0100
0000
,
0000
0000
1000
0000
,
0000
0001
0001
0000
,
0000
0000
0010
0000
,
0010
0000
0100
0000
,
0100
0000
1000
0000
,
1000
0000
0001
0001
,
0001
0000
1001
0000
,
0100
0000
0010
0000
,
1000
0000
0100
0000
,
0100
0000
0010
0000
,
0010
0000
1001
0000
,
0100
0000
0010
0010
,
0010
0000
1000
0000
,
0001
0000
1001
0000
,
0000
0000
0010
0000
,
1000
0000
0100
0000
,
1000
0000
0001
0001
,
0001
0001
0001
0000
,
0000
0000
0100
0000
,
0010
0000
1000
0000
,
0001
0000
0010
0000
,
0010
0000
0001
0000
,
1000
0000
1001
0000
,
0010
0000
1000
0000
,
0100
0000
0010
0000
,
0010
0000
0001
0001
,
0001
0000
1001
0000
,
0100
0000
1000
1000
,
1000
0000
0010
0000
,
0100
0000
1001
0000
,
0000
0010
0010
0000
,
0001
0000
0100
0100
,
0100
0000
0001
0001
,
0001
0000
1000
1000
,
1000
0000
1001
0000
,
0010
0000
1000
1000
,
1000
0000
0010
0010
,
0010
0010
0010
0000
,
0000
0000
1001
0000
;

//---------------dance-single - ----------------
#NOTES:
     dance-single:
     :
     Easy:
     7:
     :
0000
0000
0000
0000
,
0000
0000
0000
0000
,
0000
0000
0000
0000
,
0000
0000
0000
0000
,
0001
0100
0010
1000
,
1001
0010
1000
0100
,
1000
0010
0001
0100
,
0110
0001
0010
0100
,
1000
0001
1000
0010
,
0100
0001
0010
0110
,
1001
0001
0100
0020
,
0000
0030
1000
0001
,
0010
0001
1001
0010
,
1000
0100
0010
0100
,
1000
0001
0110
0001
,
0100
0010
1000
0100
,
0020
0030
0001
1000
,
0200
0300
1000
0010
,
1000
0001
0110
1001
,
0110
0001
1001
0010
,
1000
0100
0110
0010
,
0001
0100
0001
0010
,
2000
3000
0100
1000
,
0001
0100
0110
0001
,
0010
0000
1001
0100
,
1000
0010
1000
0100
,
0010
0001
0100
0010
,
0100
0001
0010
0001
,
2000
3000
0010
0100
,
0010
0100
1001
0110
,
0001
1000
0110
0000
,
1000
0001
1001
0010
,
0200
0300
0001
0010
,
2000
3000
0110
0000
,
0001
1000
0010
0010
,
0010
0110
1001
0010
,
1000
0100
0110
0001
,
0010
0100
0010
0001
,
2000
3000
0010
1000
,
0100
0001
1001
0010
,
0100
0000
0110
0001
,
0010
1000
0010
0100
,
0010
1000
0100
0010
,
0001
0110
1001
0010
,
1001
0010
1000
0100
,
0110
0001
0010
0010
,
0001
0001
1001
0110
,
1001
0010
1001
0100
,
0110
0000
1001
0100
,
1000
0010
1000
0100
,
0001
0010
0110
0001
,
1000
0110
1001
0000
;

//---------------dance-single - ----------------
#NOTES:
     dance-single:
     :
     Medium:
     10:
     :
0000
0000
0000
0000
,
0000
0000
0000
0000
,
0000
0000
0000
0000
,
0000
0000
0000
0000
,
0001
0000
0000
1000
0000
0000
0010
0000
0100
0000
0000
0000
0101
0000
0000
0000
,
1100
0000
0001
0100
0010
1000
0100
0010
,
0001
0000
0010
0100
1000
0000
1010
0000
,
0011
0000
0100
0001
1000
0001
0100
0000
,
0010
1000
0100
1000
0001
0100
0010
0000
,
1000
0100
1000
0001
0100
0000
0010
0100
,
0001
0000
0100
0000
0000
0010
0000
1000
0000
0000
0010
0000
0100
0000
0000
0000
,
0110
0000
1001
0000
0001
0010
0001
0100
,
1000
0000
1010
0000
0101
0000
0010
0001
,
1000
0001
1000
0100
0010
0001
0100
0010
,
1000
0000
1100
0000
0011
0000
0100
0001
,
0010
0001
0010
0100
1000
0010
1000
0001
,
0200
0000
0300
0000
0010
1000
0001
1000
,
0020
0000
0000
0000
0030
0000
0100
0001
0100
0000
0010
0000
1000
0000
0001
0000
,
0010
0100
1000
0000
0010
0100
0001
1000
,
0110
0000
0010
0100
1001
0000
0010
1000
,
0010
0100
0010
1000
0001
0000
1000
0100
,
0010
0100
1000
0100
0001
0100
0010
0100
,
2000
0000
3000
0001
0001
1000
0100
0010
,
0002
0000
0103
0010
1001
0000
0010
1000
,
0110
0000
0000
0010
0010
1000
0001
1000
,
0010
0100
0001
0100
0001
0010
0001
0010
,
0100
1000
0100
1000
0010
0100
0010
0000
,
1000
0100
0110
0000
1001
1000
0100
0010
,
0002
0000
0003
0000
0010
0001
0200
0000
,
0301
0010
0100
1000
1010
0000
0101
0000
,
1000
0010
0100
0001
0010
0001
1000
0000
,
0100
1000
0001
0000
0010
1000
0001
1000
,
0200
0000
0000
0000
0300
0000
1000
0000
0001
0000
0000
0010
0000
0000
0001
0000
,
2000
0000
3000
0100
2100
0000
3001
0100
,
0001
0010
0012
0000
1003
0001
0010
0100
,
0110
0000
0100
0010
1001
0000
0001
0010
,
0100
0010
0100
0010
0001
0000
1000
0010
,
0100
0010
0100
0010
1000
0100
0001
0100
,
2000
0000
3000
0010
0010
0100
0001
1000
,
0020
0000
1030
0100
1100
0000
0010
0001
,
0011
0000
0000
1000
1000
0010
0100
0010
,
1000
0100
0010
0001
0100
1000
0100
0001
,
0010
1000
0010
0001
0100
0001
0101
0000
,
1000
0010
0100
0001
1001
0000
0010
1000
,
1010
0000
0100
0001
0010
1000
0010
0001
,
0011
0000
0100
0010
0110
0000
0001
0010
,
0001
0100
0010
0100
1000
0100
0010
0100
,
1000
0100
0001
0010
1100
0000
0001
0100
,
0101
0000
0000
0001
0001
1000
0100
1000
,
0001
0100
0010
1000
0100
0010
0001
0100
,
0010
0000
1000
0000
0001
0100
0001
0000
0010
0000
0100
0000
1000
0000
0001
0000
,
0000
0100
0100
0000
1001
0000
0000
0000
;

//---------------dance-single - ----------------
#NOTES:
     dance-single:
     :
     Hard:
     12:
     :
0000
0000
0000
0000
,
0000
0000
0000
0000
,
0000
0000
0000
0000
,
0000
0000
0000
0000
,
0001
0000
1000
0100
0000
1000
0100
0000
0010
0000
0000
0000
0001
0000
1000
0000
,
0100
0000
0000
0000
0010
0000
0001
0000
1000
0000
0001
0100
0000
0010
0000
1000
,
0100
0000
1000
0010
0000
0100
0001
0000
0010
0000
0000
0000
0001
0000
1000
0000
,
0010
0000
0000
0000
0100
0000
0001
0010
0000
0001
0000
1000
0000
0100
0000
0000
,
1000
0001
0000
0010
0000
0001
0000
0100
0000
0010
0000
1000
0000
0100
0010
0000
,
0001
0100
0000
0010
0000
1000
0001
0000
0100
0000
0000
0000
0010
1000
0010
1000
,
0010
0000
0100
0001
0000
0001
1000
0000
0010
0000
1010
0000
0100
0000
0000
0000
,
0001
0000
1000
0000
0010
0000
0100
0001
0100
0000
0010
1000
0000
0100
0000
0010
,
0001
0100
0001
1000
0010
0000
0110
0010
,
1000
0100
1000
0001
0100
1000
0100
0001
,
0010
0000
0100
0000
1000
0000
0001
0000
0101
0000
0000
0000
0010
0000
1000
0001
,
0000
0010
0000
0001
0000
1000
0000
0000
0100
0000
0010
0000
1000
0000
0010
0000
,
0002
0100
0103
0000
0011
1000
0001
0010
,
2000
0000
0100
0000
3100
0000
1000
0010
1000
0000
0001
0100
0000
0001
0100
0000
,
0010
1000
0100
0000
1100
0110
0011
0110
,
1100
0000
0010
0100
1001
0000
1000
0010
,
0110
1000
0100
0001
0011
0000
0100
0010
,
1001
0010
1000
0100
1001
0100
1000
0010
,
0201
0010
0301
1000
1000
0100
0001
0100
,
1000
0010
1000
0000
0001
0000
0100
0000
0110
0000
0000
0000
0001
0000
1000
0000
,
1010
0100
0010
0001
0101
0010
1100
0010
,
0101
1000
0100
0001
1000
1000
0001
0001
,
0100
0000
0100
0000
0010
0000
0010
0000
1001
0000
0010
1000
0010
0000
0100
0001
,
0010
0001
0100
0000
0001
1000
0100
1000
0001
0000
0100
0000
1000
0000
0100
0000
,
0001
0010
0100
0010
1000
0010
0002
0000
,
0103
0010
1000
0001
0011
0100
1100
0010
,
1000
0000
0001
0000
0100
0000
0010
0000
1000
0000
0100
0000
0001
0000
0100
0010
,
0001
1000
0010
0000
0100
0000
0001
1000
0001
0000
0010
0000
0100
0000
1000
0000
,
0010
0100
0001
1000
0010
0100
0010
0001
,
0010
1000
0100
0010
0110
0001
0100
1000
,
0100
0000
0001
0000
0011
0000
0001
1000
0010
0000
0100
0001
0100
0001
0100
0001
,
1000
0000
0000
0000
0010
0100
0010
0000
1001
0000
0000
0000
0001
0000
0100
0000
,
1010
0001
0010
0100
1100
0000
0001
1000
,
0101
0010
1000
0100
0001
0100
1000
0010
,
0100
0001
0100
0000
0010
0000
1000
0000
0100
0000
0001
0000
0100
0000
0010
0000
,
0001
1000
0001
0100
0010
0000
1000
0000
0110
0000
0000
0000
0001
0000
0010
0000
,
0011
0100
1000
0001
0101
0010
1100
0010
,
0101
1000
0010
0100
0001
0001
1000
1000
,
0010
0000
0010
0000
0100
0000
0100
0000
0110
0000
0001
0000
1000
0000
0100
0010
,
0100
1000
0001
0000
0100
0000
0010
0000
1001
0000
0000
0000
1000
0000
0100
0000
,
0011
0100
0001
1000
1010
0001
0100
0010
,
0110
0001
0100
1000
1100
0000
0010
0100
,
0101
0010
0001
0100
1010
0101
0011
1100
,
1001
0110
0100
0010
1001
0000
0001
0010
,
0101
1000
0010
0100
0011
0100
1010
0100
,
0011
1000
0100
0001
0010
0001
0100
1000
,
0010
0000
0100
0000
0001
1000
0100
0010
0001
0000
0100
0000
0010
0000
1000
0100
,
0001
0100
1000
0000
0110
0000
0000
0000
1001
0000
0000
0000
0000
0000
0000
0000
;
