#TITLE:Big City Lights;
#SUBTITLE:;
#ARTIST:Big Idea;
#TITLETRANSLIT:;
#SUBTITLETRANSLIT:;
#ARTISTTRANSLIT:;
#GENRE:;
#CREDIT:;
#BANNER:Big City Lights-bn.png;
#BACKGROUND:Big City Lights-bg.png;
#LYRICSPATH:;
#CDTITLE:;
#MUSIC:Big City Lights.ogg;
#OFFSET:-0.041000;
#SAMPLESTART:51.209999;
#SAMPLELENGTH:20.000000;
#SELECTABLE:YES;
#BPMS:0.000000=150.000000
;
#STOPS:
;
#BGCHANGES:;
#KEYSOUNDS:;
#ATTACKS:;

//---------------dance-single - ----------------
#NOTES:
     dance-single:
     :
     Easy:
     3:
     0.135299,0.209558,0.043545,0.000000,0.000000,87.000000,83.000000,4.000000,0.000000,0.000000,0.000000,0.135299,0.209558,0.043545,0.000000,0.000000,87.000000,83.000000,4.000000,0.000000,0.000000,0.000000:
0000
0000
0000
0000
,
0000
0000
0000
0000
,
0000
0000
0000
0000
,
0000
0000
0000
0000
,
1001
0000
0001
0000
,
0100
0000
0100
0000
,
0010
0000
0010
0000
,
1000
0000
1000
0000
,
0001
0000
0010
0000
,
0100
0000
0000
0000
,
1000
0000
0010
0000
,
0100
0000
0000
0000
,
0001
0000
0100
0000
,
1000
0000
0000
0000
,
1000
0000
0100
0000
,
0001
0000
0000
0000
,
0010
0000
0100
0000
,
0100
0000
0000
0000
,
1000
0000
0000
0000
,
0001
0000
0000
0000
,
0100
0000
0010
0000
,
1000
0000
0001
0000
,
0010
0000
0100
0000
,
1000
0000
0000
0000
,
0100
0000
0010
0000
,
0001
0000
0010
0000
,
0100
0000
1000
0000
,
0001
0000
0000
0000
,
0100
0000
0100
0000
,
0010
0000
0000
0000
,
1000
0000
0001
0000
,
0010
0000
0100
0000
,
0010
0000
0001
0000
,
1000
0000
0000
0000
,
0010
0000
0100
0000
,
0001
0000
0000
0000
,
0010
0000
0010
0000
,
0100
0000
0100
0000
,
1000
0000
1000
0000
,
0001
0000
0001
0000
,
0100
0000
0010
0000
,
1000
0000
0000
0000
,
0001
0000
0000
0000
,
0000
0000
0000
0000
,
0100
0000
0100
0000
,
0010
0000
0010
0000
,
1000
0000
1000
0000
,
0001
0000
0001
0000
,
0010
0000
0000
0000
,
0100
0000
0000
0000
,
1000
0000
0000
0000
,
0001
0000
0000
0000
,
1001
0000
0001
0000
,
1000
0000
0001
0000
,
1001
0000
0010
0000
,
0110
0000
0000
0000
;

//---------------dance-single - ----------------
#NOTES:
     dance-single:
     :
     Medium:
     8:
     0.427669,0.478990,0.326584,0.076203,0.000000,275.000000,245.000000,30.000000,7.000000,0.000000,0.000000,0.427669,0.478990,0.326584,0.076203,0.000000,275.000000,245.000000,30.000000,7.000000,0.000000,0.000000:
0000
0000
0000
0000
,
0000
0000
0000
0000
,
0000
0000
0000
0000
,
0000
0000
0000
0000
,
0001
0000
0100
0010
1000
0000
0100
0000
,
0012
1000
0100
0013
,
1000
0000
0001
0100
0010
0000
1000
0000
,
2001
0100
0010
3001
,
0010
0000
1010
0000
0100
0001
0000
1000
,
0100
0000
0010
0000
0001
0000
0010
0100
,
1000
0000
0101
0000
0010
1000
0000
0010
,
0100
0000
0001
0000
1000
0000
0100
0010
,
0001
0000
1001
0000
0010
1000
0000
1000
,
0001
0000
0100
0000
0010
0000
1000
0001
,
0010
0000
1100
0000
0001
0010
0000
0010
,
0100
0000
1000
0001
1000
0001
1000
0000
,
0100
0000
0110
0000
0010
0001
0010
0100
,
0000
0000
0000
0000
,
0010
0100
0000
1000
0000
0001
0000
1001
,
0000
0000
1001
0000
0000
0110
0000
0000
,
1000
0000
0001
0100
0010
0000
1000
0010
,
0100
0000
0001
1000
0100
0000
0110
0000
,
0001
0000
1000
0100
0010
0000
0100
1000
,
0001
0000
0100
0010
1000
0001
1000
0000
,
1001
0000
0001
1000
0010
0000
0100
0001
,
0010
0000
0100
1000
0001
0000
0101
0000
,
0010
0000
1000
0001
1000
0000
0010
0100
,
0001
0000
0010
0100
1000
0001
1000
0000
,
0011
0000
0011
0000
1000
0100
0000
0011
,
0000
0220
0000
0330
,
1010
0000
0101
0000
1000
0001
1000
0000
,
1100
0000
0011
0000
0100
1000
0001
1000
,
0010
0000
0101
0000
0010
0000
1000
0100
,
0010
0000
0011
0000
1000
0001
0000
1000
,
0010
0000
0101
0000
1000
0000
0010
0100
,
0001
0000
1000
0000
0000
0010
0000
0001
,
2000
0000
3001
1000
0100
0000
1000
0001
,
0100
0000
0010
1000
0100
0000
0010
0001
,
0200
0000
0310
1000
0001
0000
0010
0001
,
1000
0000
0001
0100
1000
0000
0100
0001
,
0100
0000
1001
0000
0010
1000
0010
1000
,
0000
0000
0000
0000
,
1000
0001
0000
1000
0000
0100
0000
0010
,
0000
0000
0000
0000
0000
0000
0000
0001
,
1000
0100
0010
0001
,
0010
0100
0010
0000
0100
1000
0100
0000
,
1000
0001
0100
0010
,
1000
0010
0100
0000
0001
1000
0010
0000
,
0100
0001
0010
0000
0110
0000
0100
0000
,
1000
0001
0100
0000
1010
0000
0000
0100
,
0010
1000
0001
0000
1001
0000
0010
0000
,
0100
1000
0010
0000
2001
0000
0000
0000
,
3001
0010
0000
0100
0000
1000
0000
0001
,
0010
0100
0010
0000
0100
1000
0001
0000
,
0100
0010
0000
1000
0000
0001
0000
0000
,
0110
0000
0000
0000
;

//---------------dance-single - ----------------
#NOTES:
     dance-single:
     :
     Hard:
     12:
     0.527200,0.543150,0.185064,0.043545,0.168735,339.000000,322.000000,17.000000,4.000000,0.000000,0.000000,0.527200,0.543150,0.185064,0.043545,0.168735,339.000000,322.000000,17.000000,4.000000,0.000000,0.000000:
0000
0000
0000
0000
,
0000
0000
0000
0000
,
0000
0000
0000
0000
,
0000
0000
0000
0000
,
0001
1000
0100
0010
0001
1000
0001
0010
,
0100
1000
0001
0100
0010
1000
0001
0010
,
0100
0010
0001
1000
0001
0100
0010
1000
,
0001
1000
0100
0010
0001
0010
0100
1000
,
0001
0000
0100
0000
0010
0000
0000
1000
0000
0000
0001
0000
0010
0000
0100
0000
,
1000
0000
0010
0000
1000
0000
0000
0001
0000
0000
0000
0000
0000
0000
0010
0000
,
0100
0000
1000
0000
0001
0000
0000
0010
0000
0000
0001
0000
0100
0000
0010
0000
,
1000
0000
0001
0000
1000
0000
0000
0100
0000
0000
0000
0000
0000
0000
0010
0000
,
0100
0000
0010
0000
0001
0000
0000
1000
0000
0000
0010
0000
0100
0000
0001
0000
,
1000
0000
0100
0000
0010
0000
0000
0001
0000
0000
0000
0000
0000
0000
1000
0000
,
0100
0000
1000
0000
0001
0000
0000
0100
0000
0000
1000
0000
0100
0000
0001
0000
,
1000
0001
0010
0100
1000
0001
1000
0000
,
0001
0000
1001
0000
0010
0100
0001
0010
,
0000
0000
0000
0000
,
1100
1000
0000
0100
0000
0010
0000
0101
,
0000
0100
0101
0000
0000
1100
0000
0000
,
0101
0000
0010
0000
1000
0000
0001
0000
1000
0000
0000
0010
0000
0000
0100
0000
,
0001
0000
0010
0000
0100
0000
0010
0000
0001
0000
0000
0100
0000
0000
0100
0000
,
0001
0000
1000
0000
0100
0000
1000
0000
0010
0000
0000
0100
0000
0000
0001
0000
,
0010
0000
0100
0000
1000
0000
0100
0000
0010
0000
0000
0001
0000
0000
0001
0000
,
1001
0000
1000
0000
0100
0000
0010
0000
0001
0000
1000
0010
0000
0000
0100
0000
,
0001
0000
1000
0000
0001
0000
0010
0000
0100
0000
1000
0001
0000
0000
0001
0000
,
0100
0000
0010
0000
1000
0000
0001
0000
0010
0000
0001
0100
0000
0000
0010
0000
,
1000
0000
0100
0000
0010
0000
0100
0000
1000
0000
0001
1000
0000
0000
1000
0000
,
1001
0000
1001
0000
0010
0100
0000
1001
,
0000
0202
0000
0303
,
1000
0000
0000
0010
0000
0000
0100
0000
0001
0000
1000
0000
0001
0000
0000
0000
,
0010
0000
0000
0100
0000
0000
1000
0000
0100
0000
0010
0000
0001
0000
0010
0000
,
0100
0000
1000
0000
0001
0100
0000
0000
0010
0000
1000
0001
0000
0000
0010
0000
,
0100
0000
1000
0000
0001
1000
0000
0000
0010
0000
0000
0100
0000
0000
0001
1000
,
0000
0000
0100
0000
0010
0001
0000
0000
0010
0000
0100
1000
0000
0000
0001
0000
,
0100
0000
0010
0000
1000
0010
0000
0000
0000
0000
1001
0000
0000
0010
0000
0000
,
0200
0000
0301
1000
0100
1000
0001
0100
,
1000
0100
0010
1000
0001
1000
0100
1000
,
0020
0000
1030
0001
0100
1000
0100
0010
,
0100
0001
1000
0100
0010
0001
0010
0100
,
1000
0000
0101
0000
0010
1000
0100
0010
,
0000
0000
0000
0000
,
0011
1000
0000
0100
0000
0010
0000
0001
,
0000
0000
0000
0000
0000
0000
0000
0001
,
0010
1000
0001
0100
0010
1000
0100
0010
,
0001
0100
0010
0100
1000
0100
0010
0100
,
0100
1000
0100
0010
0001
1000
0001
0100
,
0100
0010
0001
0010
0100
0010
1000
0010
,
0010
0000
1000
0000
0001
0000
0000
0100
0000
0000
0010
0000
1000
0000
0010
0000
,
0100
0000
0001
0000
0010
0000
0000
0100
0000
0000
0000
0000
0000
0000
1000
0000
,
0001
0000
0010
0000
0001
0000
0000
1000
0000
0000
0010
0000
0100
0000
0001
0000
,
0010
0000
0100
0000
1000
0000
0000
0001
0000
0000
0000
0000
0000
0000
0000
0000
,
1010
0001
0000
0100
0000
0010
0000
1000
,
1001
0010
0010
1000
0100
0010
0000
0001
,
1100
0010
0000
0001
0000
1000
0000
0010
,
0100
0000
0001
0000
1000
0000
0000
0100
0000
0000
0000
0000
0000
0000
0000
0000
;

//---------------dance-double - ----------------
#NOTES:
     dance-double:
     :
     Easy:
     3:
     0.136854,0.179621,0.087089,0.000000,0.000000,88.000000,80.000000,8.000000,0.000000,0.000000,0.000000,0.136854,0.179621,0.087089,0.000000,0.000000,88.000000,80.000000,8.000000,0.000000,0.000000,0.000000:
00000000
00000000
00000000
00000000
,
00000000
00000000
00000000
00000000
,
00000000
00000000
00000000
00000000
,
00000000
00000000
00000000
00000000
,
00001001
00000000
00000001
00000000
,
00000001
00000000
00000000
00000000
,
00000100
00000000
00000100
00000000
,
00000100
00000000
00000000
00000000
,
00000010
00000000
00010000
00000000
,
00001000
00000000
00000000
00000000
,
00010000
00000000
00001000
00000000
,
00010000
00000000
00000000
00000000
,
00001000
00000000
01000000
00000000
,
00100000
00000000
00000000
00000000
,
10000000
00000000
00010000
00000000
,
10000000
00000000
00000000
00000000
,
10010000
00000000
00000000
00000000
,
00000000
00000000
00000000
00000000
,
00100000
00000000
01000000
00000000
,
00001000
00000000
00000000
00000000
,
00011000
00000000
00000000
00000000
,
00010000
00000000
00000100
00000000
,
00000010
00000000
00000000
00000000
,
00000010
00000000
00000001
00000000
,
00001000
00000000
00000000
00000000
,
00000010
00000000
00010000
00000000
,
00001000
00000000
00000000
00000000
,
00001000
00000000
01000000
00000000
,
00010000
00000000
00010000
00000000
,
00000000
10010000
00000000
00000000
,
10000000
00000000
00100000
00000000
,
00100000
00000000
01000000
00000000
,
00001000
00000000
00001000
00000000
,
00010000
00000000
00000100
00000000
,
00000010
00000000
00000001
00000000
,
00000001
00000000
00000100
00000000
,
00000110
00000000
00000000
00000000
,
00000010
00000000
00010000
00000000
,
00011000
00000000
00000000
00000000
,
00001000
00000000
00100000
00000000
,
10010000
00000000
00000000
00000000
,
00000000
00000000
00000000
00000000
,
10000000
00000000
01000000
00000000
,
00100000
00000000
00000000
00000000
,
00001000
00000000
00010000
00000000
,
00001000
00000000
00001000
00000000
,
00010000
00000000
00000010
00000000
,
00000100
00000000
00000100
00000000
,
00000001
00000000
00000010
00000000
,
00000100
00000000
00000000
00000000
,
00010000
00000000
00001000
00000000
,
00010000
00000000
00000000
00000000
,
00001000
00000000
01000000
00000000
,
00100000
00000000
00100000
00000000
,
10000000
00000000
01000000
00000000
,
01100000
00000000
00000000
00000000
;

//---------------dance-double - ----------------
#NOTES:
     dance-double:
     :
     Medium:
     9:
     0.410563,0.449053,0.228609,0.076203,0.000000,264.000000,243.000000,21.000000,7.000000,0.000000,0.000000,0.410563,0.449053,0.228609,0.076203,0.000000,264.000000,243.000000,21.000000,7.000000,0.000000,0.000000:
00000000
00000000
00000000
00000000
,
00000000
00000000
00000000
00000000
,
00000000
00000000
00000000
00000000
,
00000000
00000000
00000000
00000000
,
00000001
00000000
00000010
00000100
00001000
00000000
00000010
00000000
,
00000100
00001000
00010000
00001000
,
00100000
00000000
01000000
10000000
00010000
00000000
01000000
00000000
,
10000000
01000000
00010000
01000000
,
00001000
00000000
00011000
00000000
00010000
00000000
00000100
00001000
,
00000100
00000000
00000010
00000000
00000001
00000000
00000010
00000100
,
00010000
00000000
00011000
00000000
00001000
00000000
01000000
00010000
,
01000000
00000000
00100000
00000000
10000000
00000000
00010000
00100000
,
00001000
00000000
00011000
00000000
00010000
00000000
00000100
00001000
,
00000010
00000000
00001000
00000000
00000001
00000000
00000100
00001000
,
00010000
00000000
00011000
00000000
00001000
00000000
00100000
00010000
,
10000000
00000000
01000000
00100000
00001000
00100000
00001000
00000000
,
00010000
00000000
00011000
00000000
00001000
00010000
00000010
00001000
,
00000000
00000000
00000000
00000000
,
00000001
00000010
00000000
00001000
00000000
00010000
00000000
00011000
,
00000000
00000000
00011000
00000000
00000000
00110000
00000000
00000000
,
00010000
00000000
10000000
01000000
00100000
00000000
00010000
00000000
,
01000000
00000000
00001000
00010000
00001000
00000000
00010000
00000000
,
00000010
00000000
00001000
00000001
00000010
00000000
00000100
00000000
,
00010000
00000000
00001000
00100000
00010000
01000000
00100000
00000000
,
10010000
00000000
10000000
00100000
01000000
00000000
01000000
00001000
,
00010000
00000000
00001000
00010000
00001000
00000000
00011000
00000000
,
00010000
00000000
00000100
00000010
00000100
00000000
00000010
00000001
,
00001000
00000000
00001000
00000010
00010000
00001000
00010000
00000000
,
00011000
00000000
00011000
00000000
00001000
01000000
00000000
01010000
,
00000000
20200000
00000000
30300000
,
20000000
00000000
31000000
00000000
00100000
00010000
00100000
00000000
,
00002000
00000000
00013000
00000000
00000010
00001000
00000010
00001000
,
00000001
00000000
00000100
00000000
00001000
00000000
00010000
00001000
,
00010000
00000000
00011000
00000000
00001000
00100000
00000000
00100000
,
01000000
00000000
10000000
00000000
01000000
00000000
00010000
00001000
,
00010000
00000000
00000010
00000000
00000000
00001000
00000000
00000001
,
00000020
00000000
00000130
00010000
00001000
00000000
00100000
00010000
,
01000000
00000000
00100000
10000000
01000000
00000000
00100000
00001000
,
00020000
00000000
00030010
00001000
00000100
00000000
00000010
00000001
,
00001000
00000000
00000010
00000100
00000001
00000000
00000100
00001000
,
00010000
00000000
00011000
00000000
00001000
00100000
00010000
01000000
,
00000000
00000000
00000000
00000000
,
10000000
01000000
00000000
00010000
00000000
00100000
00000000
01000000
,
00000000
00000000
00000000
00000000
00000000
00000000
00000000
00100000
,
00001000
01000000
00100000
00010000
,
00001000
00010000
00001000
00000000
00010000
00000100
00010000
00000000
,
00000100
00000010
00001000
00000010
,
00000001
00000100
00001000
00000000
00000100
00001000
00010000
00000000
,
00001000
00100000
00010000
00000000
00110000
00000000
00100000
00000000
,
01000000
10000000
01000000
00000000
10010000
00000000
00000000
10000000
,
01000000
00100000
00001000
00000000
00011000
00000000
00010000
00000000
,
00000010
00010000
00001000
00000000
00002010
00000000
00000000
00000000
,
00003001
00000010
00000000
00000100
00000000
00010000
00000000
00001000
,
01000000
00010000
00100000
00000000
01000000
10000000
00100000
00000000
,
01000000
10000000
00000000
01000000
00000000
00001000
00000000
00000000
,
00011000
00000000
00000000
00000000
;

//---------------dance-double - ----------------
#NOTES:
     dance-double:
     :
     Hard:
     12:
     0.505427,0.512975,0.174178,0.054431,0.206836,325.000000,309.000000,16.000000,5.000000,0.000000,0.000000,0.505427,0.512975,0.174178,0.054431,0.206836,325.000000,309.000000,16.000000,5.000000,0.000000,0.000000:
00000000
00000000
00000000
00000000
,
00000000
00000000
00000000
00000000
,
00000000
00000000
00000000
00000000
,
00000000
00000000
00000000
00000000
,
10000000
01000000
00100000
00001000
01000000
00010000
00100000
00001000
,
00010000
00000100
00010000
00000010
00010000
00000100
00001000
00000010
,
00000001
00000010
00001000
00000001
00000100
00001000
00010000
00100000
,
10000000
01000000
00100000
01000000
00010000
01000000
00100000
00001000
,
00010000
00000000
00000100
00000000
00001000
00000000
00000000
00000001
00000000
00000000
00000100
00000000
00000010
00000000
00001000
00000000
,
00000100
00000000
00010000
00000000
00001000
00000000
00000000
00100000
00000000
00000000
00000000
00000000
00000000
00000000
10000000
00000000
,
00100000
00000000
00010000
00000000
10000000
00000000
00000000
00100000
00000000
00000000
10000000
00000000
00100000
00000000
01000000
00000000
,
00001000
00000000
00010000
00000000
00001000
00000000
00000000
00010000
00000000
00000000
00000000
00000000
00000000
00000000
00000010
00000000
,
00001000
00000000
00000100
00000000
00000001
00000000
00000000
00000100
00000000
00000000
00000010
00000000
00001000
00000000
00010000
00000000
,
00001000
00000000
00100000
00000000
00010000
00000000
00000000
01000000
00000000
00000000
00000000
00000000
00000000
00000000
10000000
00000000
,
01000000
00000000
00100000
00000000
10000000
00000000
00000000
00010000
00000000
00000000
01000000
00000000
00100000
00000000
00010000
00000000
,
00001000
00000100
00000010
00001000
00000001
00000010
00000100
00000000
,
00010000
00000000
00011000
00000000
00001000
01000000
00100000
00010000
,
00000000
00000000
00000000
00000000
,
10100000
01000000
00000000
00010000
00000000
00100000
00000000
00012000
,
00000000
00003000
00011000
00000000
00000000
00001010
00000000
00000000
,
00000101
00000000
00000001
00000000
00000000
00000100
00000000
00000000
00000010
00000000
00000000
00010000
00000000
00000000
00001000
00000000
,
00100000
00000000
00010000
00000000
00000000
00100000
00000000
00000000
10000000
00000000
00000000
00100000
00000000
00000000
00010000
00000000
,
01000000
00000000
00100000
00000000
00000000
00010000
00000000
00000000
00001000
00000000
00000000
00010000
00000000
00000000
00000100
00000000
,
00000010
00000000
00000001
00000000
00000000
00001000
00000000
00000000
00000100
00000000
00000000
00000001
00000000
00000000
00000100
00000000
,
00010000
00000000
00001000
00000000
00000000
01000000
00000000
00000000
00100000
00000000
00000000
10000000
00000000
00000000
00100000
00000000
,
10000000
00000000
00010000
00000000
00000000
10000000
00000000
00000000
01000000
00000000
00000000
00010000
00000000
00000000
00001000
00000000
,
00000010
00000000
00000001
00000000
00000000
00001000
00000000
00000000
00000010
00000000
00000000
00000100
00000000
00000000
00000001
00000000
,
00000100
00000000
00001000
00000000
00000000
00010000
00000000
00000000
00001000
00000000
00100000
00000000
00000000
00000000
01000000
00000000
,
01100000
00000000
01100000
00000000
10000000
01000000
00000000
01100000
,
00000000
00202000
00000000
00303000
,
00001000
00000000
00000000
00010000
00000000
00000000
00000100
00000000
00000010
00000000
00001000
00000000
00000010
00000000
00000000
00000000
,
00000001
00000000
00000000
00000010
00000000
00000000
00001000
00000000
00010000
00000000
00100000
00000000
10000000
00000000
00010000
00000000
,
01000000
00000000
00001000
00000000
00010000
00001000
00000000
00000000
00010000
00000000
00000100
00001000
00000000
00000000
00000001
00000000
,
00000100
00000000
00001000
00000000
00000100
00001000
00000000
00000000
00010000
00000000
00000000
00100000
00000000
00000000
10000000
00010000
,
00000000
00000000
00100000
00000000
10000000
00100000
00000000
00000000
00001000
00000000
00100000
00001000
00000000
00000000
00010000
00000000
,
00000010
00000000
00001000
00000000
00000001
00001000
00000000
00000000
00000000
00000000
00000101
00000000
00000000
00000010
00000000
00000000
,
00002000
00000000
00003100
00000001
00000100
00010000
00001000
00010000
,
00100000
10000000
00010000
10000000
01000000
00010000
00001000
00010000
,
02000000
00000000
03010000
00001000
00000010
00001000
00000010
00000001
,
00001000
00000010
00000100
00000001
00000100
00001000
00010000
00100000
,
10000000
00000000
01010000
00000000
00100000
10000000
01000000
00100000
,
00000000
00000000
00000000
00000000
,
00110000
00100000
00000000
00001000
00000000
00010000
00000000
00000010
,
00000000
00000000
00000000
00000000
00000000
00000000
00000000
00000001
,
00000010
00001000
00000100
00000010
00001000
00010000
01000000
10000000
,
00100000
01000000
00100000
00010000
00100000
10000000
00100000
00010000
,
00001000
00000100
00000010
00001000
00000001
00000010
00000100
00010000
,
00001000
00100000
00001000
00010000
00001000
01000000
00001000
00010000
,
00100000
00000000
10000000
00000000
00010000
00000000
00000000
10000000
00000000
00000000
01000000
00000000
00100000
00000000
00010000
00000000
,
00100000
00000000
00001000
00000000
00010000
00000000
00000000
00000100
00000000
00000000
00000000
00000000
00000000
00000000
00000001
00000000
,
00000100
00000000
00001000
00000000
00000010
00000000
00000000
00000100
00000000
00000000
00001000
00000000
00010000
00000000
00100000
00000000
,
10000000
00000000
00100000
00000000
00010000
00000000
00000000
00100000
00000000
00000000
00000000
00000000
00000000
00000000
00000000
00000000
,
10100000
10000000
00000000
01000000
00000000
00010000
00000000
00001000
,
00011000
00010000
00000100
00000010
00000001
00000010
00000000
00000100
,
00010100
00010000
00000000
00001000
00000000
01000000
00000000
00100000
,
10000000
00000000
00010000
00000000
00100000
00000000
00000000
10000000
00000000
00000000
00000000
00000000
00000000
00000000
00000000
00000000
;

//---------------dance-single - ----------------
#NOTES:
     dance-single:
     :
     Beginner:
     1:
     0.080868,0.119747,0.043545,0.000000,0.000000,52.000000,48.000000,4.000000,0.000000,0.000000,0.000000,0.080868,0.119747,0.043545,0.000000,0.000000,52.000000,48.000000,4.000000,0.000000,0.000000,0.000000:
0000
0000
0000
0000
,
0000
0000
0000
0000
,
0000
0000
0000
0000
,
0000
0000
0000
0000
,
1001
0000
0000
0000
,
0000
0000
0000
0000
,
0110
0000
0000
0000
,
0000
0000
0000
0000
,
0001
0000
0000
0000
,
0000
0000
0000
0000
,
1000
0000
0000
0000
,
0000
0000
0000
0000
,
0100
0000
0000
0000
,
0000
0000
0000
0000
,
0010
0000
0000
0000
,
0000
0000
0000
0000
,
0001
0000
0000
0000
,
0001
0000
0000
0000
,
1000
0000
0000
0000
,
0000
0000
0000
0000
,
0010
0000
0000
0000
,
0010
0000
0000
0000
,
0100
0000
0100
0000
,
0001
0000
0000
0000
,
0010
0000
0000
0000
,
0010
0000
0000
0000
,
0100
0000
0100
0000
,
1000
0000
0000
0000
,
0001
0000
0000
0000
,
0000
0000
0000
0000
,
0100
0000
0000
0000
,
0010
0000
0000
0000
,
1000
0000
0000
0000
,
0100
0000
0000
0000
,
1000
0000
0000
0000
,
0001
0000
0000
0000
,
0100
0000
0000
0000
,
0010
0000
0000
0000
,
1000
0000
0000
0000
,
0001
0000
0000
0000
,
1001
0000
0000
0000
,
0000
0000
0000
0000
,
0110
0000
0000
0000
,
0000
0000
0000
0000
,
0001
0000
0000
0000
,
0010
0000
0000
0000
,
0100
0000
0100
0000
,
1000
0000
0000
0000
,
0010
0000
0000
0000
,
0100
0000
0000
0000
,
0001
0000
0001
0000
,
1000
0000
0000
0000
,
0100
0000
0100
0000
,
0100
0000
0000
0000
,
0010
0000
0010
0000
,
0010
0000
0000
0000
;

//---------------dance-single - ----------------
#NOTES:
     dance-single:
     :
     Challenge:
     16:
     0.825791,0.905250,0.391901,0.108861,1.001524,531.000000,495.000000,36.000000,10.000000,0.000000,0.000000,0.825791,0.905250,0.391901,0.108861,1.001524,531.000000,495.000000,36.000000,10.000000,0.000000,0.000000:
// measure 0
0000
0000
0000
0000
,  // measure 1
0000
0000
0000
0000
,  // measure 2
0000
0000
0000
0000
,  // measure 3
0000
0000
0000
0000
,  // measure 4
0001
0010
1000
0100
0010
0100
1000
0010
,  // measure 5
0001
1000
0100
0001
0010
0100
0010
0001
,  // measure 6
0100
1000
0010
0100
0001
0010
1000
0100
,  // measure 7
0010
1000
0100
0001
0100
1000
0010
0100
,  // measure 8
0001
0000
0010
0100
1000
0001
0000
0100
0000
0001
0010
0100
1000
0001
1000
0001
,  // measure 9
0100
0000
0010
1000
0010
0100
0000
0001
0000
0000
0000
0000
0000
0001
0010
0100
,  // measure 10
1000
0000
0010
0100
0001
1000
0000
0100
0000
1000
0001
0010
0100
1000
0100
1000
,  // measure 11
0001
0000
0100
0010
1000
0001
0000
0010
0000
0000
0000
0000
0000
0100
1000
0010
,  // measure 12
1000
0000
0100
0010
0001
0100
0000
0010
0000
1000
0001
1000
0100
0010
0100
0010
,  // measure 13
0001
0000
0100
0010
1000
0100
0000
0010
0000
0000
0000
0000
0000
0001
1000
0001
,  // measure 14
0010
0000
0100
0010
0100
1000
0000
0001
0000
1000
0001
0010
0001
0100
0010
1000
,  // measure 15
0100
0000
0010
0001
1000
0001
0000
0100
0000
0000
0000
0000
0000
0010
1000
0000
,  // measure 16
1100
0000
0000
0001
1000
0000
0001
0000
0010
0000
0100
0000
1000
0000
0001
0000
,  // measure 17
0011
0000
0000
1100
0000
0000
0001
1000
0000
1000
0010
0100
0001
0000
1000
0000
,  // measure 18
0110
1001
0000
1100
0000
0101
0000
1010
,  // measure 19
0001
0100
1001
0000
0010
0101
1000
0000
,  // measure 20
0001
0000
0010
0000
0001
0100
0000
0100
0010
0000
0010
1000
0000
1000
0001
0000
,  // measure 21
1000
0000
0100
0000
1000
0010
0000
0010
0100
0000
0100
0001
0000
0001
0010
0000
,  // measure 22
0100
0000
1000
0000
0001
0010
0000
0010
0001
0000
0001
1000
0000
1000
0100
0000
,  // measure 23
1000
0000
0010
0000
0100
0001
0000
0001
0010
0000
0010
0100
0000
0100
1000
0000
,  // measure 24
0010
0000
1000
0000
0001
0010
0000
0010
0001
0000
1000
0100
0000
0100
1000
0000
,  // measure 25
0010
0000
0100
0000
0010
1000
0000
1000
0001
0000
0001
0100
0000
0100
0010
0000
,  // measure 26
1000
0100
0000
0100
0010
0000
0010
0001
0000
0001
1000
0000
0010
0000
0000
0100
,  // measure 27
0001
0000
0001
0000
0001
1000
0000
0010
1000
0000
0001
0000
0100
0010
0100
0010
,  // measure 28
1000
0000
0011
0000
1001
1100
0000
0101
,  // measure 29
0000
0220
0000
0300
,  // measure 30
0130
0000
0010
1000
0000
1000
0100
0010
0001
0000
0100
1000
0100
0010
0100
0001
,  // measure 31
0100
0010
1000
0001
0000
0001
0010
0100
1000
0001
1000
0001
0100
0010
0100
0010
,  // measure 32
1000
0000
0001
0100
0010
0100
0001
0000
1000
0100
0010
0001
0000
0000
1010
0000
,  // measure 33
0000
0000
0001
1000
0010
1000
0001
0000
0100
0010
1000
0100
0000
0000
1000
0001
,  // measure 34
0000
0000
0100
0010
1000
0010
0100
0000
0001
0010
0001
1000
0000
0000
0101
0000
,  // measure 35
0000
0000
0100
1000
0001
1000
0100
0000
0000
0000
0012
0000
0000
2003
0000
0000
,  // measure 36
3020
0000
0000
1030
0001
0010
0000
0100
0000
1000
0000
0001
1000
0010
1000
0100
,  // measure 37
0010
0000
0001
0100
0010
1000
0000
0100
0000
0000
0020
0000
0000
0032
0000
0000
,  // measure 38
0203
0000
0000
0310
1000
0100
0000
0001
0000
1000
0000
0010
0100
0001
0010
0100
,  // measure 39
1000
0000
0001
1000
0010
0100
0000
0001
0000
0000
0200
0000
0000
0302
0000
0000
,  // measure 40
1003
0000
0000
0010
0100
0000
0000
0000
0101
0000
0011
0000
0110
0000
1100
0000
,  // measure 41
0001
0010
0001
0010
0001
0010
0100
1000
0100
1000
0100
1000
0010
0100
0001
1000
,  // measure 42
0010
0110
0000
1001
0000
1010
0000
0101
,  // measure 43
1000
0000
0001
0010
0001
0000
0001
0010
0001
0000
0001
0010
0001
0000
1000
0000
,  // measure 44
0010
1000
0100
0001
0010
1000
0100
0010
,  // measure 45
1000
0100
0001
0010
0100
1000
0001
0100
,  // measure 46
0001
0010
1000
0001
0100
0010
0001
0100
,  // measure 47
1000
0100
0010
0001
1000
0100
0010
0001
0100
0000
0010
0000
1000
0000
0001
0000
,  // measure 48
0100
0000
0010
1000
0010
0100
0000
0001
0000
0010
0000
0001
0100
0001
1000
0100
,  // measure 49
0001
0000
0010
0001
0100
0010
0000
1000
0000
0000
0001
0000
0001
0100
1000
0000
,  // measure 50
0010
0000
1000
0001
1000
0010
0000
0100
0000
0001
0000
0010
0100
0010
0001
0100
,  // measure 51
1000
0000
0001
1000
0010
0100
0000
0001
1000
0010
0001
0100
0001
0010
1000
0100
,  // measure 52
0010
1001
0100
0101
0001
1010
1000
0011
,  // measure 53
1100
0000
0001
0000
0001
0000
1000
0100
0001
0100
1000
0000
0010
0100
0010
0000
,  // measure 54
1000
0110
0001
0011
0100
1010
0010
0101
,  // measure 55
1000
0000
0001
0010
0100
1000
0000
1100
0000
0000
0000
0000
0000
0000
0000
0000
;
