#TITLE:Benita;
#ARTIST:Gekidan Record;
#BANNER:Benita-bn.png;
#BACKGROUND:Benita-bg.png;
#JACKET:Benita-jacket.png;
#MUSIC:Benita.ogg;
#OFFSET:0.967;
#SAMPLESTART:63.507;
#SAMPLELENGTH:20;
#DISPLAYBPM:174;
#BPMS:0=174;
#STOPS:77.5=1.37;
#BGCHANGES:;

//---------------dance-single - ----------------
#NOTES:
     dance-single:
     :
     Beginner:
     5:
     :
0000
0000
0000
0000
,
0000
0000
0000
0000
,
0000
0000
0000
0000
,
0100
0000
0100
0000
,
0110
0000
0000
1000
,
1000
0000
0000
0000
,
1001
0000
0000
0000
,
0010
0000
0100
0000
,
0110
0000
0000
0000
,
1001
0000
0000
0000
,
0000
0010
0000
0010
,
0000
0100
0000
0100
,
0000
1000
0000
0001
,
0000
1000
0000
0001
,
0000
0100
0000
0010
,
0000
0100
0000
0001
,
0000
0010
0000
0100
,
1000
1000
0000
0000
,
0001
0000
1000
0000
,
0010
0010
0100
0000
,
0010
0000
1000
0000
,
0001
0001
0001
0000
,
1000
0000
0001
0000
,
0010
0020
0000
0030
,
0000
0001
0001
0000
,
0100
0000
0010
0000
,
1000
0000
0100
0000
,
1000
1000
0001
0000
,
0100
0000
0010
0000
,
0100
0100
0100
0000
,
0000
0001
0001
0000
,
0010
0010
0001
0000
,
0000
1000
0010
0000
,
1000
0000
0100
0000
,
0110
0000
1001
0000
,
0010
0010
0000
0100
,
0010
0000
1000
0000
,
0001
0000
0010
0001
,
0100
0000
0110
0000
,
1001
0000
0010
0000
,
1000
0000
0100
1000
,
0100
0000
0010
0000
,
0001
0000
0110
0000
,
1000
0000
0010
0000
,
0100
0000
0001
0000
,
1000
1001
0000
0000
,
0001
0010
0100
0000
,
1000
0010
0100
0000
,
0001
0001
1000
1000
,
0002
0000
0003
0000
,
0100
0100
0010
0000
,
1000
0000
0001
0000
,
0010
0010
0010
0010
,
0001
1000
0001
0000
,
0100
0000
0110
0000
,
1000
0000
1001
0000
,
0001
0001
0001
0000
,
1000
0100
0000
0000
,
0010
0010
0001
0100
,
0010
1000
1000
0000
,
0110
0000
1001
0000
,
1000
0000
0001
0000
,
0100
0010
1000
0000
,
0000
0001
0001
0001
,
0001
0000
1000
0000
,
0010
0000
0110
0000
,
1000
0000
0001
0000
,
1001
0000
0000
0100
,
0200
0000
0300
0000
,
0020
0000
0030
0000
,
1000
0000
0001
0000
,
0100
0110
0000
0000
,
1001
0000
0010
0000
,
1000
0000
0001
0000
,
0110
0000
0001
0000
,
1001
0000
0100
0000
,
0110
0000
0000
0000
,
1001
0000
0000
0000
;

//---------------dance-single - ----------------
#NOTES:
     dance-single:
     :
     Easy:
     8:
     :
0000
0000
0000
0000
,
0000
0000
0000
0000
,
0000
0000
0000
0000
,
0011
0000
1100
0000
,
1000
0002
0000
0000
0000
0000
0013
0100
,
1000
0001
0200
0000
0000
0310
0000
0000
,
0110
0001
1000
0001
,
1010
0100
0101
0010
,
1000
0001
0200
0000
0000
0000
0000
0000
,
0020
0000
0000
0330
,
1001
1000
0100
0010
,
0010
0001
1000
0000
0010
0000
0100
0000
,
0001
0010
0001
0100
,
1000
0010
1000
0000
0100
0000
0001
0000
,
0010
0110
0001
0100
,
1000
0000
0010
0000
1000
0001
0010
0000
,
0001
0101
1000
1100
,
0010
2000
0002
0000
0000
0000
3003
0000
,
0200
0000
0000
0320
0000
0000
2030
0000
,
3002
0000
0000
0003
0000
0000
1001
0000
0010
0000
0000
0000
0010
0000
0000
0000
,
0002
0003
1000
0010
,
1000
0001
1000
0100
,
0010
0001
1000
0010
,
0100
0001
0200
0000
0000
0000
0300
0000
,
0010
1000
0100
0001
,
1000
0010
1000
0001
,
0010
0000
0001
0100
0001
0000
0010
0000
,
0011
1100
0001
0001
,
0200
0300
0010
1000
,
0100
0000
0010
0000
0001
1000
0000
0000
,
0000
0000
0010
1000
0001
0000
1010
0000
,
1000
0000
0100
1000
0000
0002
0000
0000
,
0013
0001
0100
0010
,
0100
0001
1000
1100
,
0101
0010
1000
0001
,
1000
0100
0020
0000
0030
0000
0001
1000
,
0002
0000
0003
0100
0010
0000
0110
0000
,
1001
0000
0000
1000
0100
2000
0000
3001
,
0200
0000
0300
0010
1000
0000
1010
0000
,
1100
0000
0000
0001
2000
0000
3000
0010
,
2000
0000
3000
0100
0010
0000
0011
0000
,
0002
0000
0003
1000
0020
0000
0130
0010
,
0200
0000
0300
0001
2000
0000
3000
0000
,
1001
0000
1000
0100
1000
0000
0001
0000
,
0010
0001
0100
0000
1001
0000
0110
0000
,
1001
0000
2020
0000
0030
0000
3001
1000
,
0001
0010
0011
0000
,
1000
0100
1100
0000
,
0010
0010
1000
0001
,
0200
0002
0000
0300
0000
1003
0010
1000
,
0100
0000
0110
0000
0001
1000
0001
0100
,
0010
1000
0000
0010
1000
0000
0100
0010
,
0002
2003
3002
2003
,
3020
0000
0230
0000
0302
0000
1003
0100
,
0010
0001
0101
1010
,
0100
0000
1000
0000
0001
0200
0000
0000
,
0310
0010
1000
0001
,
1000
0100
2000
0000
3000
0001
2000
0000
,
3010
1000
0100
0000
1100
0000
0110
0000
,
0011
0100
1010
0001
,
0010
1001
0010
0110
,
2000
0000
0000
3002
0000
0103
0010
0000
,
1010
0101
2200
0000
,
0300
0001
0100
3001
,
1001
0000
1010
0001
,
2000
3000
1100
0000
,
0011
0000
0101
0100
,
0220
0000
0000
0000
0030
0000
0310
0100
,
0001
0001
0001
0001
,
1000
1000
1000
1000
,
0010
1000
0100
0001
,
0011
2020
0030
3001
,
0110
1000
0100
0001
,
0010
0001
0100
1000
,
1001
0010
1000
0001
,
0110
0100
0001
0010
,
2000
0000
0000
0000
0000
0000
3000
0020
,
0200
0000
0000
0000
,
0000
0000
0000
0000
,
0000
0000
0000
0000
,
0330
0000
0000
0000
;

//---------------dance-single - ----------------
#NOTES:
     dance-single:
     :
     Medium:
     13:
     :
0000
0000
0000
0000
,
0000
0000
0000
0000
,
0000
0000
0000
0000
,
1002
0013
2001
3100
,
1000
0001
2000
0000
0000
0000
0000
0000
0000
0000
0000
0000
3010
0000
0100
0000
,
0001
1000
0001
1000
0002
0000
0000
0000
0000
0000
0100
0000
0000
0103
0000
0000
,
0110
0000
0000
0000
0001
0000
0000
0000
1000
0000
0000
0100
0000
0000
1000
0000
,
2010
3100
0012
0103
,
0010
1000
0010
1000
0020
0000
0000
0000
0000
0000
0000
0000
0000
0000
0000
0000
,
0200
0000
0000
0330
,
1001
0000
0001
0000
0010
0000
0000
0001
0000
0000
0100
0000
0010
0000
0000
1000
,
0000
0000
0100
0000
1000
0000
0000
0001
0000
0000
0100
0000
0010
0000
0000
1000
,
0000
0000
0100
0000
0000
1000
0000
0001
0000
0010
0000
0000
0000
0001
0000
1000
,
0000
0000
0010
0000
1000
0000
0000
0100
0000
0000
1000
0000
0001
0000
0000
0100
,
0000
0000
0010
0000
0100
0000
0000
0001
0000
0000
0010
0000
0001
0000
0000
1000
,
0000
0000
0100
0000
0010
0000
0000
0001
0000
0100
0000
0000
0010
0000
0000
1000
,
0000
0000
0100
0000
0000
0010
0000
0100
0000
0000
1000
0000
0001
0000
0010
0000
,
0001
0100
0001
0100
0002
0000
0000
0000
0000
0000
0000
0000
0003
0000
0000
0000
,
0012
0000
1003
2100
0000
3001
0201
0000
,
0310
0000
0000
0100
0000
0000
0110
0000
0001
0000
0000
1000
0000
0000
0001
0000
,
2000
0000
3000
0100
0010
0001
0100
0000
,
0001
0000
0000
1000
0000
0000
0001
0000
0010
0000
0000
0100
0000
0000
1000
0000
,
0000
0000
0010
0000
1000
0000
0010
0000
0100
0000
0000
0001
0000
0000
1000
0000
,
0001
0010
0001
0010
0002
0000
0000
0000
0000
0000
0000
0000
0003
0000
0000
0000
,
0000
0000
0100
0000
0010
0000
0100
0000
0001
0000
0000
1000
0000
0000
0001
0000
,
0010
0000
0000
0001
0000
0000
1000
0000
0001
0000
0000
0000
0100
0000
0010
0000
,
0100
0000
0001
0000
1000
0000
0001
0000
0010
0000
0000
0001
0000
0000
0100
0000
,
1000
0000
0001
0000
0200
0000
0000
0000
0310
0000
0000
0100
0000
0000
0001
0000
,
2000
0000
3000
0100
1000
0001
0100
0000
,
0010
0000
0000
1000
0000
0000
0010
0000
1000
0001
2000
0000
0000
0000
0000
0000
,
3000
0000
0100
0000
1000
0000
0001
0000
0100
0000
0000
0010
0000
0000
1000
0000
,
0001
0010
0001
2000
0000
3001
0000
0000
,
0000
0000
0010
0000
0001
0000
1000
0000
0001
0000
0000
0100
0000
0000
0010
0000
,
1000
0000
0000
0100
0000
0000
1000
0000
0001
0000
0000
0000
0010
0000
0100
0000
,
1000
0000
0000
0010
0000
0000
1000
0000
0001
0000
0000
0010
0000
0000
0001
0000
,
0100
0000
0010
0000
2000
0000
0000
0000
3002
0000
0000
0000
0103
0000
0010
1000
,
0020
0000
0030
0001
0001
0100
1000
0010
,
0200
0000
0000
0000
0300
0000
0001
1000
0001
0000
0011
0000
0000
0000
0100
0000
,
0110
0000
0000
0000
0000
0000
1000
0000
1010
0000
0000
0010
0000
0000
0100
0000
,
0002
0000
0000
0000
0003
0000
1000
0100
1000
0000
0000
0000
1001
0000
0001
1000
,
0002
0000
0003
0100
0010
0100
0001
0010
,
0200
0000
0000
0000
0300
0000
1000
0001
2000
0000
0000
0000
3000
0000
0010
0100
,
0020
0000
1030
0100
0001
0000
0101
0000
,
0020
0000
0000
0000
0031
0000
0100
0000
1000
0000
0000
0010
0000
0000
1000
0000
,
0001
1000
0001
1000
0001
0000
0000
0000
0010
0000
0000
0001
0000
0000
0100
0000
,
0100
0000
0000
0000
2020
0000
0000
0000
0030
0000
0000
0000
3001
1000
0001
1000
,
0001
0000
0000
0010
0000
0000
0100
0000
1100
0000
0000
0000
0000
0000
0010
1000
,
0010
0000
0000
0100
0000
0000
0001
0000
0011
0000
0000
0000
0000
0000
1000
0001
,
1000
0000
0000
0010
0000
0000
0100
0000
0002
0000
0000
0000
2003
0000
0000
0000
,
3010
0200
0000
0301
1000
0000
0100
1000
,
0001
0000
0000
0001
0000
0000
0001
0000
0010
0000
1000
0000
0010
0000
0100
0000
,
0010
0010
0001
0100
2000
0000
3010
0100
,
0110
1001
1100
0101
,
1010
0000
0000
0000
0011
0000
1000
0001
1000
0000
0000
0000
0010
0100
0010
0100
,
0010
0000
0000
1000
0000
0000
0001
0000
1001
0000
1001
0000
0000
0000
0010
0100
,
0010
0000
0000
1000
0000
0000
0100
0000
0110
0000
0110
0000
0000
0000
0001
1000
,
0001
0000
0000
0010
0000
0000
0100
0000
2000
0000
0000
0000
3020
0000
0000
0000
,
1030
0100
0010
0001
0001
0100
0010
1000
,
0100
1000
0001
0010
0001
0100
0010
1000
,
1001
0000
1010
0000
1100
0000
0001
1000
,
0010
0000
0000
0010
0000
0000
0010
0000
1000
0000
0000
0001
0000
0000
1000
0000
,
0010
0000
0000
0100
0000
0000
0102
0000
0000
0000
1000
0000
1003
0000
0010
0100
,
0010
0000
0000
1000
0000
0000
0001
0000
0002
0000
0000
0000
0000
0000
0000
0000
,
0000
0203
0320
0130
,
0110
0000
0000
0000
0000
0000
0000
0000
1000
0000
0000
0001
0000
0000
1000
0000
,
0010
0000
0000
0100
0000
0000
0000
0000
0101
0000
0000
0000
0000
0000
0000
0000
,
1010
0000
0000
0000
0000
0000
0000
0000
0100
0000
0000
1000
0000
0000
0001
0000
,
2000
0000
0000
0200
0000
0000
0000
0000
3000
0000
0000
0000
1300
0000
0001
0000
,
0010
0000
0000
0011
0000
0000
1100
0000
0000
0000
0001
0000
1000
0000
0100
0000
,
0010
0000
0000
0011
0000
0000
1100
0000
0000
0000
0001
0000
1000
0000
0100
0000
,
1000
0000
0000
0010
0000
0000
1000
0000
0100
0000
0010
0000
0001
0000
0100
0000
,
1000
2020
0030
3001
,
0011
0000
0001
0100
1000
0000
0010
1000
,
0100
0000
0010
0001
1000
0010
1000
0001
,
0101
0000
0100
0010
1000
0000
0001
0100
,
0110
0000
0001
0010
0100
1000
0010
1000
,
2200
0000
0000
0000
0000
0000
0000
0000
0000
0000
3000
0000
0000
0000
1300
0002
,
2000
0000
0000
0000
,
0000
0000
0000
0000
,
0000
0000
0000
0000
,
3003
0000
0000
0000
;

//---------------dance-single - ----------------
#NOTES:
     dance-single:
     :
     Hard:
     16:
     :
0000
0000
0000
0000
,
0000
0000
0000
0000
,
0000
0000
0000
0000
,
1010
0000
0000
0001
0000
0000
0100
0000
0101
0000
0000
1000
0000
0000
0100
0000
,
1000
0002
2000
0000
0000
0000
0000
0000
3003
0000
0000
0000
0100
0010
0100
0010
,
0100
0000
1000
0020
2000
0000
0000
0000
3030
0000
0001
0000
0000
0100
0000
0000
,
0101
0000
0000
1000
0000
0000
0010
0000
1010
0000
0000
0001
0000
0000
0010
0000
,
1100
0000
0000
0001
0000
0000
0010
0000
0011
0000
0000
1000
0000
0000
0010
0000
,
1000
0100
1000
0100
1000
0000
0000
0000
0001
0010
0001
0010
0100
0010
0001
2000
,
0002
0000
0000
3003
,
1001
0000
0100
0000
0010
1000
0000
1000
0000
0000
0100
0000
0010
0001
0000
0001
,
0000
0000
1000
0000
0001
0100
0000
0100
0000
0010
1000
0000
1000
0001
0000
0010
,
0000
0000
0001
0000
0100
0010
0000
0100
0000
0010
1000
0000
0001
1000
0000
0001
,
0000
0010
0001
0000
0001
1000
0000
0010
0000
1000
0100
0000
0100
0010
0000
0001
,
0000
0000
0110
0000
1000
0010
0000
0100
0000
0000
0001
0000
0010
0100
0000
1000
,
0000
0000
1000
0000
0001
1000
0000
0010
0000
0100
0001
0000
0100
0010
0000
1000
,
0000
0000
0100
0000
0100
0010
0000
0001
0000
1000
0001
0000
0010
0000
0100
0000
,
1000
0010
1000
0010
1000
0000
0001
0100
0010
0000
1000
0100
0010
0000
0001
1000
,
0100
0000
0000
0010
0001
0000
1100
0000
0000
0010
1000
0000
0101
0000
0000
0100
,
0010
0000
0000
1001
0000
0000
0110
0000
0002
0000
0000
2003
0000
0000
3001
0100
,
0020
0000
0000
0000
0030
0000
1000
0100
1000
0000
0001
0000
0010
0000
0100
0000
,
1000
0000
0000
2000
0000
0000
3010
0000
0100
0000
0000
0001
0000
0000
0010
0000
,
0001
0000
0100
0000
1000
0000
0100
0000
0002
0000
0000
0023
0000
0000
0130
0000
,
1000
0001
0100
0001
1000
0000
0000
0010
0100
0000
0001
0100
0000
0010
1000
0010
,
0000
0100
0001
0000
0001
0000
1000
0000
0002
0000
0000
0023
0000
0000
0130
0000
,
1000
0000
0000
0000
0000
0000
0000
0000
0000
1000
0000
0000
0000
0000
0000
0000
0000
0000
1000
0000
0000
0100
0000
0000
0001
0000
0000
0000
0000
0000
0000
0000
0000
0000
0000
0000
0001
0000
0000
0000
0010
0000
0000
0000
0100
0000
0000
0000
,
1000
0000
0010
0000
0010
0000
0100
0000
0002
0000
0000
2003
0000
0000
3001
0000
,
0010
0000
0000
0000
0001
0000
0000
0000
0100
0000
0000
0000
2000
0000
0000
0000
0000
0000
0000
0000
0000
0000
0000
0000
3020
0000
0000
0000
0000
0000
0000
0000
0000
2030
0000
0000
0000
0000
0000
0000
0000
0000
3001
0000
0000
0000
0000
0000
,
0200
0000
0300
0001
0001
1000
0100
0010
,
0001
0000
0000
1000
0000
0000
0010
0000
0100
0001
1000
0000
0010
0000
0100
0010
,
0000
1000
0001
0000
0001
0000
0010
0000
0100
0000
0000
0010
0000
0000
0001
0000
,
1000
0000
0000
0000
0010
0000
0000
0000
0100
0000
0000
0000
0001
0000
0000
0000
0000
0000
0011
0000
0000
0000
0000
0000
0000
0000
0000
0000
0000
0000
1100
0000
0000
0000
0000
0000
0001
0000
0000
0000
0000
0000
1000
0000
0000
0100
0000
0000
,
0000
1000
0001
0000
0010
0000
0001
0000
0200
0000
0000
0320
0000
0000
1030
0000
,
1001
0000
0000
0000
0000
0000
0000
0000
0000
0010
0000
0000
0000
0000
0000
0000
0000
0000
0100
0000
0000
0000
0000
0000
0101
0000
0000
0000
0000
0000
0000
0000
0000
0000
0000
0000
0100
0000
0000
0000
0010
0000
0000
0000
1000
0000
0000
0000
,
0001
0000
0000
0010
0000
0000
1000
0000
1000
0000
0000
0100
0000
0000
0010
0000
,
0001
0100
0010
0100
0001
0000
1000
0000
0110
0000
0000
0000
0010
1000
0010
1000
,
0010
0000
0000
0100
0001
0000
1000
0000
1000
0000
0100
0000
1000
0000
0001
0000
,
0010
0000
0000
0001
0100
0000
0010
0000
1000
0000
0101
0000
0000
0000
0010
1000
,
0001
0000
0010
0001
0000
0001
0100
0000
0010
0000
1000
0100
0000
0100
0010
0000
,
0011
0000
0000
0001
0100
0000
1000
0010
1000
0000
0000
0000
0110
0000
0001
0010
,
1000
0000
0100
1000
0000
1000
0001
0000
0020
0000
0032
0000
2003
0000
3020
0000
,
0130
0000
0001
0010
0000
0000
0001
0100
1000
0000
0000
0010
0100
0000
0001
1000
,
0001
0000
0000
0000
0000
0000
0000
0000
0000
0010
0000
0000
0001
0000
0000
0000
0100
0000
0000
0000
0010
0000
0000
0000
1000
0000
0000
0000
0000
0000
0001
0000
0000
0100
0000
0000
0001
0000
0000
0000
0000
0000
1000
0000
0000
0100
0000
0000
,
1000
0000
0000
0000
0000
0000
0000
0000
0000
0010
0000
0000
0100
0000
0000
0000
0001
0000
0000
0000
0010
0000
0000
0000
2000
0000
0000
0000
0000
0000
0000
0000
0000
3002
0000
0000
0000
0000
0000
0000
0000
0000
0103
0000
0000
0000
0000
0000
,
0001
0010
0100
0010
0001
0000
0100
0010
1000
0000
0100
1000
0000
1000
0001
0000
,
0011
0000
0000
0000
2020
0000
0000
0000
0030
0000
0000
0000
3001
1000
0010
0100
,
0001
0000
0010
0100
0000
0010
0100
0000
1001
0000
1000
0000
1000
0000
0010
0000
,
0100
0000
0001
1000
0000
0001
1000
0000
0110
0000
0010
0000
0010
0000
0100
0001
,
1000
0000
0100
0010
0000
0010
0001
0000
0101
0000
0000
0000
1100
0000
0000
0000
,
0010
1000
0000
1000
0100
0000
0020
0000
0032
0000
0103
0000
0001
0000
1000
0001
,
1000
0000
0010
0100
0000
0010
1000
0000
0001
0000
0001
0000
0010
0000
0001
0000
,
0101
0000
0101
0000
1000
0100
0010
0100
0020
0000
0000
0000
0031
0000
0100
0010
,
0100
0000
0001
1000
0001
0000
1000
0100
1000
0000
0001
0100
0001
0000
1000
0010
,
2000
0000
0000
0000
3001
0010
0100
1000
0001
0000
0000
0000
0010
0001
0100
0001
,
1000
0000
0010
0100
0000
0100
0001
0000
0011
0000
1100
0000
0001
0000
0100
0000
,
0010
0000
1000
0001
0000
0001
0100
0000
0101
0000
1010
0000
1000
0000
0100
0010
,
0001
0000
0100
0010
0000
0100
0001
1000
0001
0000
0000
0000
0110
0000
0000
0000
,
1000
0000
0010
0000
0001
0000
0100
0000
0000
0020
0000
0000
2030
0000
0000
3001
0000
0000
1000
0000
0000
0100
0000
0000
,
0001
0010
1000
0010
0001
0000
0100
0000
0010
0000
1000
0000
0010
0000
0100
0000
,
0002
0000
0000
0000
0000
0000
0103
0000
1000
0000
0001
0000
0200
0000
0000
0000
0000
0000
0310
0000
0000
1000
0000
0000
,
1100
0000
0000
0110
0000
0000
0011
0000
0011
0000
0000
0110
0000
0000
1100
0000
,
1001
0000
0000
0010
1000
0000
0101
0000
0000
0001
0100
0000
1010
0000
1000
0001
,
1000
0000
0010
0100
0000
0010
0100
0000
0001
0000
0000
0010
0001
0000
1000
0010
,
1000
0000
0100
0010
0002
0000
0000
0000
2003
0000
0000
0000
3001
0000
0000
0000
,
0022
0000
0000
0000
0030
0000
0000
0000
0103
0000
0000
0010
0000
0000
1000
0000
,
0002
0000
0000
2000
0000
0000
3003
0000
1100
0000
0000
0000
0000
0000
0000
0000
,
0202
0000
0000
0000
0003
0000
0000
0000
0310
0000
0000
1000
0000
0000
0001
0000
,
0200
0000
0000
0020
0000
0000
0330
0000
1000
0100
1000
0100
0010
0000
0001
0000
,
1001
0000
0100
0010
0000
0100
0010
0000
0000
0100
0010
0000
0100
0000
0010
0000
,
1001
0000
0100
0010
0000
0100
0010
0000
0000
0100
0010
0000
0100
0000
0010
0000
,
1010
0000
0001
1000
0000
0001
2000
0000
3200
0000
0320
0000
0032
0000
0103
0000
,
0011
2020
0030
3001
,
1100
0000
0010
0100
0000
0100
0001
0000
0010
0001
0000
1000
0001
0000
0100
0000
,
0010
1000
0000
0010
0100
0000
0001
0000
1000
0100
0000
0010
0001
0000
0100
0000
,
0101
0000
1000
0010
0000
0100
0001
0000
0010
0100
0000
0010
0001
0000
1000
0000
,
0110
0000
0001
0010
0000
0010
0100
0000
1000
0010
0000
1000
0010
0000
0100
0000
,
0202
0000
0000
0000
0000
0000
0000
0000
0000
0000
0000
0000
0300
0000
1003
0002
,
0200
0000
0000
0000
,
0000
0000
0000
0000
,
0000
0000
0000
0000
,
0303
0000
0000
0000
;
