#TITLE:Because of You;
#ARTIST:Ne-Yo;
#BANNER:Because of You-bn.png;
#BACKGROUND:Because of You-bg.png;
#JACKET:Because of You-jacket.png;
#MUSIC:Because of You.ogg;
#SAMPLESTART:71.202;
#SAMPLELENGTH:20;
#DISPLAYBPM:110;
#BPMS:0=109.938;
#BGCHANGES:;

//---------------dance-single - ----------------
#NOTES:
     dance-single:
     :
     Beginner:
     2:
     :
0000
0000
0000
0000
,
0000
0000
0000
0000
,
0000
0000
0000
0000
,
0000
0000
0000
0000
,
0010
0000
0100
0000
,
0001
0000
1000
0000
,
0100
0000
1000
0000
,
0010
0000
0100
0000
,
0001
0000
0001
0000
,
0001
0000
1000
0000
,
0000
0000
0010
0010
,
0000
0000
0100
0100
,
0000
0001
0000
1000
,
0000
0010
0000
0100
,
0000
0000
0001
0001
,
0000
0000
1000
1000
,
0000
0010
0000
1000
,
0000
0001
0000
0100
,
0000
0000
0010
0000
,
1000
0000
0001
0000
,
0010
0000
0100
0000
,
1000
0000
0010
0000
,
0100
0000
0000
0000
,
0001
0000
0010
0000
,
1000
0000
1000
0000
,
1000
0000
0010
0000
,
1001
0000
0100
0000
,
0010
0000
1000
0000
,
0001
0000
0100
0000
,
0000
0000
0010
0000
,
0110
0000
0001
0000
,
0010
0000
0000
0000
,
1000
1000
0000
0000
,
0100
0000
1000
0000
,
0001
0000
0000
0000
,
0010
0000
0001
0000
,
0100
0000
0000
0000
,
0010
0000
1000
0000
,
0001
0000
0000
0000
,
0010
0000
0100
0000
,
1000
0000
1000
0000
,
1000
0000
0000
0000
,
0001
0000
0001
0000
,
0001
0000
0000
0000
,
0010
0000
0001
0000
,
0100
0000
0000
0000
,
0010
0000
1000
0000
,
0100
0000
0000
0000
,
1000
0000
0001
0000
,
0100
0000
0000
0000
,
0001
0000
1000
0000
,
0010
0000
0000
0000
,
0110
0000
0000
0000
,
1001
0000
0000
0000
,
0001
0000
1000
0000
,
0000
0000
0001
0000
,
1000
0000
0000
0000
;

//---------------dance-single - ----------------
#NOTES:
     dance-single:
     :
     Easy:
     6:
     :
0000
0000
0000
0000
,
0000
0000
0000
0000
,
0000
0000
0000
0000
,
0000
0000
0000
0000
,
0010
1000
0100
0001
,
0010
0100
1000
0001
,
0200
0300
0001
0010
,
2000
3000
0010
0100
,
0002
0003
2000
3000
,
0020
0030
1000
0002
,
0003
0010
0001
0100
,
0000
1000
0010
1000
,
0000
0100
0010
0001
,
0100
0001
0010
1000
,
0000
0100
1000
0001
,
0000
0100
0010
0100
,
0000
0001
0010
1000
,
0100
1000
0010
1000
,
0000
0001
0010
0100
,
1000
0010
1000
0010
,
0100
0001
0010
0100
,
1000
0010
1000
0001
,
1001
0000
0010
0100
,
0001
0010
0100
1000
,
1100
0000
0101
0000
,
1100
0001
0010
0100
,
1001
0000
0010
1000
,
0110
0000
0001
0010
,
0001
0100
0010
0020
,
0030
1000
0100
0001
,
1001
0000
0010
1000
,
0110
0000
0001
0010
,
0001
2000
3000
0100
,
1000
1000
0001
0001
,
2000
3020
0230
0302
,
0013
0010
0100
0100
,
0020
0230
2300
3002
,
0103
0100
0010
0010
,
0200
0302
2003
3020
,
1030
0100
0001
0010
,
0002
0003
2000
3000
,
0020
0100
1000
0130
,
0002
0003
2000
3000
,
0200
0000
0000
0300
,
2000
3000
0020
0030
,
0200
0001
0010
0301
,
0020
0030
0002
0003
,
2000
0001
0100
3010
,
0200
0300
0002
0003
,
2000
0010
0001
3001
,
0200
0300
0020
0030
,
0002
1000
0000
0013
,
0110
0001
0100
1000
,
1001
0010
1000
0100
,
0002
0010
1000
0013
,
0100
0000
0001
1000
,
0020
0000
0000
0000
,
0000
0000
0000
0000
,
0000
0000
0000
0000
,
0030
0000
0000
0000
;

//---------------dance-single - ----------------
#NOTES:
     dance-single:
     :
     Medium:
     9:
     :
0000
0000
0000
0000
,
0000
0000
0000
0000
,
0000
0000
0000
0000
,
0000
0000
0000
0000
,
0010
0100
0001
1000
0000
1000
0000
0000
,
0000
0000
0000
0001
0001
0010
0100
1000
,
0020
0000
0030
0100
0100
0001
1000
0010
,
2000
0000
3100
0020
0000
0000
0031
0100
,
0002
0000
0000
0000
0003
0000
0000
1000
0002
0000
0000
0000
0003
0000
0200
0000
,
0000
0000
0300
0001
0001
1000
0100
0010
,
0000
0000
0000
0000
1001
0000
0000
0000
0100
0000
0000
0010
1000
0000
0001
0000
,
0010
0000
0000
0000
0001
0000
0000
0000
0100
0000
0000
0010
1000
0000
0001
0000
,
1000
0000
0000
0000
0100
0000
0020
0000
0000
0000
0000
0031
0100
0000
0010
0000
,
1000
0000
0000
0000
0100
0000
0010
0000
0001
0000
0000
0010
0001
0000
1000
0000
,
0000
0000
0000
0000
0110
0000
0000
0000
0001
0000
0000
0010
0100
0000
1000
0000
,
0010
0000
0000
0000
1000
0000
0100
0000
1000
0000
0000
0001
0100
0000
0010
0000
,
0000
0000
0100
0000
0001
0000
2000
0000
0000
0000
0000
3010
0100
0000
0001
0000
,
0010
0000
0001
0100
0010
1000
0001
0000
,
0000
0010
0001
0100
0001
0010
0100
1000
,
0020
2030
3002
0203
,
0310
1000
0100
0000
0010
0001
0100
0000
,
0001
0010
0002
0000
0203
0000
0310
1000
,
0002
0000
0003
1000
1000
0001
0010
0100
,
2000
0000
0000
0000
3020
0000
0000
0000
0130
0000
0000
0001
0000
0000
1000
0000
,
0002
0100
0003
0100
0020
0000
1030
0001
,
0200
0000
0301
0010
0001
1000
0010
1000
,
1001
0000
0000
0000
0010
1000
0100
0010
,
0002
0000
0003
0100
0001
0010
0000
0022
,
0000
0030
1000
1003
0000
0010
0200
0000
,
0000
0000
0301
0100
0001
1000
0100
1000
,
1001
0000
0000
0010
0010
1000
0001
1000
,
0200
0000
1300
1100
0000
1000
0010
0002
,
0000
2003
0000
3020
0000
1030
0100
0010
,
0001
0000
0011
0000
1100
0000
0001
1000
,
0020
0000
2030
0000
3200
0000
1300
0001
,
0100
0000
0101
0000
1010
0000
0001
1000
,
0200
0000
0320
0000
0032
0000
1003
0100
,
0010
0000
0110
0000
1001
0000
0100
0010
,
2000
0000
3002
0000
0023
0000
0031
0100
,
1000
0000
0010
0100
0002
0000
1003
0010
,
2010
0000
3001
0000
0012
0000
1003
0020
,
0100
0000
0001
0000
1000
0000
0130
0001
,
0102
0000
1003
0000
2100
0000
3001
0200
,
1000
0010
1000
0301
,
0020
0000
0000
2030
0000
0000
0000
3200
,
0000
0001
0000
0010
0000
0301
0100
1000
,
0020
0000
0000
0230
0000
0000
0000
0302
,
0000
0010
0000
1000
0000
0103
0010
1000
,
0002
0000
1003
0010
2000
0000
3100
0010
,
0001
0000
0001
0100
0020
0000
2030
0000
,
3200
0000
1300
0001
0020
0000
0031
0100
,
0000
1000
1000
1000
0000
0010
0100
0020
,
1000
0000
0001
0000
1030
0100
0010
0001
,
0000
0100
0010
2000
0000
3001
0010
0200
,
0000
0000
0301
0100
1000
0010
0200
0000
,
0300
0000
0000
0001
0001
0010
0100
2000
,
0002
0000
0000
0000
,
0000
0000
0000
0000
,
0000
0000
0000
0000
,
3003
0000
0000
0000
;

//---------------dance-single - ----------------
#NOTES:
     dance-single:
     :
     Hard:
     12:
     :
0000
0000
0000
0000
,
0000
0000
0000
0000
,
0000
0000
0000
0000
,
0000
0000
0000
0000
,
0010
0100
0001
1000
0000
1000
0100
0000
,
1000
0010
0100
0001
0001
0010
0100
1000
,
0010
0000
0100
0001
0001
1000
0100
0010
,
0001
0000
0100
0010
0010
1000
0001
1000
,
1100
0000
0000
0000
0001
0000
0000
0100
0010
0000
1000
0000
0010
0000
0100
0000
,
0101
0000
0010
1000
1000
0100
0010
0001
,
0000
0000
0100
0000
0010
0000
0100
0000
0001
0000
1000
0010
1000
0000
0001
0000
,
0000
0000
0010
0000
0001
0000
0100
0000
0010
0000
1000
0001
2000
0000
0100
0000
,
3100
0000
0010
0000
0001
0000
0100
0000
0001
0000
0010
0100
0010
0000
0001
0000
,
0100
0000
0010
0000
1000
0000
0001
0000
1000
0000
0100
0010
0200
0000
1000
0000
,
1300
0000
0001
0000
0001
0000
0100
0000
0010
0000
1000
0100
1000
0000
0001
0000
,
0000
0000
0010
0000
0001
0000
1000
0000
0010
0000
0100
0001
0200
0000
0010
0000
,
0310
0000
1000
0000
0100
0000
0001
0000
0100
0000
0010
0001
0010
0000
0100
0000
,
1100
0000
0000
0000
0001
0000
0010
0000
0100
0000
1000
0001
2000
0000
0000
0000
,
3010
0100
0001
1000
0100
0010
1000
0001
,
0010
0010
0001
0001
0100
0100
1000
1000
,
0001
0100
0010
1000
0100
0010
0001
1000
,
0010
0001
0010
1000
0100
0001
0100
1000
,
0010
0000
0100
0000
0001
0000
1000
0000
1000
0000
0001
0010
0001
0000
0100
0000
,
0010
0000
1000
0000
0100
0000
0010
0000
0001
0000
0000
0100
0010
0000
1000
0000
,
0100
1000
0001
0000
0100
0000
0000
0000
0101
0000
0000
0001
0010
0000
0100
1000
,
0001
0000
0000
0000
0010
0000
0001
0000
0100
0010
1000
0000
0001
0000
0100
0000
,
1010
0000
0100
0000
0001
0000
0000
0000
0011
0000
0001
1000
0010
0000
0100
0000
,
0001
0000
0010
0000
0100
0000
1000
0000
1000
0000
0010
0100
0001
0000
1000
0000
,
0100
0000
0010
0000
0001
0000
0002
0000
0000
0000
1003
0010
1000
0000
0001
0000
,
0100
0000
0110
0001
0010
1000
0010
0001
,
1001
0010
1000
0100
0100
0010
0001
1000
,
0010
1000
0100
0010
0001
0100
0100
0010
,
1000
0000
0001
0000
0010
0001
0200
0000
0000
0000
0310
0000
1000
0000
0100
0000
,
1100
0000
0011
0000
1100
0010
0001
0100
,
2000
0010
3020
0100
0230
0001
0302
1000
,
1003
0000
0101
0000
1010
0001
0100
1000
,
0020
1000
2030
0001
3002
0100
0203
0010
,
0310
0000
0110
0000
1001
0100
1000
0010
,
0002
1000
2003
0010
3020
0100
0230
0001
,
0301
0000
0010
0000
0100
0000
1000
0010
1000
0000
0000
0001
0100
0000
0010
0000
,
1010
0000
0000
0001
0010
0000
0100
0000
0011
0000
0000
1000
0010
0000
0100
0000
,
0001
0010
1000
0010
0001
0100
0010
1000
,
0101
0000
0000
1000
0100
0000
0010
0000
1100
0000
0000
0001
0100
0000
0010
0000
,
1001
0000
0010
0000
1000
0100
0010
0001
,
0200
0001
0301
0010
2000
0100
3100
1000
,
0001
0000
0010
0000
0001
0000
0100
0000
1000
0010
1000
0000
0100
0000
0010
0000
,
0002
1000
1003
0100
0020
0001
0031
0100
,
0010
1000
0100
0001
0100
0010
0100
1000
,
0020
0100
0130
0001
2000
0010
3010
0100
,
0001
0010
1000
0010
0002
0100
0203
0000
,
0320
0000
1000
0000
1030
0000
0100
1000
0002
0000
0100
0000
0103
0000
0010
0000
,
1000
0100
1000
1000
0000
0001
0010
0100
,
1000
0000
0011
0000
0100
0010
1000
0001
,
0010
0001
0010
0100
0000
1000
0010
1000
,
0001
0000
0000
0000
1010
0000
0100
0010
2000
0000
0001
0000
3002
0000
0000
0000
,
0013
0000
0001
0100
0100
0010
1000
0002
,
0200
0000
0000
0000
,
0000
0000
0000
0000
,
0000
0000
0000
0000
,
0303
0000
0000
0000
;
