#VERSION:0.83;
#TITLE:Beautiful Soul;
#SUBTITLE:;
#ARTIST:Jesse McCartney;
#TITLETRANSLIT:;
#SUBTITLETRANSLIT:;
#ARTISTTRANSLIT:;
#GENRE:;
#ORIGIN:;
#TAGS:;
#CREDIT:;
#BANNER:Beautiful Soul-bn.png;
#BACKGROUND:Beautiful Soul-bg.png;
#PREVIEWVID:;
#JACKET:Beautiful Soul-jacket.png;
#CDIMAGE:;
#DISCIMAGE:;
#LYRICSPATH:;
#CDTITLE:;
#MUSIC:Beautiful Soul.ogg;
#OFFSET:0.000000;
#SAMPLESTART:100.313004;
#SAMPLELENGTH:20.000000;
#SELECTABLE:YES;
#DISPLAYBPM:90.000000;
#BPMS:0.000000=90.000000;
#STOPS:;
#DELAYS:;
#WARPS:;
#TIMESIGNATURES:0.000000=4=4;
#TICKCOUNTS:0.000000=4;
#COMBOS:0.000000=1;
#SPEEDS:0.000000=1.000000=0.000000=0;
#SCROLLS:0.000000=1.000000;
#FAKES:;
#LABELS:0.000000=Song Start;
#BGCHANGES:;
#KEYSOUNDS:;
#ATTACKS:
;

//---------------dance-single - ----------------
#NOTEDATA:;
#CHARTNAME:;
#CHARTHASH:2517871467:
#STEPSTYPE:dance-single;
#BANNER:;
#DESCRIPTION:;
#CHARTSTYLE:;
#DIFFICULTY:Beginner;
#METER:4;
#METERF:0.000000;
#RADARVALUES:0.113596,0.138030,0.037508,0.007502,0.000000,106.000000,101.000000,5.000000,1.000000,0.000000,0.000000,0.000000,0.000000,0.000000,0.113596,0.138030,0.037508,0.007502,0.000000,106.000000,101.000000,5.000000,1.000000,0.000000,0.000000,0.000000,0.000000,0.000000;
#CREDIT:;
#DISPLAYBPM:90.000000;
#NOTES:
0000
0000
0000
0000
,
0000
0000
0000
0000
,
0000
0000
0000
0000
,
0000
0000
0000
0000
,
0010
0010
0000
0000
,
1000
1000
0000
0000
,
0001
0001
0000
0000
,
0100
0100
0100
0000
,
1001
0000
1000
0000
,
0110
0000
0100
0100
,
0100
0000
0010
0000
,
1000
0000
0001
0001
,
0001
0000
0010
0000
,
0001
0000
0100
0100
,
0100
0000
0010
0000
,
1000
0000
0100
0100
,
0100
0000
1000
0000
,
0001
0001
0000
0000
,
1000
1000
0000
0000
,
0010
0010
0000
0000
,
0100
0100
0000
0000
,
0001
0001
0001
0000
,
1000
1000
1000
0000
,
0010
0010
0010
0000
,
0100
0100
0100
0000
,
0001
0001
0001
0002
,
0000
0000
0000
0000
,
0003
0000
0100
0100
,
0000
0000
0010
0010
,
0010
0000
0100
0000
,
1001
0000
1000
0000
,
0010
0000
0100
0000
,
0001
0001
0001
0000
,
1000
0000
0010
0000
,
0110
0000
0010
0000
,
1000
0000
0001
0000
,
0100
0100
0100
0000
,
0001
0000
0010
0000
,
0100
0100
0000
0000
,
1000
1000
0000
0000
,
0001
0001
0000
0000
,
0100
0100
0100
0000
,
0001
0001
0001
0000
,
1000
1000
1000
0000
,
0010
0010
0010
0000
,
0100
0100
0100
0000
,
1001
0000
0000
0000
;

//---------------dance-single - ----------------
#NOTEDATA:;
#CHARTNAME:;
#CHARTHASH:3460425854:
#STEPSTYPE:dance-single;
#BANNER:;
#DESCRIPTION:;
#CHARTSTYLE:;
#DIFFICULTY:Easy;
#METER:7;
#METERF:0.000000;
#RADARVALUES:0.189685,0.216048,0.142531,0.037508,0.090020,177.000000,158.000000,19.000000,5.000000,0.000000,0.000000,0.000000,0.000000,0.000000,0.189685,0.216048,0.142531,0.037508,0.090020,177.000000,158.000000,19.000000,5.000000,0.000000,0.000000,0.000000,0.000000,0.000000;
#CREDIT:;
#DISPLAYBPM:90.000000;
#NOTES:
0000
0000
0000
0000
,
0000
0000
0000
0000
,
0000
0000
0000
0000
,
0000
0000
0000
0000
,
0010
0000
0000
1000
0000
0000
0001
0000
0000
0000
0000
0000
0000
0000
0000
0000
,
1000
0000
0000
0010
0000
0000
0100
0000
0000
0000
0000
0000
0000
0000
0000
0000
,
0001
0000
0000
0010
0000
0000
0100
0000
0000
0000
0000
0000
0000
0000
0000
0000
,
1000
0001
0100
0110
,
1001
0000
0000
0000
0000
0000
0000
0010
0000
0010
0000
0000
0000
0000
0000
0000
,
0110
0000
0000
0000
0001
1000
0200
0000
,
0310
0000
0001
1000
0000
0000
0010
0100
,
0000
0000
0000
0000
0000
0000
0000
0000
0001
0000
0000
1000
0000
1000
0000
0000
,
0000
0000
1000
0100
0000
0000
0010
0001
,
0000
0000
0000
0000
0000
0000
0000
0000
0100
0000
0000
0010
0000
0010
0000
0000
,
0000
0000
1000
0001
0000
0000
0010
0100
,
0000
0000
0000
0000
1000
0010
0100
0002
,
0000
0013
0001
0100
,
1000
0010
0100
0000
0000
0001
1000
0000
,
0100
0000
0000
0010
0000
0000
0001
0000
0000
0000
0000
0000
0011
0000
0000
0000
,
0001
0000
0000
0100
0000
0000
1000
0000
0000
0000
0000
0000
1010
0000
0000
0000
,
1000
0000
0000
0001
0000
0000
0100
0000
0000
0000
0000
0000
0101
0000
0000
0000
,
0010
1000
0100
1100
,
0001
0000
0000
0010
0000
0000
0100
0000
0000
0000
0000
0000
0000
0000
0000
0000
,
1000
0000
0000
0001
0000
0000
0100
0000
0000
0000
0000
0000
0110
0000
0000
0000
,
0010
0000
0000
1000
0000
0000
0001
0000
0000
0000
0000
0000
0101
0000
0000
0000
,
0100
0001
0010
2001
,
0010
0001
0100
3100
,
1000
0010
0100
0001
,
0010
0001
1000
0100
,
0010
0000
0000
0010
0000
0000
0010
0000
0000
0000
0000
0000
0110
0000
0000
0000
,
1001
0100
1000
0010
,
1000
0001
1000
0100
,
0010
0001
0100
1000
,
0001
0000
0000
0001
0000
0000
0001
0000
0000
0000
0000
0000
0011
0000
0000
0000
,
1100
0010
0001
0100
,
1000
0001
1000
0100
,
1000
0010
0100
0001
,
1000
0000
0000
1000
0000
0000
1000
0000
0000
0000
0000
0000
1100
0000
0000
0000
,
0001
0000
0000
1000
0000
0000
0001
0000
0000
0000
0000
0000
0000
0000
0000
0000
,
0100
0000
0000
0010
0000
0000
0100
0000
0000
0000
0000
0000
0000
0000
0000
0000
,
0001
0000
0000
0010
0000
0000
0001
0000
0000
0000
0000
0000
0000
0000
0000
0000
,
1000
0010
0100
0101
,
0001
0000
0000
1000
0000
0000
0100
0000
0000
0000
0000
0000
0000
0000
0000
0000
,
1000
0000
0000
0010
0000
0000
0001
0000
0000
0000
0000
0000
0011
0000
0000
0000
,
0100
0000
0000
0010
0000
0000
1000
0000
0000
0000
0000
0000
0110
0000
0000
0000
,
0001
0010
1000
2002
,
0000
0000
0000
0000
,
0000
0000
0000
0000
,
3003
0000
0000
0000
;

//---------------dance-single - ----------------
#NOTEDATA:;
#CHARTNAME:;
#CHARTHASH:2581881245:
#STEPSTYPE:dance-single;
#BANNER:;
#DESCRIPTION:;
#CHARTSTYLE:;
#DIFFICULTY:Medium;
#METER:10;
#METERF:0.000000;
#RADARVALUES:0.324714,0.360079,0.210046,0.337574,0.281312,303.000000,275.000000,28.000000,45.000000,0.000000,0.000000,0.000000,0.000000,0.000000,0.324714,0.360079,0.210046,0.337574,0.281312,303.000000,275.000000,28.000000,45.000000,0.000000,0.000000,0.000000,0.000000,0.000000;
#CREDIT:;
#DISPLAYBPM:90.000000;
#NOTES:
0000
0000
0000
0000
,
0000
0000
0000
0000
,
0000
0000
0000
0000
,
0000
0000
0000
0000
0000
0010
0010
0010
,
2000
0000
0000
3002
0000
0000
0203
0000
0000
0000
0310
0000
0010
0000
0010
0000
,
2000
0000
0000
3200
0000
0000
0320
0000
0000
0000
0031
0000
0001
0000
0001
0000
,
0200
0000
0000
0302
0000
0000
0023
0000
0000
0000
0030
0000
0001
1000
0000
0000
,
0010
0000
0000
0100
0000
0000
0001
0000
0000
1000
0000
0000
0110
0000
0000
0000
,
1001
0000
1000
0000
0100
0000
0000
0010
0000
0010
0000
0001
1000
0000
0000
0000
,
1010
0000
0010
0000
1000
0000
0000
0101
0000
0001
1000
0000
0100
0000
0000
0000
,
0110
0000
0001
1000
0010
0000
1000
0100
,
1001
0000
0010
0000
0100
0000
0000
0000
0001
0000
1000
0010
0000
1000
0010
0000
,
1010
0000
0001
1000
0100
0000
0010
0001
,
0101
0000
0100
0000
0010
0000
0000
0000
1000
0000
0001
0100
0000
0001
0100
0000
,
0101
0000
0010
1000
0100
0000
0100
0010
,
0011
0000
0001
0000
1000
0000
0000
0020
0000
0000
0130
0000
0001
0000
1000
0000
,
1100
0000
0000
0000
1001
0000
0001
0000
0100
0000
0010
0000
1000
0000
0000
0001
,
1000
0100
0010
0000
0000
0001
0001
0001
,
2000
0000
0000
3002
0000
0000
0023
0000
0000
0000
0130
0000
0100
0000
0100
0000
,
2000
0000
0000
3020
0000
0000
0230
0000
0000
0000
0301
0000
0001
0000
0001
0000
,
0020
0000
0000
0032
0000
0000
0203
0000
0000
0000
0300
0000
0010
1000
0000
0000
,
0001
0000
0000
0010
0000
0000
0100
0000
0000
1000
0000
0000
1100
0000
0001
0000
,
0100
0000
0010
1000
0000
0010
1000
0000
0000
0000
0000
0000
0000
0000
0001
1000
,
0001
0000
0100
0010
0000
0100
0010
0000
0000
0000
1000
0000
1000
0000
1000
0000
,
0001
0000
1000
0100
0000
1000
0100
0000
0000
0000
0000
0000
0010
0001
0000
0000
,
1000
0000
0000
0001
0000
0000
0100
0000
0000
0010
0000
0000
2002
0000
0000
0000
,
0003
0000
0001
0000
0001
0000
0000
0000
3001
0100
0000
0110
0000
0110
0000
0000
,
0000
0000
0010
1000
0000
0010
0000
0000
0100
0001
0000
0011
0000
0011
0000
0000
,
0000
0000
0100
1000
0000
0100
0000
0000
1000
0001
0000
0101
0000
0101
0000
0000
,
0002
0000
0000
2003
0000
0000
3002
0000
0000
0000
0000
0000
0103
0010
0000
0000
,
1010
0000
0102
0000
0000
0000
1000
0000
1003
0001
0000
0200
0000
0000
0000
0000
,
0301
0010
0001
0010
0001
0000
0100
0000
0010
0000
1000
0000
0100
0000
0000
0000
,
1000
0100
0010
0001
1001
0100
0010
1000
,
0020
0000
0000
0230
0000
0000
0320
0000
0000
0000
0000
0000
1030
0001
0000
0000
,
0011
0000
2100
0000
0000
0000
0010
0000
3010
0100
0000
0002
0000
0000
0000
0000
,
1003
0010
1000
0010
1000
0000
0100
0000
0010
0000
0001
0000
0100
0000
0000
0000
,
0001
0010
0100
1000
1001
0010
0100
0001
,
0020
0000
0000
0032
0000
0000
2003
0000
0000
0000
3100
0000
0100
0000
0100
0000
,
2000
0000
0000
3020
0000
0000
0230
0000
0000
0000
0301
0000
0001
0000
0001
0000
,
0200
0000
0000
0302
0000
0000
2003
0000
0000
0000
3010
0000
0010
0000
0010
0000
,
2000
0000
0000
3002
0000
0000
0203
0000
0000
0000
0300
0000
0001
1000
0000
0000
,
0100
0000
0000
1000
0000
0000
0010
0000
0000
0001
0000
0000
0011
0000
0100
0000
,
1000
0000
0001
0100
0000
0001
0100
0000
0000
0000
0000
0000
0000
0000
0010
1000
,
0010
0000
1000
0001
0000
1000
0001
0000
0000
0000
0100
0000
0100
0000
0100
0000
,
0010
0000
1000
0100
0000
1000
0100
0000
0000
0000
0000
0000
1000
0001
0000
0000
,
1000
0000
0000
0010
0000
0000
0100
0000
0000
0001
0000
0000
2002
0000
0000
0000
,
0000
0000
0000
0000
,
0000
0000
0000
0000
,
3003
0000
0000
0000
;

//---------------dance-single - ----------------
#NOTEDATA:;
#CHARTNAME:;
#CHARTHASH:1557304533:
#STEPSTYPE:dance-single;
#BANNER:;
#DESCRIPTION:;
#CHARTSTYLE:;
#DIFFICULTY:Hard;
#METER:13;
#METERF:0.000000;
#RADARVALUES:0.486536,0.540119,0.270059,0.150033,0.671398,454.000000,418.000000,36.000000,20.000000,0.000000,0.000000,0.000000,0.000000,0.000000,0.486536,0.540119,0.270059,0.150033,0.671398,454.000000,418.000000,36.000000,20.000000,0.000000,0.000000,0.000000,0.000000,0.000000;
#CREDIT:;
#DISPLAYBPM:90.000000;
#NOTES:
// measure 0
0000
0000
0000
0000
,  // measure 1
0000
0000
0000
0000
,  // measure 2
0000
0000
0000
0000
,  // measure 3
0000
0000
0000
0000
0000
0000
0000
0000
0000
0000
0010
0100
0010
1000
0100
0010
,  // measure 4
0002
0000
0000
2003
0000
0000
3020
0000
0000
0000
1030
0001
0100
0000
0100
0000
,  // measure 5
0001
0010
0000
0001
0000
1000
0100
0000
0000
0000
0010
0001
1000
0000
1000
0000
,  // measure 6
1000
0000
0010
0100
0000
0100
0001
0000
0000
0000
0000
0000
0020
0001
0000
0000
,  // measure 7
0130
0000
0010
0002
0000
0000
1003
0010
0000
0100
0000
0000
0110
0000
0000
0000
,  // measure 8
1001
0000
1000
0100
1000
0000
0000
0011
0000
0011
0000
0001
0100
0000
0010
0000
,  // measure 9
1010
0000
0001
1000
0001
0000
0000
0200
0000
0301
1000
0000
0010
0000
0100
0000
,  // measure 10
0110
0000
0001
1000
0001
0000
0010
0100
0000
0100
1000
0000
0010
0000
0100
0000
,  // measure 11
0001
0000
1000
0010
1000
0000
0000
0001
0100
0000
0010
1000
0000
1000
0100
0000
,  // measure 12
1100
0000
0001
1000
0001
0000
0100
0010
0000
0010
1000
0000
0001
0000
0100
0000
,  // measure 13
0010
0000
1000
0001
1000
0000
0000
0100
0010
0000
0010
0001
0000
0001
1000
0000
,  // measure 14
0101
0000
0010
0100
0010
0000
1000
0001
0000
0001
0010
0000
0100
0000
1000
0000
,  // measure 15
0010
0000
1000
0001
1000
0000
0000
0101
0000
0001
0010
0001
0100
0000
0100
0000
,  // measure 16
1001
0000
1000
0100
1000
0001
0000
0010
0000
0001
0000
0100
0000
0010
1000
0001
,  // measure 17
1000
0000
0100
0000
0010
0000
0010
0002
0000
0000
1003
0001
1000
0100
0010
0001
,  // measure 18
0100
0000
0001
1000
0000
1000
0010
0000
0100
0000
0001
0010
0100
0000
0100
0000
,  // measure 19
0110
0000
0001
0100
0000
0010
1000
0000
0100
0000
0010
0001
1000
0000
1000
0000
,  // measure 20
1010
0000
0010
1000
0000
1000
0100
0000
0010
0001
0000
0001
0100
0010
1000
0000
,  // measure 21
0001
0000
1000
0200
0000
0000
1300
0010
0000
0001
0000
0000
0011
0000
0001
1000
,  // measure 22
0010
1000
0000
0100
0000
0010
0001
0000
0000
0100
0000
0010
1000
0000
0001
0010
,  // measure 23
0001
0100
0000
0010
0000
1000
0100
0000
0000
0000
0010
1000
0010
0100
0010
0001
,  // measure 24
0010
0000
0001
1000
0000
1000
0100
0000
0010
0001
0000
0001
1000
0010
0100
0000
,  // measure 25
0001
0000
1000
0020
0000
0000
0130
0001
0000
1000
0000
0000
2002
0000
0000
0003
,  // measure 26
0010
0000
3010
1000
0010
0100
0000
0100
0001
0010
0000
0001
0000
1000
0200
0000
,  // measure 27
0010
0000
0310
0001
1000
0010
0000
1000
0001
1000
0000
0010
0000
0100
0001
0000
,  // measure 28
0010
0000
0001
1000
0100
1000
0000
1000
0010
0100
0000
0010
0000
1000
0001
0000
,  // measure 29
1100
0000
0000
0110
0000
0000
0011
0000
0000
1000
0001
1000
0010
0100
0001
0000
,  // measure 30
0011
0000
1100
0000
0001
0000
1000
0000
0010
0100
0000
1010
0000
0001
1000
0000
,  // measure 31
0001
0100
1000
0100
0001
0010
1000
0010
0001
0100
0010
2000
0000
3010
0100
0000
,  // measure 32
0101
1100
0101
1100
0011
0100
0010
1000
,  // measure 33
0110
0000
0001
0100
0000
0010
2000
0000
0000
3001
1000
0001
0010
0100
1000
0000
,  // measure 34
1001
0000
0110
0000
0010
0000
1000
0000
0001
0100
0000
1010
0000
0001
1000
0000
,  // measure 35
0001
0100
1000
0100
0001
0010
1000
0010
0001
0100
0010
1000
0000
0100
0010
0000
,  // measure 36
0011
0000
1010
0000
0011
0000
1010
0000
0101
0000
1000
0000
0010
0000
0100
0001
,  // measure 37
1000
0000
0010
0100
0000
0010
0200
0000
0000
0000
0301
0010
0001
1000
0100
0010
,  // measure 38
0002
0000
0000
0203
0000
0000
0320
0000
0000
0000
1030
0001
1000
0000
0100
0000
,  // measure 39
0010
0001
0000
1000
0000
0001
0100
0000
0000
0000
0010
1000
0010
0000
0100
0000
,  // measure 40
0001
0000
1000
0010
0000
1000
0010
0000
0000
0000
0000
0000
0100
0001
0000
0000
,  // measure 41
0010
0000
0010
0001
0000
0001
0100
0010
0000
0010
1000
0000
1100
0000
0001
1000
,  // measure 42
0010
1000
0000
0100
0000
0010
0001
0000
1000
0010
0000
0100
0001
0000
0010
0001
,  // measure 43
1000
0001
0000
0100
0000
0010
1000
0000
0100
0000
0010
1000
0010
0100
0010
0001
,  // measure 44
0010
0100
0000
1000
0000
0001
0100
0010
0000
0010
1000
0000
0001
0100
0000
0000
,  // measure 45
0010
0000
0010
1000
0000
1000
0100
0010
0000
0010
0001
0000
2002
0000
0000
0000
,  // measure 46
0000
0000
0000
0000
,  // measure 47
0000
0000
0000
0000
,  // measure 48
3003
0000
0000
0000
;
