#TITLE:Beat Slow Down;
#ARTIST:The Acolyte;
#BANNER:Beat Slow Down.png;
#BACKGROUND:Beat Slow Down-bg.png;
#JACKET:Beat Slow Down-jacket.png;
#MUSIC:Beat Slow Down.ogg;
#SAMPLESTART:8.002;
#SAMPLELENGTH:20;
#DISPLAYBPM:150;
#BPMS:0=150;
#BGCHANGES:;

//---------------dance-single - ----------------
#NOTES:
     dance-single:
     :
     Beginner:
     2:
     :
0000
0000
0000
0000
,
0000
0000
0000
0000
,
0000
0000
0000
0000
,
0000
0000
0000
0000
,
0000
0000
0000
0000
,
0001
0000
0000
0000
,
0001
0000
0000
0000
,
1000
0000
0000
0000
,
1000
0000
0000
0000
,
0010
0000
0010
0000
,
0010
0000
0000
0000
,
0100
0000
0100
0000
,
0100
0000
0000
0000
,
0001
0000
0001
0000
,
0001
0000
0000
0000
,
1000
0000
1000
0000
,
1000
0000
0000
0000
,
0001
0000
0001
0000
,
0001
0000
0001
0000
,
1000
0000
1000
0000
,
1000
0000
1000
0000
,
0010
0000
0010
0000
,
0010
0000
0010
0000
,
0100
0000
0100
0000
,
0100
0000
0100
0000
,
0001
0000
0000
0000
,
0000
0000
1000
1000
,
1000
0000
0000
0000
,
0000
0000
0001
0001
,
0001
0000
0000
0000
,
0000
0000
0010
0010
,
0010
0000
0000
0000
,
0200
0000
0000
0300
,
0100
0100
0100
0000
,
0010
0010
0010
0000
,
0100
0100
0100
0000
,
0001
0001
0001
0000
,
1000
1000
1000
0000
,
0000
0000
0000
0000
,
0001
0001
0001
0000
,
2000
0000
0000
3000
,
1000
0000
0000
0000
,
1000
0000
0000
0000
,
1000
0000
0000
0000
,
0001
0000
0000
0000
,
0001
0000
0000
0000
,
0100
0000
0000
0000
,
0100
0000
0000
0000
,
0100
0000
0000
0000
,
0010
0010
0000
0010
,
0000
0010
0000
0010
,
0000
0010
0000
1000
,
0000
1000
0000
1000
,
1000
1000
0000
1000
,
0000
1000
0000
1000
,
1000
0000
0000
0000
,
0002
0000
0000
0003
;

//---------------dance-single - ----------------
#NOTES:
     dance-single:
     :
     Easy:
     5:
     :
0000
0000
0000
0000
,
0000
0000
0000
0000
,
0000
0000
0000
0000
,
0000
0000
0000
0000
,
0000
0000
0000
0000
,
0020
0000
0000
0030
,
2000
0000
0000
3000
,
0002
0000
0000
0003
,
0200
0000
0000
0300
,
0001
0000
0001
0000
,
1000
0000
1000
0000
,
0001
0000
0001
0000
,
1000
0000
1000
0000
,
0010
0000
0000
0000
,
0010
1000
0001
0100
,
0010
0000
0100
0000
,
0020
0000
0000
0030
,
1000
0000
0000
0000
,
0001
1000
0001
1000
,
0001
0000
0100
0000
,
0010
0100
0010
0100
,
0010
0000
1000
0000
,
0001
0000
0100
0000
,
0010
0000
1000
0000
,
0002
0000
0000
0003
,
1001
0000
0000
0000
,
0010
0000
0000
0000
,
0001
0000
0000
0000
,
0100
0000
0000
0000
,
1000
0000
0000
0000
,
0010
0000
0000
0000
,
0001
0000
0000
0000
,
2000
0000
0000
3000
,
0001
0000
0000
0000
,
0010
0010
0000
0000
,
0100
0100
0100
0000
,
0001
0001
0001
0001
,
1000
0001
1000
0001
,
0000
0000
0000
0000
,
0010
0100
0010
0010
,
2000
0000
0000
3000
,
1000
0000
1000
0000
,
0001
0000
0001
0000
,
0010
0000
0010
0000
,
0100
0000
0100
0000
,
1000
0000
1000
0000
,
0001
0000
0001
0000
,
0100
0000
0100
0000
,
0010
0000
0010
0000
,
1000
0001
1000
0000
,
0001
1000
0001
0000
,
0010
0100
0010
0000
,
0100
0010
0100
0000
,
1000
0001
1000
0001
,
0010
0100
0010
0100
,
1000
0001
1000
0001
,
2001
0000
0000
0000
,
3000
0000
0000
0000
;

//---------------dance-single - ----------------
#NOTES:
     dance-single:
     :
     Medium:
     8:
     :
0000
0000
0000
0000
,
0000
0000
0000
0000
,
0000
0000
0000
0000
,
0000
0000
0000
0000
,
0000
0000
0000
0000
,
0010
0100
0001
1000
,
0010
0100
0010
0110
,
0001
1000
0100
0010
,
2000
0002
0000
3003
,
0010
1000
0001
0000
,
1000
0001
0100
0000
,
0001
1000
0100
0010
,
0001
0001
1000
1000
,
0100
0000
0010
0010
,
1000
0100
0010
0001
,
0001
0100
0010
0000
,
2000
0000
0000
3000
,
0001
0100
0100
0001
,
0010
0100
0100
1000
,
0100
0000
0001
0001
,
1000
0001
1000
0010
,
0100
0100
0010
0010
,
0100
0010
0100
0010
,
1000
0001
1000
0001
,
0020
0200
0000
0330
,
0010
0000
0000
1000
0000
0000
0100
0000
,
0000
0001
0000
0000
0011
0000
0011
0000
,
0001
0000
0000
0100
0000
0000
1000
0000
,
0000
0010
0000
0000
1100
0000
1100
0000
,
1000
0000
0000
0001
0000
0000
0100
0000
,
0000
0010
0000
0000
0110
0000
1001
0000
,
0100
0000
0000
1000
0000
0000
0001
0000
,
2002
0000
0000
3003
,
0100
0001
1000
0000
0010
1000
0001
0000
,
0010
0001
0100
0000
1000
0100
0001
0000
,
1000
1000
0001
0001
,
1000
0001
1000
0001
1000
0001
1000
0000
,
0001
0100
0001
0100
0001
0100
0001
0000
,
0000
0000
0000
0000
,
1000
0100
1000
0100
1000
0100
1000
0000
,
0010
0000
0100
0000
1000
1000
1000
0000
,
0002
0100
0010
0103
,
0001
0100
0001
0000
1000
0100
1000
0000
,
2000
0100
0010
3100
,
1000
0100
1000
0000
0001
0100
0001
0000
,
0000
1000
0100
0010
,
0001
0000
0100
0000
0100
0010
0100
0010
,
0000
1000
0001
0000
0100
0000
0010
0000
,
1000
1000
0001
0001
,
1000
1100
0001
0011
,
1000
0000
1010
0000
0001
1000
0001
0000
,
0001
0101
1000
1010
,
0001
0000
0011
0000
1000
0001
1000
0000
,
0010
0100
0100
0010
,
1000
0000
1000
0000
0001
0010
0001
0000
,
1010
0101
1001
0110
,
2002
0000
0000
0000
,
3003
0000
0000
0000
;

//---------------dance-single - ----------------
#NOTES:
     dance-single:
     :
     Hard:
     12:
     :
0000
0000
0000
0000
,
0000
0000
0000
0000
,
0000
0000
0000
0000
,
0000
0000
0000
0000
,
0000
0000
0000
0000
,
0010
0001
0100
0010
,
0001
0000
1000
0000
0200
0010
0310
0000
,
1000
0000
0001
0000
0010
1000
0001
0000
,
0100
0000
0000
0010
0000
0000
1000
0000
0000
0000
0001
0000
1001
0000
0000
0000
,
0000
0000
0001
0000
0000
1000
0000
0000
0100
0000
0000
0010
0000
0000
0011
0000
,
0000
0000
0001
0000
0000
0100
0000
0000
0010
0000
0000
1000
0000
0000
1010
0000
,
0000
0000
0100
0000
0000
0001
0000
0000
0010
0000
0000
0100
0000
0000
1000
0000
,
0100
0000
0000
0010
0000
0000
0001
0000
0000
0100
0000
0000
0001
0000
1000
0000
,
0010
0100
0010
0000
0000
0001
0000
0000
0001
0000
0000
1000
0000
0100
0000
0000
,
1000
0000
0010
0000
0100
0000
0000
0001
0100
0000
0001
0000
0010
0000
0100
1000
,
0000
0000
0000
0010
0100
0000
0010
0000
0100
0000
0001
0000
1000
0000
0010
0000
,
0100
0001
1000
0100
0010
0100
1000
0001
,
1000
0100
1000
0100
0010
0001
0100
1000
,
0100
0001
0010
0001
0010
0001
0100
0001
,
0100
0010
1000
0010
1000
0100
0001
0100
,
1000
0100
1000
0010
1000
0100
1000
0010
,
0001
1000
0001
0000
1000
0001
1000
0000
,
0001
0100
1000
0100
0001
0100
1000
0000
,
0010
1000
0100
0000
0010
0001
0100
0000
,
0010
0100
0001
0010
0100
1000
0001
0000
,
1001
0000
0000
0011
0000
0000
1100
0000
,
0000
0110
0000
0000
0011
0000
1001
0000
,
1100
0000
0000
1010
0000
0000
0110
0000
,
0000
0101
0000
0000
1010
0000
0110
0000
,
0101
0000
0010
0002
0000
0103
0002
0000
,
0013
0100
1000
0000
1010
0000
1001
0000
,
0010
0000
0001
2000
0000
3100
2000
0000
,
3010
0100
0001
0100
1000
0100
0010
1000
,
0001
0100
0001
1000
0100
1000
0001
0100
,
0010
0100
0010
0001
1000
0001
1000
0000
,
1000
0100
1000
0001
0100
0001
1000
0100
,
0010
0100
0010
1000
0001
1000
0001
0000
,
0010
1000
0010
1000
0100
0001
0200
0000
,
0000
0000
0000
0300
,
0010
0001
0010
0001
0100
1000
0100
0000
,
0001
0100
1000
0100
1000
0001
0010
0001
,
0010
0000
1000
0000
0001
0000
0100
0000
0010
0000
0000
0000
0100
0010
0000
0000
,
0200
0000
1000
0000
0001
0000
1300
0001
,
0000
0000
0010
0000
0100
1000
0000
0001
0000
0000
1000
0000
0001
0100
0000
0010
,
0000
0000
0100
0000
0001
0000
1000
0010
0000
0000
0001
0000
0001
0000
0000
0000
,
0000
0000
0010
0000
0010
0000
0100
1000
0000
0000
0010
0000
1000
0000
0100
0000
,
1000
0000
0001
0000
1000
0100
0000
0000
0001
0000
0100
0000
1000
0000
0010
0000
,
0000
0000
0100
0000
0001
0000
0010
0100
0000
0000
1000
0100
1000
0100
0000
0000
,
0001
0000
0000
0010
0000
0000
0100
0000
0000
1000
0000
0000
0001
0000
1000
0000
,
0001
0100
0010
1000
0010
1000
0100
0010
,
0001
0010
0001
1000
0010
0100
0001
0000
,
0000
0001
0100
0001
0100
0010
1000
0010
,
1000
0001
0010
0001
0010
0100
1000
1000
,
0000
0001
0100
1000
0100
0001
1000
0001
,
1000
0100
0001
0100
1000
0001
1000
0001
,
0010
0100
0010
0100
1000
0001
1000
0001
,
1000
0100
0010
0001
0100
1000
0001
0000
;

//---------------dance-single - ----------------
#NOTES:
     dance-single:
     :
     Challenge:
     16:
     :
0000
0000
0000
0000
,
0000
0000
0000
0000
,
0000
0000
0000
0000
,
0000
0000
0000
0000
,
0000
0000
0000
0000
,
1000
0001
0000
0010
0000
0001
1000
0000
0010
0100
0000
0001
0000
0100
0010
0000
,
1000
0100
0000
0010
0000
0100
1000
0000
1001
0000
0110
0000
2002
0000
3003
0000
,
0010
0000
1000
0000
0001
0100
0000
0000
0011
0000
1100
0000
0022
0000
0033
0000
,
2000
0100
0000
0010
0000
0000
0001
0000
0000
0001
0000
0000
3100
0000
0010
0000
,
0001
0000
0100
0000
0010
1000
0000
0010
0100
0000
0001
0010
0000
0001
1000
0000
,
0100
0000
0010
0000
0001
1000
0010
1000
0001
0000
0010
0100
0000
0100
1000
0000
,
0010
0000
1000
0000
0100
0010
0000
0001
0100
0000
0001
1000
0000
0010
0100
0000
,
0001
0000
0100
0010
0000
1000
0001
0000
1000
0100
0000
0010
0001
0000
1000
0000
,
0001
0010
0100
0000
1000
0000
1100
0000
0000
0001
0000
1000
0000
0010
0200
0000
,
0000
0000
0001
0000
0301
1000
0000
0100
0000
1000
0010
0000
0010
0000
0100
0002
,
0100
0000
0000
0013
0001
0010
0100
1000
0010
0100
0001
2000
0000
0000
3001
1000
,
0010
0000
0100
0001
0000
0001
0100
0000
0010
1000
0000
1000
0001
0000
0010
0000
,
0100
0000
0001
0000
0100
1000
0010
1000
0001
0000
0010
0100
0000
1000
0001
0000
,
0100
0000
1000
0000
0100
0010
1000
0001
0100
0000
0001
0010
0000
0100
1000
0000
,
0010
1000
0000
1010
0000
1010
0000
0000
0001
0100
0000
0110
0000
0010
0100
0001
,
1000
0100
0001
0100
1000
0000
0200
0010
0000
0310
0001
0000
1001
0000
1001
0000
,
1010
0000
0000
0101
0000
0000
1000
0010
0000
0100
0001
0000
0010
0000
0100
0000
,
1000
0010
0000
0010
0100
0000
0100
0001
0000
0001
0010
0000
0100
1000
0100
2000
,
0000
0000
0001
0000
3001
0000
0010
0001
0000
0100
0000
0110
0000
0110
0000
0010
,
1000
0001
1000
0001
0000
0010
0001
0010
0100
1000
0001
0000
0100
0010
1000
0000
,
0001
0100
0001
0100
0000
0000
0010
1000
0010
1000
0000
0000
0001
0010
0001
0010
,
0000
0000
0100
1000
0100
1000
0000
0000
0001
1000
0100
0000
1000
0001
0100
0000
,
0010
1000
0010
1000
0000
0000
0100
1000
0100
1000
0000
0000
0001
0100
0001
0100
,
0000
0000
0001
0010
0001
0010
0000
0000
0001
1000
0100
0000
1100
0000
0000
0000
,
0010
1000
0010
1000
0000
0000
0001
0010
0001
0010
0000
0000
0001
0100
0001
0100
,
0000
0000
1000
0100
1000
0100
0000
0000
1000
0001
0100
0000
0001
1000
0100
0000
,
0010
0001
0010
0001
0000
0000
0001
1000
0001
1000
0000
0000
1000
0100
0000
0000
,
1000
0010
0100
0001
1000
0100
0010
0001
1000
0010
0100
0001
1000
0100
0010
0001
,
0100
0000
0000
0010
1000
0000
0100
0010
0000
0001
1000
0000
0001
0000
0100
0010
,
0000
0000
0010
1000
0001
1000
0001
0100
0010
1000
0100
0010
0001
0000
0000
0000
,
0011
0000
0000
0000
0100
0000
0010
1000
0010
0000
0100
0001
1000
0001
0010
0100
,
1000
0000
0001
0000
0010
0001
0000
0100
0010
1000
0010
0100
0001
0000
0000
0000
,
0011
0000
0100
0000
1010
0000
0100
0001
0000
0001
1000
0000
0010
1000
0100
0000
,
0000
0000
1000
0010
0100
0001
0000
0000
1000
0001
0100
0000
0001
1000
0100
0000
,
1100
0000
0010
0000
0101
0000
0010
1000
0000
1000
0001
0000
0010
0001
0100
0000
,
0001
0010
0001
1000
0000
1000
0010
1000
0100
0000
0000
0000
0100
0010
0000
0000
,
0010
0001
0100
0010
1000
0100
1000
0002
0000
0000
0000
0103
0010
1000
0000
0000
,
1100
0000
0110
0000
0011
0000
0000
0000
1001
0000
0000
0010
0001
0000
0200
0000
,
0000
0000
0010
0000
0310
1000
0000
0102
0000
0000
0010
0000
0013
0001
0000
2100
,
0000
0000
0010
0000
3010
0000
1000
0100
0000
0100
1000
0000
0002
0000
0000
0000
,
0000
0000
0010
0000
1003
0000
0100
0010
0000
0100
1000
0000
0001
0000
0001
0000
,
1000
0000
1000
0000
0010
0200
0000
0000
0001
0000
0301
0000
0101
0000
1001
0000
,
0000
0000
0010
0000
1000
0000
0100
0010
0000
0010
0001
0000
0001
1000
0000
1000
,
0100
0000
1000
0010
0000
0100
0001
0000
0010
0001
0000
1000
0100
0000
0000
0000
,
0110
0000
0001
0000
1000
0010
0000
0100
0001
0000
0010
0000
0001
1000
0000
0100
,
0010
0000
0001
0000
0001
0000
1000
0010
0000
1000
0100
0000
1010
0000
0000
0000
,
0100
0000
0001
0010
0001
0000
1000
0100
0000
1000
0010
0000
0100
0001
0000
0010
,
0001
0000
1000
0100
0000
0100
0001
0000
1000
0010
0000
0010
0001
0000
0100
0010
,
0000
0010
1000
0100
0001
0100
1000
0020
0000
0000
0000
0130
0001
0010
0001
0100
,
0010
0000
1010
0000
1100
0000
0000
0000
1001
0000
0001
0100
0010
0000
1000
0000
,
0101
0000
0010
0000
1100
0000
0010
0001
0000
0001
1000
0000
0010
0000
0100
0000
,
0001
0000
1000
0010
0000
1000
0010
0000
0100
0000
0000
0000
0100
0001
1000
0000
;

//---------------dance-double - ----------------
#NOTES:
     dance-double:
     :
     Easy:
     5:
     :
00000000
00000000
00000000
00000000
,
00000000
00000000
00000000
00000000
,
00000000
00000000
00000000
00000000
,
00000000
00000000
00000000
00000000
,
00000000
00000000
00000000
00000000
,
00000002
00000000
00000000
00000003
,
00002000
00000000
00000000
00003000
,
00000020
00000000
00000000
00000030
,
00000200
00000000
00000000
00000300
,
00001000
00000000
00001000
00000000
,
00010000
00000000
00010000
00000000
,
00100000
00000000
00100000
00000000
,
10000000
00000000
10000000
00000000
,
01000000
00000000
00000000
00000000
,
00010000
00001000
00010000
00000100
,
00000010
00000000
00000010
00000000
,
00000020
00000000
00000000
00000030
,
00000001
00000000
00000000
00000000
,
00001000
00000001
00001000
00000001
,
00001000
00000000
00010000
00000000
,
00001000
00010000
00001000
00010000
,
00001000
00000000
00100000
00000000
,
00010000
00000000
10000000
00000000
,
00010000
00000000
10000000
00000000
,
00020000
00000000
00000000
00030000
,
10010000
00000000
00000000
00000000
,
01000000
00000000
00000000
00000000
,
00010000
00000000
00000000
00000000
,
00001000
00000000
00000000
00000000
,
00000100
00000000
00000000
00000000
,
00000001
00000000
00000000
00000000
,
00001000
00000000
00000000
00000000
,
00020000
00000000
00000000
00030000
,
00001000
00000000
00000000
00000000
,
00100000
00010000
00000000
00000000
,
10000000
01000000
10000000
00000000
,
00100000
00001000
00010000
00001000
,
00010000
00000010
00000100
00000010
,
00000000
00000000
00000000
00000000
,
00001000
00000001
00000010
00000010
,
00002000
00000000
00000000
00003000
,
00010000
00000000
00010000
00000000
,
00001000
00000000
00001000
00000000
,
00100000
00000000
00100000
00000000
,
10000000
00000000
10000000
00000000
,
01000000
00000000
01000000
00000000
,
00010000
00000000
00010000
00000000
,
00001000
00000000
00001000
00000000
,
00000100
00000000
00000100
00000000
,
00000001
00001000
00000001
00000000
,
00000010
00000100
00000010
00000000
,
00010000
00001000
00010000
00000000
,
00001000
00010000
00001000
00000000
,
00100000
00010000
00100000
00000000
,
00100000
01000000
00100000
00000000
,
00010000
00001000
00010000
00000100
,
00000120
00000000
00000000
00000030
;

//---------------dance-double - ----------------
#NOTES:
     dance-double:
     :
     Medium:
     8:
     :
00000000
00000000
00000000
00000000
,
00000000
00000000
00000000
00000000
,
00000000
00000000
00000000
00000000
,
00000000
00000000
00000000
00000000
,
00000000
00000000
00000000
00000000
,
00100000
10000000
00010000
01000000
,
00001000
00010000
00001000
00011000
,
00000010
00001000
00000001
00000100
,
00000020
00000200
00000000
00000330
,
00000010
00000001
00001000
00000000
,
00001000
00100000
00010000
00000000
,
01000000
00010000
10000000
00100000
,
01000000
00010000
00001000
00000100
,
00000010
00000000
00001000
00001000
,
00000001
00000100
00000010
00001000
,
00010000
01000000
00100000
00000000
,
20000000
00000000
00000000
30000000
,
00010000
00100000
00100000
10000000
,
01000000
00010000
00010000
00001000
,
00010000
00000000
00000010
00000010
,
00001000
00000001
00001000
00000100
,
00000010
00000010
00000100
00000100
,
00001000
00000001
00000100
00001000
,
00010000
01000000
10000000
00010000
,
00200000
02000000
00000000
03300000
,
00100000
00000000
00000000
00010000
00000000
00000000
00001000
00000000
,
00000000
00000010
00000000
00000000
00000011
00000000
00000011
00000000
,
00000100
00000000
00000000
00001000
00000000
00000000
00010000
00000000
,
00000000
01000000
00000000
00000000
11000000
00000000
11000000
00000000
,
00100000
00000000
00000000
00010000
00000000
00000000
00001000
00000000
,
00000000
00010000
00000000
00000000
00011000
00000000
00010010
00000000
,
00000100
00000000
00000000
00000001
00000000
00000000
00001000
00000000
,
00002002
00000000
00000000
00003003
,
00000010
00001000
00000001
00000000
00000100
00001000
00010000
00000000
,
00001000
00100000
00010000
00000000
00100000
01000000
10000000
00000000
,
00010000
00010000
10000000
10000000
,
00100000
00010000
00100000
00010000
00100000
00010000
00100000
00000000
,
00001000
00010000
00001000
00010000
00001000
00010000
00001000
00000000
,
00000000
00000000
00000000
00000000
,
00000001
00000010
00000001
00000010
00000001
00000010
00000001
00000000
,
00001000
00000000
00000100
00000000
00010000
00010000
00010000
00000000
,
00002000
00010000
00100000
00013000
,
00001000
00010000
00001000
00000000
00100000
00010000
00100000
00000000
,
20000000
01000000
00100000
31000000
,
00010000
01000000
00010000
00000000
10000000
01000000
10000000
00000000
,
00000000
00010000
01000000
00001000
,
00010000
00000000
00000100
00000000
00000010
00000100
00000010
00000100
,
00000000
00001000
00000001
00000000
00000100
00000000
00000010
00000000
,
00001000
00001000
00000001
00000001
,
00001000
00001100
00010000
00011000
,
00100000
00000000
00110000
00000000
10000000
01000000
10000000
00000000
,
00010000
01010000
00001000
00011000
,
00000010
00000000
00001010
00000000
00000001
00000100
00000001
00000000
,
00000010
00000100
00001000
00000001
,
00000100
00000000
00000100
00000000
00001000
00010000
00001000
00000000
,
00011000
00101000
00110000
01100000
,
20020000
00000000
00000000
00000000
,
30030000
00000000
00000000
00000000
;

//---------------dance-double - ----------------
#NOTES:
     dance-double:
     :
     Hard:
     12:
     :
00000000
00000000
00000000
00000000
,
00000000
00000000
00000000
00000000
,
00000000
00000000
00000000
00000000
,
00000000
00000000
00000000
00000000
,
00000000
00000000
00000000
00000000
,
00001000
01000000
00010000
00100000
,
00001000
00000000
00010000
00000000
00000020
00001000
00001030
00000000
,
00000001
00000000
00001000
00000000
00000010
00001000
00010000
00000000
,
01000000
00000000
00000000
00100000
00000000
00000000
10000000
00000000
00000000
00000000
00100000
00000000
00110000
00000000
00000000
00000000
,
00000000
00000000
00001000
00000000
00000000
01000000
00000000
00000000
00100000
00000000
00000000
10000000
00000000
00000000
10100000
00000000
,
00000000
00000000
01000000
00000000
00000000
00010000
00000000
00000000
00001000
00000000
00000000
00000100
00000000
00000000
00000101
00000000
,
00000000
00000000
00001000
00000000
00000000
00000010
00000000
00000000
00000100
00000000
00000000
00001000
00000000
00000000
00010000
00000000
,
00100000
00000000
00000000
10000000
00000000
00000000
00010000
00000000
00000000
01000000
00000000
00000000
00001000
00000000
00010000
00000000
,
00001000
00010000
00001000
00000000
00000000
00001000
00000000
00000000
00000100
00000000
00000000
00000001
00000000
00001000
00000000
00000000
,
00000001
00000000
00000100
00000000
00001000
00000000
00000000
00010000
00001000
00000000
00010000
00000000
01000000
00000000
10000000
01000000
,
00000000
00000000
00000000
00100000
01000000
00000000
00010000
00000000
10000000
00000000
00010000
00000000
10000000
00000000
01000000
00000000
,
00010000
00001000
00010000
00001000
00000100
00000010
00000100
00000000
,
00000001
00000100
00000001
00000100
00001000
00010000
00100000
00010000
,
00100000
10000000
01000000
10000000
01000000
00010000
01000000
00010000
,
00001000
00010000
00001000
00010000
00001000
00000100
00000001
00000100
,
00001000
00010000
01000000
10000000
01000000
00010000
00001000
00000100
,
00000001
00000010
00001000
00000000
00010000
00100000
10000000
00000000
,
01000000
00010000
00001000
00000100
00001000
00010000
00100000
00000000
,
00010000
00001000
00000010
00000000
00001000
00000001
00000100
00000000
,
00000010
00000001
00000100
00001000
00010000
01000000
00100000
00000000
,
10010000
00000000
00000000
11000000
00000000
00000000
01100000
00000000
,
00000000
00110000
00000000
00000000
00011000
00000000
00000010
00000000
,
00000100
00000000
00000000
00000101
00000000
00000000
00000110
00000000
,
00000000
00001100
00000000
00000000
00011000
00000000
00100000
00000000
,
01000000
00000000
00100000
20000000
00000000
31000000
00020000
00000000
,
00031000
00100000
00001000
00000000
00010010
00000000
00011000
00000000
,
00001000
00000000
00000010
00000002
00000000
00000103
00002000
00000000
,
00013000
00001000
00100000
00010000
10000000
01000000
10000000
00000000
,
00010000
00100000
00001000
00010000
00001000
00100000
00001000
00010000
,
00000010
00001000
00000010
00010000
00000100
00001000
00000010
00000000
,
00001000
00000100
00010000
00001000
00010000
00000100
00010000
00001000
,
01000000
00010000
01000000
00001000
00100000
00010000
01000000
00000000
,
00100000
10000000
00100000
10000000
01000000
00010000
01000000
00000000
,
00000000
00000000
00000000
00000000
,
00000010
00000001
00000010
00000001
00000100
00001000
00000100
00000000
,
00010000
00100000
01000000
10000000
01000000
00010000
00001000
00000100
,
00000001
00000000
00000010
00000000
00000010
00000000
00000100
00000000
00001000
00000000
00000000
00000000
00010000
00001000
00000000
00000000
,
00020000
00000000
00100000
00000000
00001000
00000000
00130000
10000000
,
00000000
00000000
00010000
00000000
10000000
01000000
00000000
00100000
00000000
00000000
01000000
00000000
10000000
01000000
00000000
00100000
,
00000000
00000000
01000000
00000000
00010000
00000000
00001000
00010000
00000000
00000000
00001000
00000000
00001000
00000000
00000000
00000000
,
00000000
00000000
00000001
00000000
00001000
00000000
00000010
00000100
00000000
00000000
00000001
00000000
00001000
00000000
00000100
00000000
,
00000010
00000000
00000001
00000000
00000010
00000001
00000000
00000000
00000100
00000000
00001000
00000000
00010000
00000000
01000000
00000000
,
00000000
00000000
10000000
00000000
00100000
00000000
00100000
01000000
00000000
00000000
01000000
00010000
01000000
00010000
00000000
00000000
,
00001000
00000000
00000000
00100000
00000000
00000000
00010000
00000000
00000000
10000000
00000000
00000000
00010000
00000000
10000000
00000000
,
00010000
01000000
00100000
10000000
00100000
10000000
01000000
00010000
,
00001000
00010000
00001000
00000100
00000001
00001000
00000001
00000000
,
00000000
00000100
00000010
00000001
00000010
00000001
00000100
00001000
,
00010000
00001000
00010000
01000000
10000000
00010000
00100000
01000000
,
00000000
01000000
00010000
00001000
00000010
00001000
00010000
00001000
,
00010000
00100000
00010000
00001000
00000100
00000001
00001000
00000001
,
00000010
00000100
00000010
00000100
00001000
00000001
00000010
00001000
,
00010000
00100000
10000000
01000000
00010000
00001000
00010000
00000000
;
