#VERSION:0.83;
#TITLE:Beat Juggling Mix;
#SUBTITLE:;
#ARTIST:Hommarju;
#TITLETRANSLIT:;
#SUBTITLETRANSLIT:;
#ARTISTTRANSLIT:;
#GENRE:;
#ORIGIN:;
#TAGS:;
#CREDIT:;
#BANNER:Beat Juggling Mix.png;
#BACKGROUND:Beat Juggling Mix-bg.png;
#PREVIEWVID:;
#JACKET:Beat Juggling Mix-jacket.png;
#CDIMAGE:;
#DISCIMAGE:;
#LYRICSPATH:;
#CDTITLE:;
#MUSIC:Beat Juggling Mix.ogg;
#OFFSET:1.150000;
#SAMPLESTART:33.484001;
#SAMPLELENGTH:20.000000;
#SELECTABLE:YES;
#DISPLAYBPM:94.000000:198.000000;
#BPMS:0.000000=100.000000,
4.000000=105.000000,
51.000000=132.000000,
53.000000=94.000000,
88.000000=198.000000,
89.000000=192.000000,
90.000000=186.000000,
91.000000=170.000000,
92.000000=188.000000,
274.000000=176.000000,
275.000000=170.000000,
276.000000=164.000000,
277.000000=156.000000,
278.000000=142.000000,
279.000000=130.000000,
280.000000=120.000000;
#STOPS:;
#DELAYS:;
#WARPS:;
#TIMESIGNATURES:0.000000=4=4;
#TICKCOUNTS:0.000000=4;
#COMBOS:0.000000=1;
#SPEEDS:0.000000=1.000000=0.000000=0;
#SCROLLS:0.000000=1.000000;
#FAKES:;
#LABELS:0.000000=Song Start;
#BGCHANGES:;
#KEYSOUNDS:;
#ATTACKS:
;

//---------------dance-single - X scale 16----------------
#NOTEDATA:;
#CHARTNAME:;
#CHARTHASH:2147483647:
#STEPSTYPE:dance-single;
#BANNER:;
#DESCRIPTION:X scale 16;
#CHARTSTYLE:;
#DIFFICULTY:Hard;
#METER:16;
#METERF:0.000000;
#RADARVALUES:0.816172,1.004436,0.533462,0.378586,0.705546,664.000000,602.000000,62.000000,44.000000,0.000000,0.000000,0.000000,0.000000,0.000000,0.816172,1.004436,0.533462,0.378586,0.705546,664.000000,602.000000,62.000000,44.000000,0.000000,0.000000,0.000000,0.000000,0.000000;
#CREDIT:;
#DISPLAYBPM:94.000000:198.000000;
#NOTES:
0000
0000
0000
0000
,
0000
0000
0000
0000
,
1001
0000
0110
0000
,
1001
0000
0000
0000
0110
0000
0000
0000
1000
0001
1000
0000
0000
0000
2010
0000
,
3002
0000
1003
0010
0000
0100
0000
0010
0000
0000
1100
0000
0000
0000
0101
0000
,
0000
0000
0000
0010
0000
1000
0100
0000
0000
1000
0000
0001
0000
0000
0001
0010
0000
0001
0100
0000
0010
1000
0000
0000
,
0002
0000
1003
0010
0000
0100
0000
0010
0000
0000
1100
0000
0000
0000
0101
0000
,
0000
0000
0000
0000
1001
0000
0000
0000
1000
0100
1000
0100
1000
0000
0010
0000
0000
0000
0100
0000
0001
0000
0100
0000
0010
0000
0000
0000
1000
0000
1000
0000
,
0002
0000
0000
0000
1003
0000
0010
0000
0000
0000
0100
0000
0000
0000
0010
0000
0000
0000
1000
0100
1000
0000
0001
0000
0100
0000
0010
0000
0100
0000
0000
0000
,
0000
0000
0001
1000
0001
0000
0010
0000
0100
1000
0100
1000
0100
0000
0010
0000
0001
1000
0001
1000
0001
0000
0010
0000
0100
0000
1000
0000
0001
0000
1000
0000
,
0002
0000
1003
0010
0000
0000
0100
0100
0002
0000
1003
0010
0000
0000
0100
0001
,
0011
0000
0100
0100
0110
0000
0010
0010
1010
0000
1000
1000
1001
0000
0001
0001
,
0201
0000
0000
0000
0320
0000
0000
2030
0002
0000
0000
0000
0000
0000
0000
0000
,
3003
0220
0000
0300
,
0100
0100
0100
0130
,
1001
0000
0000
1000
0010
1000
0002
0000
0000
2003
0000
0000
3010
0000
1000
0100
0000
0000
0110
0000
0000
1001
0000
0000
,
0101
0000
0000
0001
1000
0001
0200
0000
0000
0320
0000
0000
1030
0000
0001
0010
0000
0000
0101
0000
0010
0010
0000
1000
,
1100
0000
0000
1000
0001
0100
0002
0000
0000
0023
0000
0000
0130
0000
1000
0010
0000
0000
0101
0000
0000
1100
0000
0000
,
1001
0000
0000
0010
0000
0000
0101
0000
0000
0010
0000
0000
1001
0000
0000
0101
0000
0000
0011
0000
0100
0100
0000
1000
,
1010
0000
0000
0001
0010
0100
2000
0000
0000
3020
0000
0000
0130
0000
0001
1000
0000
0000
1010
0000
0000
0101
0000
0000
,
0011
0000
0000
0100
0010
1000
0002
0000
0000
0203
0000
0000
0301
0000
1000
0010
0000
0000
0110
0000
0100
0100
0000
0001
,
0011
0000
0001
0101
0000
1000
1100
0000
1000
1010
0000
0010
0110
0000
1001
0000
,
0020
0000
0000
0030
,
1000
0001
1000
0001
1000
0001
1000
0001
1000
0001
1000
0001
1000
0001
1000
0001
,
0010
0000
0000
0100
0000
0000
0000
1100
,
0000
0101
1000
0000
1001
0000
0000
0000
,
0100
0000
0000
0010
0000
0000
0000
1010
,
0000
0011
1000
0000
1001
0000
0000
0000
,
1010
0000
1000
0100
0010
0001
0100
0010
,
0000
1000
0001
1000
0100
0010
0001
0000
,
0101
0000
0010
0100
0001
1000
0100
0010
,
0000
0001
1000
0100
1000
0010
0100
0000
,
0001
0001
0010
0010
0100
0100
1000
1000
,
0001
0001
0100
0100
0010
0010
1000
1000
,
0001
0100
0001
0100
0010
0100
0010
0100
0010
1000
0010
1000
0001
1000
0001
1000
,
0001
0000
1000
0010
0100
0000
0001
0000
0012
0000
0100
0000
0103
0000
0000
0000
,
1001
0010
0100
0010
1000
0100
0010
0001
,
0100
0000
0001
0010
0001
0000
1000
0010
1000
0000
0100
0000
0001
0000
0000
0000
,
0010
0001
0100
0001
1000
0010
0100
1000
,
0100
0000
0001
1000
0001
0000
0100
0010
0100
0000
0001
0000
0010
0000
0000
0000
,
0001
1000
0100
0010
0100
1000
0001
0010
,
0001
0000
0100
0010
0100
0000
0010
1000
0010
0000
1000
0000
0001
0000
0000
0000
,
1000
0100
0010
0100
1000
0001
0010
0001
,
0100
0000
0001
1000
0001
0000
1000
0100
1000
0000
0010
0000
0001
0000
0000
0000
,
1010
0101
1010
0101
,
1001
0000
1000
0100
0010
0000
0100
0010
0001
0000
1000
0000
0001
0000
0000
0000
,
0010
0001
0100
0001
1000
0100
1000
0010
,
0100
0000
0010
1000
0100
0000
0010
0001
0100
0000
0001
0000
1000
0000
0000
0000
,
0010
0010
0100
0100
0001
0001
1000
1000
,
0001
0001
0100
0100
0010
0010
1000
1000
,
0100
1000
0100
1000
0001
1000
0001
1000
0001
0010
0001
0010
0100
0010
0100
0010
,
0001
0000
1000
0100
0010
0001
0010
0100
1000
0000
0001
0000
1001
0000
0000
0000
,
0020
1030
0002
0103
2000
3001
0200
0310
,
2000
0100
3100
0010
0002
1000
1003
0000
,
0010
0000
1000
0100
1000
0100
0010
0001
0100
0010
1000
0000
0001
0000
0001
0000
,
0100
0000
0001
0010
0100
0010
0001
0000
1000
0000
1100
0000
0101
0000
0000
0000
,
0002
0013
0200
1300
0020
0130
0002
1003
,
0020
1000
1030
0100
2000
0001
3001
0000
,
0110
0000
0000
0000
1000
0010
1000
0010
1000
0100
0010
0000
0001
0000
0001
0000
,
0001
1000
0001
1000
0100
1000
0100
1000
0001
0010
0100
1000
0010
0000
0000
0000
,
1001
0000
0000
1000
0001
0000
0000
1000
0001
0000
0000
1000
0001
0000
0000
0000
,
2000
0001
3001
0100
0020
1000
1030
0000
,
0101
0000
0000
0000
1000
0001
0010
0100
1000
0010
0100
0000
0001
1000
0001
1000
,
0001
0000
0000
0000
0001
0010
0100
1000
0010
0100
0010
0100
0010
0000
0000
0000
,
1000
1000
0001
0001
0100
0100
0010
0010
,
1000
1000
0100
0100
0010
0010
0001
0001
,
1000
0100
1000
0100
0010
0001
0010
0001
0100
0010
0100
0010
1000
0001
1000
0001
,
1000
0010
1000
0010
1000
0010
1000
0010
1000
0010
1000
0010
1000
0010
1000
0010
,
0200
0000
0000
0000
0301
0010
0001
0010
0200
0000
0000
0000
1300
0010
1000
0010
,
0200
0000
0000
0000
0301
0010
0001
0010
0200
0000
0000
0000
1300
0010
1000
0010
,
2002
0000
0000
3003
;

//---------------dance-single - ----------------
#NOTEDATA:;
#CHARTNAME:;
#CHARTHASH:0:
#STEPSTYPE:dance-single;
#BANNER:;
#DESCRIPTION:;
#CHARTSTYLE:;
#DIFFICULTY:Medium;
#METER:13;
#METERF:0.000000;
#RADARVALUES:0.604754,0.882686,0.679734,0.197897,0.077438,492.000000,413.000000,79.000000,23.000000,0.000000,0.000000,0.000000,0.000000,0.000000,0.604754,0.882686,0.679734,0.197897,0.077438,492.000000,413.000000,79.000000,23.000000,0.000000,0.000000,0.000000,0.000000,0.000000;
#CREDIT:;
#DISPLAYBPM:94.000000:198.000000;
#NOTES:
0000
0000
0000
0000
,
0000
0000
0000
0000
,
1001
0000
0110
0000
,
1001
0000
0000
0000
0110
0000
0000
0000
1000
0001
1000
0000
0000
0000
0000
0000
,
0001
0010
0100
1000
0000
1100
0000
0101
,
0000
0000
1000
0000
1000
0000
0010
0100
0000
0100
0001
0100
0010
0000
1000
0000
,
0001
0010
0100
1000
0000
1010
0000
0011
,
0000
0000
0100
0000
0100
0010
1000
0010
0000
1000
0001
1000
0001
0000
0010
0000
,
0001
0010
0100
1000
0000
1100
0000
0011
,
0000
0000
1010
0000
0001
0100
0001
0000
0010
0001
0100
0001
1000
0010
1000
0000
,
0001
1000
0010
0101
0001
1000
0010
0110
,
0001
1100
0001
0101
0001
0011
0001
1010
,
0020
0000
0000
0000
0130
0000
0000
2002
0000
0000
0000
0000
0000
0000
0000
0000
,
3003
0220
0000
0300
,
0100
0100
0100
0130
,
1010
0001
0011
0011
1000
1100
1100
0010
,
1001
0100
0101
0101
1000
1010
1010
0001
,
1100
0010
1001
1001
0100
0110
0110
0010
,
0101
0000
0000
0000
0000
0000
1100
0000
0000
0000
0000
0000
0101
0000
0000
1100
0000
0000
0101
0000
1000
0001
0000
1000
,
0001
0000
0000
0100
0000
0000
1010
0000
0000
1010
0000
0000
1000
0000
0000
0011
0000
0000
0011
0000
0000
0100
0000
0100
,
0010
1000
0101
0101
0001
1001
1001
0100
,
1010
0000
0000
0011
0000
0000
0101
0000
0000
1100
0000
0000
1001
0000
0110
0000
,
2002
0000
0000
3003
,
1000
0100
1000
0100
0010
0001
0010
0001
,
0101
0000
0000
0101
0000
0000
0000
1000
,
0010
0100
0001
0000
1010
0000
0000
0000
,
0110
0000
0000
0110
0000
0000
0000
0001
,
1000
0100
0010
0000
0011
0000
0000
0000
,
1000
0000
0001
0000
0010
0001
0100
0000
,
0010
0000
1000
0000
0001
1000
0100
0000
,
0010
0000
0001
0000
0100
0010
1000
0000
,
0100
0000
1000
0000
0010
1000
0001
0000
,
1000
0100
0010
0000
0001
1000
0001
0000
,
0100
0010
0100
0000
0001
0010
1000
0000
,
0001
0010
0100
1000
0001
0100
0010
1000
,
0001
1000
0001
1000
0100
0000
0100
0000
,
1001
0000
0010
1000
0000
1000
0100
0010
,
0000
0001
0100
0000
0010
1000
0001
0000
,
1100
0000
1000
0010
0000
0010
0100
0001
,
0000
1000
0001
0000
0010
0100
1000
0000
,
0101
0000
0010
0001
0000
1000
0001
1000
,
0000
0010
1000
0000
0100
0010
0001
0000
,
0011
0000
0100
0010
0000
0100
0010
1000
,
0000
0100
0010
0000
0001
1000
0001
0000
,
1010
0101
1010
0101
,
0010
1000
0001
0000
0010
0100
1000
0000
,
0110
0000
0001
1000
0001
0100
0010
1000
,
0000
1000
0100
0000
1000
0010
0001
0000
,
1000
0100
0010
0001
0100
0010
1000
0000
,
0001
1000
0001
0010
0100
1000
0010
0000
,
1000
0100
1000
0010
0100
0001
0010
0001
,
1000
0100
0010
0001
0100
0000
1001
0000
,
0002
0023
0230
2300
,
3002
0100
0103
0000
2000
0100
3100
0000
,
0001
0010
0100
1000
0010
0100
0001
0000
,
1000
0001
1000
0010
0100
0001
1000
0000
,
0200
2300
3020
0230
,
0302
0010
0013
0000
2000
0010
3010
0000
,
0100
0001
0010
0001
0100
0010
1000
0000
,
0100
1000
0001
1000
0010
0100
0001
0000
,
0011
1100
0011
1100
,
0020
0100
0130
0000
0002
1000
1003
0000
,
0100
1000
0010
1000
0100
0010
0001
0000
,
1000
0001
1000
0010
0100
0001
0100
0000
,
0001
0010
0001
0010
0001
0010
0001
0010
,
0100
1000
0100
1000
0100
1000
0100
1000
,
0010
0100
0010
0100
0001
1000
0001
1000
,
0001
0010
0100
1000
0100
0010
0001
0000
,
1100
0000
0010
0100
0101
0000
0001
1000
,
1010
0000
0100
0010
0011
0000
1000
0001
,
2002
0000
0000
3003
;

//---------------dance-single - ----------------
#NOTEDATA:;
#CHARTNAME:;
#CHARTHASH:0:
#STEPSTYPE:dance-single;
#BANNER:;
#DESCRIPTION:;
#CHARTSTYLE:;
#DIFFICULTY:Easy;
#METER:8;
#METERF:0.000000;
#RADARVALUES:0.399482,0.486999,0.369982,0.180689,0.012906,325.000000,282.000000,43.000000,21.000000,0.000000,0.000000,0.000000,0.000000,0.000000,0.399482,0.486999,0.369982,0.180689,0.012906,325.000000,282.000000,43.000000,21.000000,0.000000,0.000000,0.000000,0.000000,0.000000;
#CREDIT:;
#DISPLAYBPM:94.000000:198.000000;
#NOTES:
0000
0000
0000
0000
,
0000
0000
0000
0000
,
1001
0000
0110
0000
,
1001
0000
0110
0000
1000
0001
0000
0000
,
0001
0100
0000
0010
0000
0100
0000
0001
,
0000
1000
0100
0010
0000
0001
1000
0100
,
0001
0010
0000
0001
0000
1000
0000
0100
,
0000
1000
0010
1000
0000
0100
0001
0010
,
0001
1000
0000
0010
0000
1000
0000
0100
,
0000
1000
0010
0100
0010
1000
0001
0000
,
0011
0100
1010
0100
,
0101
1100
0101
1100
,
0102
0000
0000
0000
1003
0000
0000
2020
0000
0000
0000
0000
0000
0000
0000
0000
,
3030
0220
0000
0300
,
0100
0100
0100
0130
,
1001
0000
0010
0000
1000
1000
1000
1000
,
1100
0000
0001
0000
0100
0100
0100
0000
,
0110
0000
0010
0000
0100
0100
0100
0000
,
0101
0000
0011
0000
1000
1000
1000
0000
,
0110
0000
0001
0000
1000
1000
1000
1000
,
1100
0000
0010
0000
0001
0001
0001
0000
,
0010
0000
0000
0010
0000
0000
0010
0000
0000
0010
0000
0000
0010
0000
0000
0000
,
2002
0000
0000
3003
,
1000
0000
0010
0000
1000
0001
1000
0000
,
2100
0000
0000
0010
0000
0000
0000
0001
,
0000
0001
0000
0000
3100
0000
0000
0000
,
0012
0000
0000
1000
0000
0000
0000
0010
,
0000
0010
0000
0000
0103
0000
0000
0000
,
0201
0000
0000
0010
0000
0000
0000
1000
,
0000
1000
0000
0000
0301
0000
0000
0000
,
1020
0000
0000
0001
0000
0000
0000
0100
,
0000
0100
0000
0000
1030
0000
0000
0000
,
0001
0001
1000
1000
,
0010
0010
0100
0100
,
0001
0010
0100
1000
,
0010
0010
1001
0100
,
1000
0001
1000
0100
,
0010
0001
0010
0000
0100
0000
0000
0000
,
0010
0001
0100
0010
,
1000
0001
1000
0000
0100
0000
0000
0000
,
1000
0010
0100
0001
,
0010
0100
1000
0000
0001
0000
0000
0000
,
1000
0001
1000
0100
,
0010
0100
0010
0000
0001
0000
0000
0000
,
0110
1001
0110
1001
,
0010
1000
0000
0010
1000
0000
0000
0000
,
0100
0010
1000
0001
,
1000
0010
0000
0100
0001
0000
0000
0000
,
0010
0010
0001
0001
,
0100
0100
1000
1000
,
0001
0010
0100
1000
,
0010
0100
0010
0000
0101
0000
1100
0000
,
0001
0010
0001
0100
,
2000
3000
0020
0030
,
1000
0000
0100
0000
0010
0001
1000
0000
,
0001
0000
0100
0010
1000
0010
0100
0000
,
0010
1000
0100
0010
,
0002
0003
2000
3000
,
0001
0000
1000
0000
0010
1000
0100
0000
,
1000
0001
0010
0000
0001
0100
1000
0000
,
1010
0101
0011
1100
,
2002
3003
0220
0330
,
1000
0000
0001
1000
0010
0100
0010
0000
,
0100
0000
0001
0010
0100
0010
0001
0000
,
1000
0000
0100
0000
1000
0001
0100
0000
,
0010
0000
0100
0000
0001
0010
0001
0000
,
1000
0010
1000
0000
0001
0100
0001
0000
,
0010
0100
1000
0000
0010
0100
0001
0000
,
0011
1000
1100
0001
,
1010
0100
0101
0010
,
2002
0000
0000
3003
;

//---------------dance-single - ----------------
#NOTEDATA:;
#CHARTNAME:;
#CHARTHASH:0:
#STEPSTYPE:dance-single;
#BANNER:;
#DESCRIPTION:;
#CHARTSTYLE:;
#DIFFICULTY:Beginner;
#METER:5;
#METERF:0.000000;
#RADARVALUES:0.231085,0.301148,0.129063,0.008604,0.004302,188.000000,173.000000,15.000000,1.000000,0.000000,0.000000,0.000000,0.000000,0.000000,0.231085,0.301148,0.129063,0.008604,0.004302,188.000000,173.000000,15.000000,1.000000,0.000000,0.000000,0.000000,0.000000,0.000000;
#CREDIT:;
#DISPLAYBPM:94.000000:198.000000;
#NOTES:
// measure 0
0000
0000
0000
0000
,  // measure 1
0000
0000
0000
0000
,  // measure 2
1001
0000
0110
0000
,  // measure 3
1000
1000
1000
0000
,  // measure 4
0001
0001
0000
0010
,  // measure 5
0000
0001
0000
1000
,  // measure 6
0001
0001
0000
0100
,  // measure 7
0000
0010
0000
1000
,  // measure 8
0001
0001
0000
1000
,  // measure 9
0000
0100
0000
0010
,  // measure 10
0001
0000
0001
0000
,  // measure 11
0100
0010
1000
0010
,  // measure 12
0100
0000
0000
0000
0000
0000
0000
0020
0000
0000
0000
0000
0030
0000
0000
0000
,  // measure 13
0000
0110
0000
0000
,  // measure 14
0100
0100
0100
0000
,  // measure 15
1001
0000
0010
0000
,  // measure 16
1001
0000
0100
0000
,  // measure 17
0110
0000
0001
0000
,  // measure 18
1000
1000
1000
1000
,  // measure 19
1001
0000
0010
0000
,  // measure 20
0110
0000
0001
0000
,  // measure 21
1000
1000
0001
0001
,  // measure 22
1001
0000
0000
0000
,  // measure 23
0110
0000
0000
0000
,  // measure 24
0001
0000
0001
0000
,  // measure 25
0001
0001
0001
0000
,  // measure 26
0100
0000
0100
0000
,  // measure 27
0100
0100
0100
0000
,  // measure 28
1000
0000
1000
0000
,  // measure 29
1000
1000
1000
0000
,  // measure 30
0010
0000
0010
0000
,  // measure 31
0010
0010
0010
0000
,  // measure 32
1000
0000
1000
0000
,  // measure 33
0001
0000
0001
0000
,  // measure 34
0100
0100
0100
0100
,  // measure 35
0010
0000
0100
0100
,  // measure 36
0001
0000
0001
0000
,  // measure 37
1000
1000
0010
0000
,  // measure 38
1000
0000
1000
0000
,  // measure 39
0100
0100
0010
0000
,  // measure 40
0001
0000
0100
0000
,  // measure 41
0001
0001
1000
0000
,  // measure 42
0010
0000
1000
0000
,  // measure 43
0100
0100
0010
0000
,  // measure 44
0001
0001
0001
0001
,  // measure 45
0000
0010
1000
0000
,  // measure 46
0100
0000
0010
0000
,  // measure 47
0001
1000
0001
0000
,  // measure 48
0010
0000
0010
0000
,  // measure 49
0001
0000
1000
0000
,  // measure 50
0100
0000
1000
0000
,  // measure 51
0010
0010
0100
0010
,  // measure 52
1000
0000
0001
0000
,  // measure 53
0100
0000
0100
0000
,  // measure 54
0010
0001
0100
0000
,  // measure 55
0001
0001
0001
0000
,  // measure 56
0010
0000
0001
0000
,  // measure 57
1000
0000
0100
0000
,  // measure 58
1000
0010
0100
0000
,  // measure 59
0010
0010
0010
0000
,  // measure 60
1000
1000
0001
0001
,  // measure 61
0010
0000
0010
0000
,  // measure 62
0001
0010
1000
0000
,  // measure 63
1000
1000
1000
0000
,  // measure 64
0100
0100
0100
0000
,  // measure 65
1000
1000
1000
0000
,  // measure 66
0001
0001
0001
0000
,  // measure 67
0010
0010
0010
0000
,  // measure 68
1001
0000
0110
0000
,  // measure 69
1001
0000
0110
0000
,  // measure 70
1001
0000
0000
0000
;
