#TITLE:Be in my paradise;
#ARTIST:JJ COMPANY;
#BANNER:Be in my paradise.png;
#BACKGROUND:Be in my paradise-bg.png;
#JACKET:Be in my paradise-jacket.png;
#MUSIC:Be in my paradise.ogg;
#SAMPLESTART:59.981;
#SAMPLELENGTH:20;
#DISPLAYBPM:63;
#BPMS:0=63.02;
#BGCHANGES:;

//---------------dance-single - ----------------
#NOTES:
     dance-single:
     :
     Beginner:
     1:
     :
0000
0000
0000
0000
,
0000
0000
0000
0000
,
0000
0000
0000
0000
,
1000
0000
0000
0000
,
0001
0000
0000
0000
,
1000
0000
0000
0000
,
0001
0000
0000
0000
,
1000
0000
0100
0000
,
0001
0000
0100
0000
,
1000
0000
0100
0000
,
0001
0000
0100
0000
,
0000
1000
1000
0000
,
0000
0001
0001
0000
,
0000
1000
1000
0000
,
0001
0000
0000
1000
,
0000
0000
0000
0010
,
0000
0010
0000
0010
,
0000
0010
0000
1000
,
0000
0001
0000
1000
,
0000
0001
0000
0100
,
0000
0100
0000
0100
,
0000
0100
0000
0001
,
0000
1000
0000
0001
,
0000
1000
0000
1001
;

//---------------dance-single - ----------------
#NOTES:
     dance-single:
     :
     Easy:
     3:
     :
0000
0000
0000
0000
,
0000
0000
0000
0000
,
0000
0000
0000
0000
,
1000
0000
0001
0000
,
1000
0000
0001
0000
,
0100
0000
0010
0000
,
0010
0000
0100
0000
,
1000
0100
0001
0100
,
1000
0100
0001
0100
,
0010
0010
1000
0001
,
0100
0100
0001
1000
,
0100
0000
1000
0000
,
0001
0000
1000
0000
,
0001
0000
0100
0000
,
0001
0000
0000
0010
,
0000
0000
0000
0010
,
0000
0010
0000
0100
,
0000
0100
0000
1000
,
0000
0001
0000
1000
,
0000
0001
0000
0100
,
0100
0100
0100
0001
,
1000
0010
1000
0100
,
0001
0010
1000
0000
,
0000
0000
0000
1001
;

//---------------dance-single - ----------------
#NOTES:
     dance-single:
     :
     Medium:
     6:
     :
0000
0000
0000
0000
,
0000
0000
0000
0000
,
0000
0000
0000
0000
,
1000
0001
1000
0100
,
0001
1000
0001
0100
,
1000
0010
0001
0010
,
1000
0100
0001
0100
,
0100
1000
0100
0001
,
1000
0001
0100
0010
,
0001
1000
0100
0100
1000
0001
0100
0100
,
0010
1000
0100
0100
0010
0001
0100
0100
,
1001
0100
1001
0100
,
0010
0100
0001
1000
,
0010
0010
0100
0100
,
0001
0100
0000
1000
,
0100
0000
0000
1001
,
0100
0100
0100
1001
,
1000
0100
0001
0100
,
0010
1000
0100
0001
,
0010
0100
1000
1001
,
0001
1000
0010
0100
,
0001
0100
1000
0100
,
0001
1000
0001
0000
,
0000
0000
0000
1001
;

//---------------dance-single - ----------------
#NOTES:
     dance-single:
     :
     Hard:
     9:
     :
0000
0000
0000
0000
,
0000
0000
0000
0000
,
0000
0000
0000
0000
,
1000
0000
0001
0000
1000
0001
0100
0000
,
0001
0100
1000
0100
0001
0100
0001
1000
,
1000
0000
0000
0000
0001
0010
0100
0000
,
1000
0100
0001
0100
0001
1000
0100
0000
,
0100
0000
1000
0000
0100
0010
0001
0000
,
1000
0000
0001
0000
0100
0010
1000
0000
,
0001
1000
0010
0100
0001
1000
0010
0100
0001
1000
0010
0100
0001
1000
0010
0100
,
0001
1000
0100
0000
0000
0000
0000
0000
0010
0000
0000
0000
1001
0000
1001
0000
,
0110
0001
0100
0000
1001
0010
0100
0000
,
0110
0001
1000
0000
1001
0010
0100
0000
,
0010
0010
1000
0000
0100
0100
0010
0000
,
0001
0000
0100
0000
0001
0001
1000
0000
,
0100
0000
0000
1001
,
0100
0000
0000
0000
0100
1000
0100
1000
0001
0000
0000
0000
0100
1000
0100
1000
,
0001
0000
0000
0000
0100
1000
0100
1000
0001
0000
0000
0000
0100
1000
0100
1000
,
0001
0000
0000
0000
0100
0001
0100
0001
1000
0000
0000
0000
0100
0001
0100
0001
,
1000
0000
0000
0000
0100
0001
0100
0001
1000
0000
0010
0000
1001
0000
0000
0000
,
0001
0000
1000
1000
0100
0000
1000
1000
,
0010
0000
1000
1000
0001
0000
0100
0100
,
0010
0000
1000
1001
0100
0000
1001
0000
,
0000
0000
0000
1001
;

//---------------dance-single - ----------------
#NOTES:
     dance-single:
     :
     Challenge:
     12:
     :
0000
0000
0000
0000
,
0000
0000
0000
0000
,
0000
0000
0000
0000
,
0010
1000
0001
1000
1100
0000
0001
0100
0020
0000
1030
0200
0000
0000
0000
0300
,
0110
0000
0000
0000
0000
0000
0000
0000
0001
0000
0000
1000
0000
0000
0010
0000
2000
0000
0000
0000
3001
0000
0100
0000
0020
0000
0000
0000
0000
0000
1000
0000
,
2030
0000
0000
0000
3001
0000
0020
0000
0100
0000
0000
0000
0000
0000
0031
0000
0100
0010
0000
2000
0000
0000
0000
0000
0000
0000
0000
0000
0000
0000
3100
0000
,
1001
0000
0010
0200
0001
0000
1300
0100
0001
1000
0101
0100
0020
0000
0000
0000
,
1030
0000
0100
0000
0001
0000
0100
0000
2000
0000
0000
0000
0000
0000
0000
0000
3010
0100
0010
0000
1000
0000
0001
0000
0100
0000
0010
0000
0100
0000
0000
0000
,
0101
0000
0000
0000
0000
0000
0000
0000
0010
0000
0000
0001
0000
0000
1000
0000
0020
0000
0000
0000
0230
0000
0000
0000
0302
0000
0000
0000
2003
0000
0000
0000
,
3010
1000
0100
0010
0100
1000
0010
0100
1000
0100
0001
0100
0010
1000
0001
0010
,
1000
0010
0012
0000
0000
0100
0000
2003
0001
0000
3100
0000
1100
0000
0101
0000
,
1000
0100
0010
0001
0100
0010
1000
0000
0120
0000
1030
0002
0000
1003
0200
0000
,
0310
0001
0100
0001
1000
0010
0100
0001
0000
0011
0000
0110
0000
1100
0000
1010
,
1001
0010
1000
0001
1000
0100
0010
0000
0002
0000
0103
0020
0000
1030
0001
0000
,
0011
0000
0000
0001
0000
0000
1000
0000
0000
1020
0000
0000
0000
0000
0000
0000
1030
0001
1000
0001
0010
0100
1000
0000
1100
0000
0000
1000
0000
0000
0001
0000
,
0000
0202
0000
0000
0000
0000
0000
0000
0003
0000
0001
0000
0000
0000
1000
0000
1000
0000
0000
0000
0310
0000
0100
0000
0001
0000
0010
0000
0100
0000
0010
0000
,
0001
0100
0010
1000
0100
0010
0001
1000
0010
0000
1000
0001
0010
0100
0010
1000
,
0010
0001
0100
0010
1000
0100
0001
0000
0001
0100
1000
0010
0200
0001
0001
0301
,
1000
0100
1000
0000
0020
0100
0100
0130
0001
1000
0001
0010
0200
1000
1000
1300
,
0001
0100
0010
1000
0002
0100
0203
0000
0320
1000
1030
0000
0010
1000
0001
1000
,
0100
0001
0100
0010
0100
1000
0001
0000
0110
0000
1001
0100
0001
0010
1000
0010
,
0001
0000
0100
0000
0010
0000
1000
0000
0100
0000
0010
0000
0001
0000
0000
0000
1000
0010
1000
0010
1000
0010
1000
0000
0001
0000
0100
0000
0010
0000
0001
0000
,
0010
1000
0100
0000
0010
0001
1100
0000
0010
0100
0001
2020
0000
0000
0000
0000
,
0030
0000
0000
0000
3100
0010
0001
0100
1000
0100
0001
1000
0202
0000
0000
0000
,
0000
0000
0000
0303
;

//---------------dance-double - ----------------
#NOTES:
     dance-double:
     :
     Easy:
     6:
     :
00000000
00000000
00000000
00000000
,
00000000
00000000
00000000
00000000
,
00000000
00000000
00000000
00000000
,
00100000
10000000
00010000
00001000
,
00000001
00000010
00000100
00001000
,
00100000
01000000
00010000
10000000
,
00010000
00000100
00000001
00001000
,
00000010
00010000
01000000
00100000
,
00001000
00000010
00010000
10000000
,
00100000
00001000
00010000
00010000
00000010
00001000
00000001
00000001
,
00000100
00010000
00100000
00100000
10000000
01000000
00001000
00001000
,
00000110
00000001
00011000
00100000
,
10000000
01000000
00001000
00010000
,
00000010
00000010
00010000
00010000
,
00000001
00001000
00000000
10000000
,
00010000
00000000
00000000
00001001
,
00001000
00001000
00010000
10010000
,
01000000
00010000
00000010
00000001
,
00001000
01000000
10000000
00100000
,
00001000
00000010
00000001
00011000
,
01000000
00100000
00001000
01000000
,
00010000
00000010
00000001
00001000
,
00010000
10000000
00010000
00000000
,
00000000
00000000
00000000
00011000
;

//---------------dance-double - ----------------
#NOTES:
     dance-double:
     :
     Medium:
     9:
     :
00000000
00000000
00000000
00000000
,
00000000
00000000
00000000
00000000
,
00000000
00000000
00000000
00000000
,
00100000
00000000
10000000
00000000
00010000
00001000
01000000
00000000
,
00001000
00000010
00000100
00000001
00000100
00001000
00100000
10000000
,
01000000
00000000
00000000
00000000
00010000
00001000
01000000
00000000
,
00010000
00000100
00000010
00001000
00000001
00000100
00010000
00000000
,
00100000
00000000
10000000
00000000
01000000
00010000
00001000
00000000
,
00001000
00000000
00000001
00000000
00000100
00010000
01000000
00000000
,
00100000
00010000
00001000
00000100
00000010
00001000
00010000
01000000
00100000
00010000
00001000
00000100
00000010
00001000
00010000
01000000
,
00010000
00001000
00000100
00000000
00000000
00000000
00000000
00000000
00100000
00000000
00000000
00000000
00011000
00000000
00000110
00000000
,
00001001
00000100
00010000
00000000
00011000
01000000
00100000
00000000
,
10010000
00100000
00010000
00000000
00011000
00000010
00000001
00000000
,
00000100
00001000
00010000
00000000
00100000
10000000
01000000
00000000
,
00010000
00000000
00001000
00000000
00000001
00001000
00010000
00000000
,
01000000
00000000
00000000
00001001
,
00000100
00000000
00000000
00000000
00001000
00010000
00001000
00010000
01000000
00000000
00000000
00000000
00100000
10000000
00100000
10000000
,
00010000
00000000
00000000
00000000
00010000
01000000
00010000
01000000
00001000
00000000
00000000
00000000
00010000
00001000
00010000
00001000
,
00000010
00000000
00000000
00000000
00000010
00001000
00000010
00001000
00000001
00000000
00000000
00000000
00000100
00000001
00000100
00000001
,
00000010
00000000
00000000
00000000
00010000
00001000
00010000
00001000
00100000
00000000
01000000
00000000
10010000
00000000
00000000
00000000
,
00010000
00000000
00001000
00000100
00000001
00000000
00000010
00001000
,
00010000
00000000
01000000
10000000
00010000
00000000
00001000
00000100
,
00000010
00000000
00000001
00000110
00010000
00000000
01100000
00000000
,
00000000
00000000
00000000
00001001
;

//---------------dance-double - ----------------
#NOTES:
     dance-double:
     :
     Hard:
     12:
     :
00000000
00000000
00000000
00000000
,
00000000
00000000
00000000
00000000
,
00000000
00000000
00000000
00000000
,
01000000
00100000
00010000
10000000
01000000
00100000
00001000
00010000
,
00100000
10000000
01000000
00010000
00001000
00000010
00000001
00000100
,
00001000
00000100
00000100
00000000
00000001
00000100
00000100
00000000
,
00000100
00001000
00010000
00001000
00000100
00001000
00010000
01000000
,
10000000
01000000
11000000
00000000
00100000
00010000
00001000
00000000
,
00000010
00000001
00000100
00000010
00010000
00001000
00000100
00001000
,
00001000
00000100
00000001
00000100
00000010
00001000
00000100
00010000
00001000
00000100
00000010
00000010
00000100
00001000
00010000
01000000
,
00100000
00010000
10000000
00100000
01000000
00010000
00100000
00001000
00010000
00100000
01000000
10000000
01000000
00010000
10000000
01000000
,
00100000
00010000
01000000
00000000
01000000
00010000
00001000
00000000
,
00010000
00001000
00000100
00000000
00100000
00001000
00010000
00000000
,
00010000
00001000
00000100
00000000
00001000
00010000
01000000
00000000
,
10000000
11000000
00000000
00010000
,
01010000
00000000
00000000
00000000
00000000
00000000
00000000
00000000
00000000
00000000
00000000
00000000
10000000
01000000
00100000
00010000
,
10000000
01000000
00100000
00010000
01000000
00100000
00010000
00001000
00010000
01000000
00100000
00010000
01000000
00001000
00010000
00001000
,
00000100
00000010
00010000
00001000
00000010
00001000
00000010
00000001
00000100
00001000
00010000
00100000
01000000
00010000
00100000
00001000
,
00010000
00001000
00000010
00000001
00000100
00000010
00000001
00000010
00001000
00000100
00010000
00001000
00000010
00000001
00000100
00001000
,
00010000
01000000
10000000
00100000
00001000
00100000
00010000
00100000
10000000
01000000
00000000
00000000
00100000
00010000
10000000
01000000
,
00010000
00001000
01000000
00010000
00100000
00001000
00010000
00001000
00000100
00000001
00000010
00000100
00001000
00000010
00010000
00000100
,
00001000
00000010
00010000
00000100
00001000
00000001
00000100
00001000
00010000
01000000
10000000
00010000
00100000
00001000
00010000
00001000
,
00000100
00000010
00010000
00001000
01000000
00010000
00100000
00001000
00010000
00000100
00001000
00000010
00000000
00000000
00000000
00000000
,
00000000
00000000
00000000
00001001
;
