#TITLE:Ball of Confusion;
#SUBTITLE:(That's What the World Is Today);
#ARTIST:The Temptations;
#TITLETRANSLIT:;
#SUBTITLETRANSLIT:;
#ARTISTTRANSLIT:;
#GENRE:;
#CREDIT:;
#BANNER:Ball of Confusion (That's What the World Is Today).png;
#BACKGROUND:Ball of Confusion (That's What the World Is Today)-bg.png;
#LYRICSPATH:;
#CDTITLE:;
#MUSIC:Ball Of Confusion (That's What the World Is Today).ogg;
#OFFSET:0.000000;
#SAMPLESTART:36.926998;
#SAMPLELENGTH:20.000000;
#SELECTABLE:YES;
#DISPLAYBPM:154.000000:163.000000;
#BPMS:0.000000=155.000000
,48.000000=157.000000
,64.000000=159.000000
,80.000000=156.000000
,88.000000=154.000000
,108.000000=155.000000
,124.000000=156.000000
,132.000000=158.000000
,144.000000=160.000000
,152.000000=157.000000
,164.000000=158.000000
,168.000000=160.000000
,184.000000=159.000000
,192.000000=161.000000
,204.000000=159.000000
,208.000000=157.000000
,216.000000=159.000000
,224.000000=160.000000
,232.000000=161.000000
,248.000000=163.000000
,256.000000=159.000000
,276.000000=158.000000
,304.000000=160.000000
;
#STOPS:
;
#BGCHANGES:;
#KEYSOUNDS:;
#ATTACKS:;

//---------------dance-single - ----------------
#NOTES:
     dance-single:
     :
     Medium:
     9:
     0.371424,0.500111,0.183527,0.397642,0.000000,340.000000,316.000000,24.000000,52.000000,0.000000,0.000000,0.371424,0.500111,0.183527,0.397642,0.000000,340.000000,316.000000,24.000000,52.000000,0.000000,0.000000:
0000
0000
0000
0000
,
0000
0000
0000
0000
,
0000
0000
0000
0000
,
0000
0000
0000
0000
,
0000
0000
0000
0000
,
0000
0000
0000
0000
,
0000
0000
0000
0000
,
0000
0000
0000
0000
,
1000
0100
0001
0000
,
1000
0010
0001
0000
,
0010
1000
0001
0100
,
0001
1000
0001
0000
0000
0000
0000
0000
,
1000
0002
0200
0000
0000
0000
0003
0000
,
0010
0310
0100
0000
0000
0001
1000
0001
,
0020
0032
2003
3200
,
2300
0000
3020
0000
0130
0010
0100
0000
,
1001
0000
0100
0000
0010
1000
0001
0000
,
0100
0000
0110
0000
0010
1000
0001
0000
,
1000
1000
0000
0000
0000
0000
0000
0000
,
0000
0000
0001
0100
1000
0000
0000
0000
,
0010
0020
0000
0000
0130
0001
1000
0000
,
0001
0001
0000
0000
0000
0000
1000
0100
,
0010
0010
0000
0000
0001
0001
0000
0000
,
2000
3002
0203
0310
,
0100
0001
0100
0001
0100
0001
0100
0000
,
0010
1000
0010
1000
0010
1000
0010
0000
,
1000
0001
0100
0001
1000
0001
0100
0000
,
0001
0010
0100
1000
0100
0010
0001
0000
,
0010
0001
0100
0001
0000
1001
0000
0000
,
0010
1000
0100
1000
0000
1001
0000
0000
,
0010
0000
0100
0000
0001
0010
1000
0000
,
0200
2300
3002
0023
,
0031
0001
0000
0000
1000
1000
0000
0010
,
0100
0000
0001
0010
0001
0000
0110
0000
,
1000
0000
1100
0000
0001
0100
0010
0000
,
2000
3200
0320
0032
,
0103
0000
0010
0000
1000
0001
0100
0000
,
0101
0101
1001
0000
,
0010
1000
0010
1000
0010
0000
0100
0000
,
0001
0010
0100
1000
0000
0000
0000
0000
,
0010
1000
0001
0200
0000
0000
0310
0100
,
0010
1000
0002
0000
0000
0000
2003
0000
,
3020
0100
0100
0100
,
1030
0000
0001
0000
0100
0100
0000
0010
,
1000
0100
1000
0000
0001
0100
0001
0000
,
0020
0230
0302
2003
,
3001
0010
0001
0000
1000
0010
1000
0000
,
0002
0203
0320
2030
,
3010
1000
0100
0000
0010
0001
0100
0000
,
0001
0100
0001
0100
0010
1000
0100
0000
,
0010
0001
1000
0001
1000
0100
0010
0000
,
0101
0000
1100
0000
0010
0100
0001
0000
,
1000
0000
1100
0000
0001
0100
0010
0000
,
0100
0000
0011
0000
0001
1000
0010
0000
,
1000
0100
1000
0000
0001
0100
0001
0000
,
0010
0000
1000
0100
0020
0000
0031
0000
,
1001
2002
0000
3000
,
0103
0010
0100
0010
0100
0010
0100
0020
,
0000
1000
0000
0001
0000
0100
0000
0001
,
0000
1030
0000
0001
0100
0010
1000
0000
,
0020
0000
1030
0100
0020
0000
0031
0100
,
0002
2003
3200
0300
,
1000
0010
0002
0000
0103
0010
2000
0000
,
3001
1000
0010
0200
0000
0000
0300
0000
,
0110
0000
0000
1010
0000
0000
0202
0000
,
0000
0000
0000
0300
,
1000
0100
1000
0100
,
1003
0000
0000
0000
,
1001
0000
0000
0011
0000
0000
2200
0000
,
0000
0000
0000
0300
,
0001
0010
0001
0010
,
3100
0000
0000
0000
,
1100
0000
0000
0101
0000
0000
2002
0000
,
0000
0000
0000
3000
,
0010
1000
0010
0100
,
1003
0020
1000
0130
,
1000
0100
0010
0001
0010
0100
1000
0000
,
0010
1000
0100
0010
0001
0100
1000
0000
,
0001
0100
0001
1000
0000
0020
0000
0000
,
0000
0000
0000
0000
,
0000
0000
0000
0000
,
0000
0000
0000
0030
;

//---------------dance-single - ----------------
#NOTES:
     dance-single:
     :
     Hard:
     13:
     0.503607,0.625139,0.382348,0.275290,0.072646,461.000000,411.000000,50.000000,36.000000,0.000000,0.000000,0.503607,0.625139,0.382348,0.275290,0.072646,461.000000,411.000000,50.000000,36.000000,0.000000,0.000000:
0000
0000
0000
0000
,
0000
0000
0000
0000
,
0000
0000
0000
0000
,
0000
0000
0000
0000
,
0000
0000
0000
0000
,
0000
0000
0000
0000
,
0000
0000
0000
0000
,
0000
0000
0000
0000
,
1000
0000
0100
1000
0001
0000
0000
0000
,
0001
0000
0010
0001
1000
0000
0000
0000
,
0010
0000
1000
0100
0000
0100
0001
0000
,
1000
0001
0100
0000
0010
0000
0100
0000
,
1001
0002
0100
0000
1000
0000
1003
0000
,
0110
0100
0001
0000
1000
0001
1000
0100
,
1100
1100
0101
0101
,
1001
0000
0110
0000
1000
0010
0100
0001
,
0010
0001
0100
0001
0100
0010
1000
0100
,
1000
0000
0101
0000
0100
0001
0100
0001
,
0010
0010
0001
0000
0100
0000
1000
0000
,
0010
0000
1000
0100
0002
0000
0003
0000
,
0011
0002
0000
1003
0001
0100
0010
1000
,
0100
0100
1000
0000
0000
0000
0001
1000
,
0010
0010
0100
0100
0001
0001
1000
1000
,
0001
0001
0010
0010
0100
0100
1000
1000
,
0001
0000
0100
0000
1000
0000
0100
0010
0100
0000
1000
0000
0100
0000
0001
0000
,
0010
0001
0100
0001
1000
0010
1000
0100
,
0001
0000
0010
0000
0001
0000
0100
0010
0100
0000
0010
1000
0000
1000
0001
0000
,
0100
0000
0100
0000
0010
0000
0010
0000
1000
0100
0000
1000
0001
0000
0001
0000
,
0100
0100
0010
0100
0000
0102
1000
0000
,
0013
0010
0001
0010
0000
2100
0001
0000
,
0100
0100
0000
0100
0100
0100
0000
0100
,
3100
1010
0100
1010
,
0210
0010
0000
0301
1000
1000
0000
0100
,
1100
0000
0010
0001
0100
0001
0010
0000
,
1000
1000
0100
1000
1000
1000
0001
1000
,
1000
0011
1000
0101
,
0020
0000
0031
0200
0000
0001
0301
0010
,
1100
1010
1001
0110
,
0010
1000
0010
0001
0010
0001
0010
1000
,
0100
0010
0100
1000
0000
0001
1010
0000
,
0010
0100
0001
2000
0000
0000
3001
1000
,
0100
0010
0100
1000
0001
0000
0011
0000
,
1002
0100
1000
0100
,
0013
0000
0000
0000
0001
0000
1000
0010
1000
0000
1000
0000
0100
0000
0010
0000
,
0001
0001
0100
0001
0001
0001
0010
0001
,
0001
0000
0110
0000
1000
0000
0110
0100
,
0001
0001
1000
0001
0001
0001
0010
0001
,
0001
0101
1000
1100
,
0001
0010
1000
0010
0001
0100
1000
0100
,
0001
0010
1000
0001
0010
0100
1000
0000
,
0100
0001
0100
1000
0100
0100
0100
0000
,
1002
0000
0103
0001
0010
0010
0010
0000
,
1001
0000
0100
0001
0100
0010
0100
1000
,
0100
0001
0010
0100
1000
0010
0100
0000
,
0010
0010
1000
0010
0010
0010
0100
0010
,
0010
0000
1000
0100
0001
0100
1000
0000
,
0110
0000
0120
0000
0200
0000
0330
0010
,
1000
1000
0001
0001
0100
0100
0010
0010
,
0000
1100
0000
0101
0000
1010
0000
0011
,
0000
0110
0000
1001
0100
0010
1000
0001
,
0200
0001
0001
0301
0200
1000
1000
1300
,
0200
0000
0320
0000
2030
0001
3001
0000
,
0100
0010
0100
0010
1000
1000
1000
0000
,
0001
0010
0100
1000
0000
0010
1001
0000
,
0011
0000
0000
0101
0000
0000
2002
0000
,
0000
0000
0000
3000
0000
0000
1000
0000
0100
0000
1000
0000
,
0010
0000
0100
0000
0010
0000
1000
0000
0010
0000
0200
0000
,
0000
0000
0000
0303
,
0110
0000
0000
1010
0000
0000
2200
0000
,
0000
0000
0000
0300
0000
0000
0010
0000
0001
0000
0010
0000
,
0100
0000
0010
0000
0100
0000
0001
0000
0100
0000
0001
0000
,
0010
0100
0100
3100
,
0110
0000
0000
0101
0000
0000
2020
0000
,
3000
0200
0000
0300
,
0200
0300
2000
3000
0002
0003
0200
0300
,
2030
0000
3020
0000
0002
0003
0200
0300
,
1030
1000
0001
0001
0100
0100
0010
0010
,
1000
1000
0100
0100
0010
0010
0001
0001
,
0100
0100
0010
0100
0000
2002
0000
0000
,
0000
0000
0000
0000
,
0000
0000
0000
0000
,
0000
0000
0000
3003
;

//---------------dance-single - ----------------
#NOTES:
     dance-single:
     :
     Easy:
     6:
     0.219577,0.312569,0.091763,0.114704,0.000000,201.000000,189.000000,12.000000,15.000000,0.000000,0.000000,0.219577,0.312569,0.091763,0.114704,0.000000,201.000000,189.000000,12.000000,15.000000,0.000000,0.000000:
0000
0000
0000
0000
,
0000
0000
0000
0000
,
0000
0000
0000
0000
,
0000
0000
0000
0000
,
0000
0000
0000
0000
,
0000
0000
0000
0000
,
0000
0000
0000
0000
,
0000
0000
0000
0000
,
1000
1000
1000
0000
,
0001
0001
0001
0000
,
0010
0010
0100
0000
,
0001
1000
0000
0000
,
2002
0000
0000
3003
,
1001
0000
0000
0010
,
1000
1000
0001
0001
,
1000
0001
0100
0100
,
0001
0010
0001
0100
,
0010
1000
0001
0100
,
0110
0000
0000
0000
,
0000
0010
1000
0000
,
0220
0330
1000
0001
,
0010
0000
0000
0001
,
0100
0000
0100
0000
,
0010
0000
0010
0000
,
1000
1000
1000
1000
,
0001
0001
0001
0001
,
0100
0100
0100
0100
,
0010
0010
0010
0010
,
1000
0100
0010
0002
,
0000
0000
0000
0003
,
0010
0000
0010
0000
,
0001
1000
0001
0100
,
0110
0000
1001
0000
,
0110
0001
1000
0100
,
1000
0000
1000
0000
,
0010
0100
0010
1000
,
0001
0001
1000
0100
,
1000
0010
0010
0000
,
1000
0010
1000
0100
,
0010
0001
0001
0000
,
1000
0001
0100
0010
,
1000
0001
0000
0100
,
2002
0000
0000
0000
,
0000
3000
2000
3003
,
0001
0000
0001
0000
,
0010
0001
0100
0010
,
1000
0000
1000
0000
,
0100
1000
0010
0100
,
0001
0001
1000
1000
,
0010
1000
0100
0100
,
0010
0001
0100
0100
,
1001
0100
0010
1000
,
0000
0110
0001
0010
,
0100
1000
0000
0010
,
1000
0001
0000
0000
,
0000
0010
0010
0010
,
0110
0220
0000
0330
,
1000
0001
1000
0001
,
0000
0010
0000
0010
,
0000
0001
0100
1000
,
0001
0100
1000
0010
,
0001
0100
0001
0000
,
1000
0100
0010
0001
,
0100
0010
1000
0000
,
0010
0000
0000
0010
0000
0000
0020
0000
,
0000
0000
0000
0000
,
0000
0000
0000
0000
,
0000
0000
0000
0030
,
0100
0000
0000
0100
0000
0000
0200
0000
,
0000
0000
0000
0000
,
0000
0000
0000
0000
,
0000
0000
0000
0300
,
0001
0000
0000
0001
0000
0000
0002
0000
,
0000
0000
0000
0000
,
0000
0000
0000
0000
,
0000
2000
0000
3003
,
1000
0001
0010
0100
,
0010
0001
0100
1000
,
0010
0100
0001
2000
,
0000
0000
0000
0000
,
0000
0000
0000
0000
,
0000
0000
0000
3000
;

//---------------dance-single - ----------------
#NOTES:
     dance-single:
     :
     Beginner:
     3:
     0.122351,0.187542,0.061176,0.076470,0.000000,112.000000,104.000000,8.000000,10.000000,0.000000,0.000000,0.122351,0.187542,0.061176,0.076470,0.000000,112.000000,104.000000,8.000000,10.000000,0.000000,0.000000:
// measure 0
0000
0000
0000
0000
,  // measure 1
0000
0000
0000
0000
,  // measure 2
0000
0000
0000
0000
,  // measure 3
0000
0000
0000
0000
,  // measure 4
0000
0000
0000
0000
,  // measure 5
0000
0000
0000
0000
,  // measure 6
0000
0000
0000
0000
,  // measure 7
0000
0000
0000
0000
,  // measure 8
1000
0000
0000
0000
,  // measure 9
0001
0000
0000
0000
,  // measure 10
0100
0000
0000
0000
,  // measure 11
0010
0000
0000
0000
,  // measure 12
0110
0000
0000
0000
,  // measure 13
1001
0000
0000
0000
,  // measure 14
0001
0000
0001
0000
,  // measure 15
1000
0000
1000
0000
,  // measure 16
0001
0000
0100
0000
,  // measure 17
0010
0000
1000
0000
,  // measure 18
0100
0000
0000
0000
,  // measure 19
0000
1000
1000
0000
,  // measure 20
0001
0000
0010
0000
,  // measure 21
0001
0000
0000
0000
,  // measure 22
1001
0000
0000
0000
,  // measure 23
0000
0000
0000
0000
,  // measure 24
0010
0000
0010
0000
,  // measure 25
0100
0000
0100
0000
,  // measure 26
0001
0000
0001
0000
,  // measure 27
1000
0000
1000
0000
,  // measure 28
0001
0000
0200
0000
,  // measure 29
0000
0000
0300
0000
,  // measure 30
0010
0000
0010
0000
,  // measure 31
1000
0000
0001
0000
,  // measure 32
1000
0000
0100
0000
,  // measure 33
1000
0000
0000
0001
,  // measure 34
0001
0000
0100
0000
,  // measure 35
0010
0000
0010
0000
,  // measure 36
1000
0000
0001
0000
,  // measure 37
0100
0000
0000
0000
,  // measure 38
0010
0000
1000
0000
,  // measure 39
0100
0000
0000
0000
,  // measure 40
0001
0000
0010
0000
,  // measure 41
0100
0100
0000
0000
,  // measure 42
0110
0000
0000
0000
,  // measure 43
0000
0000
0001
0000
,  // measure 44
1000
0000
1000
0000
,  // measure 45
1000
0000
1000
0000
,  // measure 46
0001
0000
0001
0000
,  // measure 47
0001
0000
0001
0000
,  // measure 48
0100
0000
0010
0000
,  // measure 49
0100
0000
0010
0000
,  // measure 50
1000
0000
0001
0000
,  // measure 51
0100
0000
0010
0000
,  // measure 52
0000
0000
1000
0000
,  // measure 53
1000
0000
0000
0010
,  // measure 54
0010
0000
0000
0000
,  // measure 55
0000
0000
1000
0000
,  // measure 56
0001
0001
0000
0000
,  // measure 57
0010
0000
0001
0000
,  // measure 58
0010
0000
0010
0000
,  // measure 59
0100
0000
0100
0000
,  // measure 60
1000
0000
0001
0000
,  // measure 61
1000
0000
0001
0000
,  // measure 62
0100
0000
0010
0000
,  // measure 63
0100
0000
0000
0000
,  // measure 64
0001
0000
0000
2002
,  // measure 65
0000
0000
0000
0000
,  // measure 66
0000
0000
0000
0000
,  // measure 67
3003
0000
0000
0000
,  // measure 68
0100
0000
0000
0220
,  // measure 69
0000
0000
0000
0000
,  // measure 70
0000
0000
0000
0000
,  // measure 71
0330
0000
0000
0000
,  // measure 72
0010
0000
0000
0220
,  // measure 73
0000
0000
0000
0000
,  // measure 74
0000
0000
0000
0330
,  // measure 75
0000
2002
3003
0000
,  // measure 76
1000
0000
0010
0000
,  // measure 77
0100
0000
0001
0000
,  // measure 78
0010
0000
0020
0000
,  // measure 79
0000
0000
0000
0000
,  // measure 80
0000
0000
0000
0000
,  // measure 81
0000
0000
0000
0030
;
