#TITLE:Bad Reputation;
#ARTIST:Joan Jett and the Blackhearts;
#BANNER:Bad Reputation-bn.png;
#BACKGROUND:Bad Reputation-bg.png;
#JACKET:Bad Reputation-jacket.png;
#MUSIC:Bad Reputation.ogg;
#SAMPLESTART:9.412;
#SAMPLELENGTH:20;
#DISPLAYBPM:198:209;
#BPMS:0=204,32=203,39=204,44=205,48=208,52=206,60=204.06,64=205.5,66=203.333,68=206,72=202,76=200,84=201,102=203.5,103=206.7,118=205.25,124=203.67,128=201,136=204.222,156=199,162=204.7,175=202.3,182=206,192=204,208=207,212=200,220=201,224=202,226=209,244=204.2,251=207,256=200.65,266=208,272=205.67,286=201.3,288=198,296=202.21;
#BGCHANGES:;

//---------------dance-single - ----------------
#NOTES:
     dance-single:
     :
     Beginner:
     3:
     :
0000
0000
0000
0000
,
0000
0000
0000
0000
,
0000
0000
0000
0000
,
0000
0000
0000
0000
,
0110
0000
0000
0000
,
0001
0000
0000
0000
,
1000
0000
0000
0000
,
0001
0000
0000
0000
,
1001
0000
0000
0000
,
0000
0000
0000
0000
,
0010
0000
0000
0000
,
0010
0000
0000
0000
,
1001
0000
0000
0000
,
0000
0000
0000
0000
,
0100
0000
0000
0000
,
0100
0000
0000
0000
,
0001
0000
0000
0000
,
0001
0000
0000
0000
,
1000
0000
0001
0000
,
0100
0000
0000
0000
,
0110
0000
0000
0000
,
0000
0000
0000
0000
,
0001
0000
0001
0000
,
0001
0000
0001
0000
,
1000
0000
1000
0000
,
1000
0000
1000
0000
,
0010
0000
0010
0000
,
0010
0000
0010
0000
,
0110
0000
0000
0000
,
0000
0000
0000
0000
,
1000
0000
0000
0000
,
0100
0000
0000
0000
,
1001
0000
0000
0000
,
0000
0000
0000
0000
,
0001
0000
0000
0000
,
0010
0000
0000
0000
,
0100
0000
0000
0000
,
0010
0000
0000
0000
,
0001
0000
1000
0000
,
1001
0000
0000
0000
,
0110
0000
0000
0000
,
0000
0000
0000
0000
,
0010
0000
0010
0000
,
0010
0000
0010
0000
,
1000
0000
1000
0000
,
1000
0000
1000
0000
,
0001
0000
0001
0000
,
0001
0000
0001
0000
,
0100
0000
0100
0000
,
0100
0000
0100
0000
,
0001
0000
1000
0000
,
0010
0000
0100
0000
,
0110
0000
0000
0000
,
0000
0000
0000
0000
,
0010
0000
0000
0000
,
1000
0000
0000
0000
,
1001
0000
0000
0000
,
0000
0000
0000
0000
,
0001
0000
0000
0000
,
0100
0000
0000
0000
,
0010
0000
0000
0000
,
0010
0000
0000
0000
,
1000
0000
0001
0000
,
1001
0000
0000
0000
,
0110
0000
0000
0000
,
0000
0000
0000
0000
,
0001
0000
0001
0000
,
0001
0000
0000
0000
,
0100
0000
0100
0000
,
0100
0000
0000
0000
,
0010
0000
0010
0000
,
0010
0000
0000
0000
,
1000
0000
1000
0000
,
1000
0000
0000
0000
,
2002
0000
0000
0000
,
3003
0000
0000
0000
,
0110
0000
0010
0000
,
1000
0000
0100
0000
,
0010
0000
0001
0000
,
0110
0000
1001
0000
;

//---------------dance-single - ----------------
#NOTES:
     dance-single:
     :
     Easy:
     6:
     :
0000
0000
0000
0000
,
0000
0000
0000
0000
,
0000
0000
0000
0000
,
0000
0000
0000
0000
,
0110
0000
0001
0100
,
1000
0000
0010
1000
,
0100
0000
0010
0001
,
0100
0000
0001
1000
,
2002
0000
0000
0000
,
0000
0000
0000
3003
,
1100
0000
0010
0001
,
0100
0000
0001
1000
,
0220
0000
0000
0000
,
0000
0000
0000
0330
,
0011
0000
0001
0100
,
0001
0000
0010
0100
,
1000
1000
0001
0100
,
0001
0001
0010
0000
,
1000
0100
0001
0100
,
2002
0000
0000
3003
,
0010
0010
1000
0010
,
1000
0100
0010
0010
,
0011
0000
0001
0100
,
0001
0000
1000
0100
,
1100
0000
0010
1000
,
0100
0000
1000
0001
,
1001
0000
0010
1000
,
0100
1000
0001
0000
,
0220
0000
0000
0000
,
0000
0000
0000
0330
,
0101
0000
1000
0100
,
0010
0000
0001
1000
,
2020
0000
0000
0000
,
0000
0000
0000
3030
,
1001
0000
0010
1000
,
0100
0000
0010
0001
,
0100
0100
0010
1000
,
0001
1000
0100
0000
,
0001
0001
1000
1000
,
0202
0000
0000
0303
,
0001
0001
1000
1000
,
0001
0010
0100
1000
,
1010
0000
0001
1000
,
0100
0000
0010
0001
,
0011
0000
0100
0010
,
1000
0000
0001
1000
,
0110
0000
0010
0100
,
0001
0000
0010
0100
,
1100
0000
1000
0010
,
1000
0000
0001
0100
,
0101
0000
0010
1000
,
0100
0010
0001
0000
,
0022
0000
0000
0000
,
0000
0000
0000
0033
,
0110
0001
0010
0001
,
1000
0010
1000
0100
,
2200
0000
0000
0000
,
0000
0000
0000
3300
,
1001
0010
1000
0100
,
1000
0010
0100
0001
,
0010
0001
0100
0100
,
0001
0010
1000
0000
,
0100
1000
0001
0100
,
0220
0000
0000
0330
,
0001
0010
0001
0010
,
0001
1000
0010
0010
,
1000
0000
0001
0000
,
1000
0100
0001
0000
,
0010
0000
0100
0000
,
1000
0010
1000
0000
,
0001
0000
0100
0000
,
0001
0010
0100
0000
,
1000
0000
0010
0000
,
1000
0100
0001
0110
,
2002
0000
0000
0000
,
0000
0000
3003
0010
,
0010
1000
0100
1000
,
0001
0001
0001
0001
,
0000
1000
0100
1000
,
0001
0110
1001
0000
;

//---------------dance-single - ----------------
#NOTES:
     dance-single:
     :
     Medium:
     9:
     :
0000
0000
0000
0000
,
0000
0000
0000
0000
,
0000
0000
0000
0000
,
0000
0000
0000
0000
,
0110
0001
0100
1000
,
1001
0010
1000
0100
,
0011
0001
1000
0010
,
1010
0100
0010
1000
,
0001
0101
1000
1100
,
0010
0000
1000
0001
0000
1000
0001
0000
,
0011
0010
0001
1000
,
1100
0010
0100
0001
,
1000
1010
0001
0011
,
0100
0000
0001
1000
0001
0000
0100
0000
,
0110
0001
0010
1000
,
1001
0100
0010
1000
,
0010
0000
1000
0002
0000
0000
0013
0100
,
1000
0000
0010
0200
0000
0000
0301
0000
,
0011
0000
0001
1000
0001
0200
0300
0000
,
2002
0000
0000
0000
3003
0000
1000
0100
,
1000
0000
0001
0100
0001
0000
1000
0010
,
1000
0000
0001
0010
0002
0000
1003
0000
,
1100
0001
0100
0010
,
1000
0100
0001
1001
,
1001
0010
1000
0010
,
1000
0100
0010
0110
,
0110
0001
0100
0010
,
1000
0001
0100
0000
,
0010
1100
0010
0101
,
1000
0000
0010
0100
0000
0010
0100
0000
,
1010
0001
0010
1000
,
0101
0010
0001
0100
,
0010
1000
0100
0000
0010
0001
0100
0000
,
0002
1003
1100
1100
,
0011
0100
0001
1000
,
0110
0000
0001
0000
0010
0000
1000
0100
,
1000
0002
0003
0000
1001
0000
0010
1000
,
0100
0010
0000
0021
0000
0031
1000
0000
,
1010
0011
1010
0011
,
2002
0000
0000
0000
3003
0000
1000
0010
,
1000
0000
0001
0010
0001
0000
1000
0100
,
1000
0000
0001
0100
0002
0000
1003
0000
,
0101
0001
0010
1000
,
0100
0010
0001
0011
,
0011
0100
0010
1000
,
0001
1000
0100
1010
,
1010
1000
0001
1000
,
0100
0010
0001
0101
,
0101
0001
0001
1000
,
1000
0010
0100
0110
,
0110
0001
0010
1000
,
0100
0010
0001
0000
,
1000
0001
0100
0001
1000
0000
1001
0000
,
0010
0000
1000
0100
0000
1000
0100
0000
,
0011
0000
0001
1000
0001
0000
0101
0000
,
1010
0000
1000
0100
1000
0000
1001
0000
,
0010
1000
0100
0000
2000
0000
3002
0000
,
0103
0010
1000
0000
1001
0000
1001
0000
,
1010
0000
0100
0010
0001
0000
0011
0000
,
1100
0000
0010
1000
0001
0000
0100
0010
,
1000
0000
1000
0001
0100
0000
0010
1000
,
0010
0200
0000
0000
0002
0000
0303
0000
,
0011
0000
1100
0000
0002
2000
3003
0000
,
2002
0000
0000
0000
3003
0000
0001
0100
,
0001
0000
1000
0010
1000
0000
0001
0010
,
0001
0000
1000
0100
2000
0000
3001
0000
,
0110
0010
1000
0100
,
1000
0010
0100
0101
,
0101
0001
0010
0100
,
1000
0010
1000
1100
,
1100
0001
1000
0010
,
1000
0100
0010
0011
,
0011
0100
0010
1000
,
0100
0010
0001
1001
,
2002
0000
0000
0000
,
0000
0000
3003
0110
,
2002
3003
0001
0100
,
1000
0100
0001
0010
,
0011
1000
0001
1000
,
0001
0110
1001
0000
;

//---------------dance-single - ----------------
#NOTES:
     dance-single:
     :
     Hard:
     11:
     :
0000
0000
0000
0000
,
0000
0000
0000
0000
,
0000
0000
0000
0000
,
0000
0000
0000
0000
,
0110
0000
0001
0100
1000
0000
0101
0000
,
1100
0000
0001
0010
1000
0000
1010
0000
,
0011
0000
0010
0100
1000
0000
1001
0000
,
0110
0000
0010
1000
0100
0000
0011
0000
,
1000
0100
0001
0100
1000
0000
0010
0100
,
0002
0000
1003
0020
0000
0000
0130
0000
,
0110
0000
0010
1000
0001
0000
1100
0000
,
0101
0000
0010
1000
0100
0000
1001
0000
,
1000
0100
0001
0100
1000
0000
0010
0100
,
0001
0011
0110
1100
,
1001
0000
0010
1000
0001
0000
1010
0000
,
0101
0000
0010
1000
0100
0000
0010
0001
,
0200
0000
0310
2000
0000
0000
3100
0010
,
0002
0000
1003
0020
0000
0130
0001
0000
,
0012
0103
2010
3001
,
0101
0000
0001
0100
1000
0000
0010
0100
,
0001
0000
0010
0100
1000
0000
0001
1000
,
0100
0000
1000
0001
0100
0000
0110
0000
,
0101
0000
0010
1000
0000
0100
0010
0001
,
0000
0100
0010
0000
1000
0000
0011
0000
,
1100
0000
0001
0100
0001
0000
0010
0100
,
1000
0000
0010
0100
0001
0000
1001
0000
,
1010
0000
0100
1000
0001
0000
0010
0100
,
1000
0000
0001
1000
0100
0000
0110
0000
,
0001
0100
1000
0100
0001
0000
0010
0100
,
2000
0000
3010
0200
0000
0000
0301
0000
,
0101
0000
0001
0010
1000
0000
1001
0000
,
0110
0000
0010
1000
0100
0000
1100
0000
,
0001
0100
1000
0100
0001
0000
0010
0100
,
1000
1100
1010
1001
,
0110
0000
0001
0010
0100
0000
0011
0000
,
1010
0000
0100
0001
1000
0000
0010
0100
,
0001
0000
0001
0010
0200
0000
1300
0001
,
1000
0010
0000
0200
0000
0301
1000
0000
,
1100
0101
1100
0101
,
1001
0000
0010
1000
0001
0000
1000
0100
,
0010
0000
0001
0100
0001
0000
1000
0100
,
0010
0000
0001
1000
0100
0000
0110
0000
,
0011
0000
0100
0010
0000
1000
0001
1000
,
0000
0100
0010
0000
0001
0000
0101
0000
,
1010
0000
0100
1000
0001
0000
1000
0010
,
0100
0000
0001
0010
1000
0000
0110
0000
,
1001
0000
0010
1000
0001
0000
1000
0100
,
0010
0000
0001
0100
0001
0000
0011
0000
,
1100
0000
0010
1000
0001
0000
1000
0100
,
0010
0000
0001
0100
1000
0000
1001
0000
,
1010
0000
0100
0010
0001
0000
0100
0010
,
1000
0000
0001
0100
0010
0000
0101
0000
,
0010
0001
1000
0001
0010
0000
0100
1000
,
0002
0000
1003
0200
0000
0000
0310
0000
,
0001
0100
0010
0000
1000
0100
0010
0000
,
0001
1000
0010
0000
1000
0100
1000
0000
,
0100
1000
0100
0001
0100
0000
0110
0000
,
0001
0010
1000
0010
0001
0000
1100
0000
,
0020
0000
1030
0001
0200
0000
0310
0000
,
2000
0000
3100
0010
0002
0000
1003
0001
,
1000
0000
0010
0100
0002
0000
1003
0010
,
1000
0200
0000
0000
0001
0000
1300
0000
,
1100
0000
0101
0000
1000
0100
0001
0000
,
1001
0000
0010
1000
0010
0000
1000
0100
,
0010
0001
0010
0100
1000
0000
0010
0100
,
0001
0000
1000
0100
1000
0000
1100
0000
,
0110
0000
0001
0100
0000
0010
1000
0100
,
0000
1000
0001
0000
0100
0000
1010
0000
,
1100
0000
0010
0001
0010
0000
0001
0100
,
0001
0000
0100
0010
1000
0000
1001
0000
,
0011
0000
0010
0100
1000
0000
0001
1000
,
0010
0000
1000
0100
1000
0000
0101
0000
,
1010
0000
0001
0010
0100
0000
1000
0010
,
1000
0000
0100
0010
0001
0000
0110
0000
,
2001
0010
0010
0010
,
0010
0010
3010
1100
,
0102
0000
1000
0000
1003
0100
0001
0000
,
0010
0001
0100
0000
0100
0010
1000
0000
,
0011
0000
0001
0100
0010
0000
1000
0100
,
1000
0110
1001
0000
;

//---------------dance-single - ----------------
#NOTES:
     dance-single:
     :
     Challenge:
     13:
     :
0000
0000
0000
0000
,
0000
0000
0000
0000
,
0000
0000
0000
0000
,
0000
0000
0000
0000
,
0110
0000
0001
0100
0010
0100
0001
1000
,
1100
0000
0010
0100
0001
1000
0100
0010
,
0011
0000
0100
0001
0010
0100
1000
0001
,
1001
0000
0100
0001
0010
0100
1000
0001
,
1000
0100
0001
0100
1000
0010
0100
0001
,
0020
0000
0031
2000
0000
3001
0100
0000
,
1010
0000
0100
1000
0001
1000
0010
0100
,
0101
0000
0010
0001
1000
0010
1000
0100
,
0010
0001
1000
0001
0010
0100
1000
0010
,
0200
0000
0301
0010
0001
1000
0100
0000
,
0110
0000
0010
0001
0100
0001
1000
0100
,
1100
0000
0010
1000
0100
0010
0001
1000
,
2001
0000
3010
2000
0000
3100
0010
0001
,
0201
0000
0310
2000
0000
3001
0100
0000
,
0101
0000
0010
1000
0002
0100
0103
0000
,
0011
0000
0010
0001
0100
0010
1000
0001
,
1001
0000
0010
0100
0110
0000
0001
1000
,
1010
0000
0010
0100
0001
0000
1100
0000
,
0101
0000
1000
0010
1000
0100
1000
0010
,
1000
0100
0010
0001
0100
0000
0011
0000
,
1100
0000
0001
0010
0001
0100
0001
0010
,
0001
1000
0010
1000
0100
0000
1001
0000
,
0110
0000
0001
0010
0001
0100
0010
1000
,
0100
0010
0001
0100
0001
0000
0011
0000
,
1000
0001
0010
0001
0100
0010
1000
0100
,
0020
0000
0031
0200
0000
0310
1000
0000
,
1001
0000
0010
0001
0100
0010
1000
0001
,
0101
0000
0010
0001
0100
0010
1000
0001
,
0010
0100
0010
0001
1000
0100
0010
0001
,
0200
0000
0301
1000
0020
0000
0130
0000
,
0110
0000
0010
1000
0001
0010
0100
1000
,
1100
0000
0010
1000
0100
0010
0001
1000
,
0001
0001
1000
0010
1000
0100
0001
0000
,
0010
0001
0000
1002
0000
0103
0010
0000
,
1000
0001
0010
0001
0200
0000
0310
0000
,
1010
0000
0001
1000
0010
1000
0100
0010
,
0011
0000
0001
0100
1010
0000
0100
0010
,
1001
0000
1000
0001
0100
0000
0110
0000
,
0101
0000
0010
0001
1000
0001
0010
0100
,
0010
0001
1000
0010
0100
0000
1001
0000
,
1100
0000
0001
1000
0100
1000
0010
0100
,
0010
1000
0100
0010
0001
0000
0011
0000
,
1010
0000
0100
0010
0100
1000
0010
0100
,
0001
0010
0001
0100
0010
0000
0101
0000
,
1001
0000
0010
1000
0100
0010
0001
0100
,
0001
0010
0100
1000
0010
0000
1001
0000
,
1010
0000
0001
0100
0010
0100
0001
0010
,
0100
1000
0001
1000
0100
0000
0110
0000
,
0001
0100
0010
0100
0001
0010
0100
1000
,
0200
0000
0310
0002
0000
1003
0010
0000
,
1000
0100
1000
0100
0001
0100
0001
0100
,
1000
0010
1000
0010
0001
0010
0001
0010
,
1000
0001
1000
0100
0010
0000
0011
0000
,
0001
0100
1000
0100
0001
0000
1010
0000
,
0001
0100
0001
0100
0010
1000
0010
1000
,
0100
0010
0100
0010
0001
1000
0001
1000
,
0110
0000
0010
1000
0101
0000
0010
0001
,
1000
0001
0100
0000
0011
0000
1100
0000
,
2001
0000
3010
0000
2000
0001
3001
0000
,
0011
0000
0010
0001
0100
0010
1000
0001
,
0100
0010
0100
1000
0100
0010
0100
0001
,
0010
0000
0001
0100
1000
0000
0101
0000
,
1001
0000
0010
1000
0100
0000
0010
0001
,
0100
0000
0001
0010
1000
0000
1001
0000
,
1100
0000
0001
0010
0100
0000
1000
0001
,
1000
0000
0010
0100
0001
0000
0011
0000
,
0110
0000
1000
0010
0100
0010
1000
0100
,
0010
0001
1000
0001
0100
0000
1010
0000
,
0101
0000
1000
0100
1000
0010
0100
0001
,
0010
1000
0010
0001
0100
0000
0110
0000
,
2001
0000
3010
1000
0100
1000
0010
0100
,
0001
0010
1000
0010
0001
0000
0011
0000
,
0102
0000
1003
0001
1000
0100
1000
0010
,
0100
1000
0100
0001
0010
0100
1000
0000
,
0010
0000
1000
0001
1000
0100
0010
0001
,
0100
0010
0110
0000
1001
0000
0000
0000
;
