#TITLE:Back-To-Back;
#ARTIST:Piston Divers;
#BANNER:Back-To-Back.png;
#BACKGROUND:Back-To-Back-bg.png;
#JACKET:Back-To-Back-jacket.png;
#MUSIC:Back-To-Back.ogg;
#SAMPLESTART:8.666;
#SAMPLELENGTH:20;
#DISPLAYBPM:166;
#BPMS:0=166;
#BGCHANGES:;

//---------------dance-single - ----------------
#NOTES:
     dance-single:
     :
     Beginner:
     3:
     :
0000
0000
0000
0000
,
0000
0000
0000
0000
,
0000
0000
0000
0000
,
0000
0000
0000
0000
,
0000
0000
0000
0000
,
0000
0000
0000
0000
,
1000
0000
1000
0000
,
0100
0000
0000
0000
,
0001
0000
0000
0000
,
0100
0000
0000
0000
,
1000
0000
1000
0000
,
0010
0000
0000
0000
,
0001
0000
0000
0000
,
0010
0000
0000
0000
,
1000
0000
0001
0000
,
0100
0000
0100
0000
,
0010
0000
0010
0000
,
1000
0000
1000
0000
,
0001
0000
1000
0000
,
0100
0000
0100
0000
,
0010
0000
0010
0000
,
0001
0000
1000
0000
,
1001
0000
0000
0000
,
0001
0000
0000
0000
,
1000
0000
0000
0000
,
0100
0000
0000
0000
,
0110
0000
0000
0000
,
0100
0000
0000
0000
,
0100
0000
0000
0000
,
0100
0000
0000
0000
,
1000
1000
0000
0000
,
0001
0001
0000
0000
,
1000
0000
0001
0000
,
1000
0000
0001
0001
,
0001
0000
0001
0000
,
0100
0000
0100
0000
,
0010
0000
0010
0000
,
1000
0000
1000
1000
,
1000
0000
1000
0000
,
0100
0000
0100
0000
,
0010
0000
0010
0000
,
0001
0000
1000
0000
,
0002
0000
0000
0003
,
0001
0000
0000
0000
,
2000
0000
0000
3000
,
1000
0000
0000
0000
,
0020
0000
0000
0030
,
0010
0000
0000
0000
,
0200
0000
0000
0300
,
0100
0000
0100
0000
,
1001
0000
0000
0000
,
0010
0000
0010
0000
,
0010
0000
0000
0000
,
0100
0000
0100
0000
,
0110
0000
0000
0000
,
0001
0000
0001
0000
,
0001
0000
0000
0000
,
1000
0000
1000
0000
,
1001
0000
0000
0000
,
0100
0000
0001
0000
,
1000
0000
0000
0000
,
0100
0000
1000
0000
,
0001
0000
0000
0000
,
0010
0000
0001
0000
,
1000
0000
0000
0000
,
0010
0000
1000
0000
,
0000
0001
0000
0000
;

//---------------dance-single - ----------------
#NOTES:
     dance-single:
     :
     Easy:
     6:
     :
0000
0000
0000
0000
,
0000
0000
0000
0000
,
0000
0000
0000
0000
,
0000
0000
0000
0000
,
0000
0000
0000
0000
,
0000
0000
0000
0000
,
1001
0000
0110
0000
,
0100
0100
0010
0000
,
1000
1000
0001
0000
,
0010
0010
0100
0100
,
0110
0000
1001
0000
,
1000
1000
0010
0000
,
0100
0100
0001
0000
,
0010
0010
0100
0100
,
1100
0000
1100
0000
,
1000
0010
0200
0300
,
0001
0010
0200
0300
,
1000
0100
0002
0003
,
0101
0000
0101
0000
,
0100
1000
0020
0030
,
0100
0001
0020
0030
,
0100
0100
1000
0001
,
2002
0000
0000
0000
,
0000
0000
0000
3003
,
0000
0100
0000
0100
,
0000
0100
0000
0100
,
2000
0000
0000
3000
,
0002
0000
0000
0003
,
2000
0000
0000
3000
,
0002
0000
0000
0003
,
0000
0100
0000
0010
,
0000
1000
0000
0100
,
0010
0010
0001
0001
,
1000
0001
1000
0001
,
0100
0000
0010
0000
,
0010
0100
0010
0100
,
0001
0000
0010
0000
,
0001
0010
0001
0010
,
0100
0000
1000
0000
,
0100
1000
0100
1000
,
0001
0000
1000
0000
,
0001
1000
0002
0003
,
1001
2000
0000
0001
,
0000
0001
0000
3001
,
0001
0002
0000
1000
,
0000
1000
0000
1003
,
0100
0020
0000
0001
,
0000
0001
0000
0031
,
0100
0020
0000
1000
,
0000
1000
0000
1030
,
0001
0000
1000
0000
,
0001
1000
0100
0100
,
0010
0000
0100
0000
,
0010
0100
1000
1000
,
0010
0000
0100
0000
,
0010
0100
0001
0001
,
1000
0000
0001
0000
,
0010
0100
1000
0001
,
2000
3000
0002
0003
,
0200
0300
0010
0010
,
0020
0030
0200
0300
,
0002
0003
0010
0010
,
0020
0030
0200
0300
,
2000
3000
0001
0001
,
0002
0003
0200
0300
,
0020
0030
1000
0001
,
0000
2002
0000
0000
,
0000
3003
0000
0000
;

//---------------dance-single - ----------------
#NOTES:
     dance-single:
     :
     Medium:
     9:
     :
0000
0000
0000
0000
,
0000
0000
0000
0000
,
0000
0000
0000
0000
,
0000
0000
0000
0000
,
0000
0000
0000
0000
,
0000
0000
0000
0000
,
1001
0000
0000
1001
0000
0000
0010
0000
,
0001
0100
0001
0000
0100
0000
0010
0000
,
1000
0010
1000
0000
0100
0000
1000
0000
,
0001
0100
0010
0000
1000
0100
0010
0000
,
1001
0000
0000
1001
0000
0000
0100
0000
,
0001
0010
0001
0000
0010
0000
0100
0000
,
1000
0100
1000
0000
0100
0000
0010
0000
,
0001
0100
0001
0000
1000
0000
0010
0000
,
0110
0000
0000
0210
0000
0000
0000
0000
,
0301
0000
0100
2000
0000
0000
3100
0000
,
0001
0000
0010
2000
0000
0000
3010
0000
,
0001
0000
0100
2000
0000
0000
3100
0000
,
0110
0000
0000
0210
0000
0000
0310
0000
,
1000
0000
0100
0002
0000
0000
0103
0000
,
1000
0000
0010
0002
0000
0000
0013
0000
,
1000
0001
0000
0010
0000
0100
1000
0000
,
2002
0000
0000
3003
,
0000
0100
0000
0010
,
0000
0100
0000
0010
,
0000
1000
0001
1000
,
0002
0000
0000
0003
,
0200
0000
0000
0300
,
2000
0000
0000
3000
,
0200
0000
0000
0300
,
0010
0000
0100
0000
0010
0010
0100
0000
,
0001
0000
1000
0000
0001
0001
1000
0000
,
1100
1100
0101
0101
,
1000
0001
1000
0001
1000
0000
1001
0000
,
0100
0000
0001
0010
0000
0001
1000
0000
,
0010
0001
0010
1000
,
0100
0000
1000
0010
0000
1000
0001
0000
,
1000
0010
0100
0101
,
1100
0000
0000
0010
0000
0000
1000
0000
,
0100
1000
0010
0100
,
0001
0000
0000
0010
0000
0000
0100
0000
,
1000
0010
2002
3003
,
1001
1000
0001
0100
,
1000
0100
0001
0010
,
0100
0010
0001
0010
,
0100
1000
0100
0001
,
0100
0100
0010
0010
,
0001
1000
0001
1000
,
0010
0010
0100
0100
,
0001
0000
1000
0000
0001
1000
0001
1000
,
1001
0000
0000
1001
0000
0000
0100
0000
,
0010
1000
0100
1000
,
0020
0000
0000
0230
0000
0000
0301
0000
,
0100
1000
0100
0010
,
1010
0000
0000
0101
0000
0000
1000
0000
,
0100
0010
0001
0100
,
0020
0000
0000
0230
0000
0000
0300
0000
,
1000
0100
0001
0010
,
0200
0000
0000
0302
0000
0000
0203
0000
,
0000
0320
0000
0000
1030
0000
0010
0000
,
0002
0000
0000
0203
0000
0000
2300
0000
,
0000
3200
0000
0000
0310
0000
1000
0000
,
0002
0000
0000
0023
0000
0000
0230
0000
,
0000
2300
0000
0000
3100
0000
1000
0000
,
1010
0000
0000
0101
0000
0000
0011
0000
,
0000
1100
0000
0000
1001
0000
0110
0000
,
0000
2002
0000
0000
,
0000
3003
0000
0000
;

//---------------dance-single - ----------------
#NOTES:
     dance-single:
     :
     Hard:
     13:
     :
0000
0000
0000
0000
,
0000
0000
0000
0000
,
0000
0000
0000
0000
,
0000
0000
0000
0000
,
0000
0000
0000
0000
,
0000
0000
0000
0000
,
0110
0000
0000
1001
0000
0000
0010
0000
,
1000
0100
0010
0001
0000
0010
0100
0010
,
0001
0100
0010
1000
0000
0010
0100
0000
,
0001
0010
1000
0010
0001
0100
1000
0100
,
0110
0000
0000
1001
0000
0000
0100
0000
,
0001
0010
0100
1000
0000
0100
0010
0100
,
1000
0010
0100
0001
0000
0100
0010
0000
,
1000
0100
0010
0001
1000
0100
0010
0001
,
2002
0000
3003
0220
0000
0000
0330
0000
,
0001
1000
0000
0000
0100
0000
1000
0001
0000
0000
0100
0000
0010
0000
0000
0000
,
1000
0100
0001
0100
1000
0010
0100
0001
,
0010
1000
0010
0001
1000
0010
0100
0000
,
0220
0000
0330
2002
0000
0000
3003
0000
,
0001
1000
0000
0000
0010
0000
1000
0001
0000
0000
0010
0000
0100
0000
0000
0000
,
1000
0010
0001
0010
1000
0100
0010
0001
,
0200
0020
0300
1030
0000
0001
1100
0000
,
0101
0000
0000
0010
1000
0000
0001
1000
,
0001
0100
0020
0001
0030
0000
0010
1000
,
0100
0000
0000
0010
0001
0000
1000
0001
,
1000
0100
0020
1000
0030
0000
0010
0002
,
0200
0000
0000
0000
0000
0000
0000
0003
,
0320
2000
0000
0000
0000
0000
0000
0030
,
3002
0020
0000
0000
0000
0000
0000
0003
,
0230
2000
0000
0000
0000
0000
0000
0300
,
3010
0000
0000
0000
0101
0000
0000
0000
0010
0000
0010
0000
0100
0000
0001
1000
,
0100
0000
0000
0000
0011
0000
0000
0000
0100
0000
0100
0000
0010
0000
0001
0010
,
0001
0000
0010
0100
0010
0000
0100
1000
0100
0000
1000
0001
1000
0000
0001
1000
,
0001
1000
0001
1000
0001
1000
0001
0000
,
1001
0000
0100
0001
0000
0100
1000
0000
,
0100
0000
0010
0001
0010
0001
1001
0000
,
1010
0000
0010
0001
0000
0010
1000
0000
,
0010
0000
0100
0001
0010
0100
1000
0100
,
1001
0000
0010
1000
0000
0010
0001
0000
,
0010
0000
0100
1000
0100
1000
1001
0000
,
0101
0000
0100
1000
0000
0100
0001
0000
,
0100
0010
1000
0100
0110
0000
1001
0000
,
0010
0000
0001
0000
1000
0100
0000
1000
0010
0000
1000
0001
0000
1000
0100
0000
,
0010
0000
0001
0000
0100
0001
0000
0010
0001
0000
1000
0001
0000
0100
0001
0000
,
1000
0000
0010
0000
0100
0001
0000
0100
0010
0000
0100
1000
0000
0100
0010
0000
,
0100
0000
0001
0000
0010
0100
0000
0010
1000
0000
0010
0100
0000
0010
0001
0000
,
1000
0000
0001
0000
0100
0010
0000
1000
0001
0000
0010
0100
0000
1000
0001
0000
,
0010
0000
1000
0000
0010
0100
0000
1000
0001
0000
0100
0010
0000
1000
0010
0000
,
0100
0000
0001
0000
0010
0001
0000
0100
0010
0000
1000
0100
0000
0010
0001
0000
,
0100
0000
0010
0000
1000
0100
0000
0010
0001
0000
0100
0010
0000
1000
0001
0000
,
1001
0000
0000
0110
0000
0000
0010
1000
,
0010
0100
0001
0100
0010
1000
0100
0000
,
0010
0100
1000
0000
0010
0100
0001
0000
,
1000
0010
0100
0001
0010
0100
1000
0010
,
1001
0000
0000
0110
0000
0000
0010
0001
,
0010
0100
1000
0100
0010
0001
0100
0000
,
0010
0100
0001
0000
0010
0100
1000
0000
,
0001
0010
0100
1000
0010
0100
0001
0010
,
0200
0000
0000
2300
0000
0000
3020
0000
,
0000
0032
0000
0000
0013
0000
0100
0000
,
2200
0000
0000
0000
0000
0000
0000
0000
3300
0000
0000
0000
0000
0202
0000
0000
0000
0000
0000
0000
0000
0303
0000
0000
0000
0022
0000
0000
0000
0000
0000
0000
,
0000
0033
0000
0000
0000
2020
0000
0000
0000
0000
0000
0000
3030
0000
0000
0000
0110
0000
0000
0000
0000
0000
0000
0000
0101
0000
0000
0000
0000
0000
0000
0000
,
0001
0002
0000
0103
0200
0000
1300
2000
,
0000
3010
0020
0000
0031
0001
0010
0010
,
1000
0000
0000
0001
0010
0000
0100
0000
0000
1000
0010
0000
0100
0000
0000
0001
,
0010
0100
1000
0001
0100
0020
0200
0000
,
0000
0330
2002
0000
0000
0000
0000
0000
,
0000
3003
0000
0000
;

//---------------dance-single - ----------------
#NOTES:
     dance-single:
     :
     Challenge:
     17:
     :
0000
0000
0000
0000
,
0000
0000
0000
0000
,
0000
0000
0000
0000
,
0000
0000
0000
0000
,
0000
0000
0000
0000
,
0000
0000
0000
0000
,
1000
0100
0001
0000
0010
0000
0001
0100
1000
0000
0010
0000
0010
0000
0100
0000
,
1000
0100
0010
0000
0001
0100
0010
1000
0000
1000
0001
0000
0010
0000
0001
0100
,
1000
0000
0010
0000
0100
0000
0001
1000
0000
0001
0010
0000
0100
0000
1000
0000
,
0020
0030
0020
0030
0200
0300
0200
0300
2000
3000
0002
0003
2000
3000
0002
0003
,
0010
0001
0100
0000
1000
0000
0100
0001
0010
0000
1000
0000
1000
0000
0001
0000
,
0010
0100
1000
0000
0001
0000
0100
0010
0000
1000
0010
0000
0100
0001
1000
0001
,
0010
0000
0001
0000
0100
0000
1000
0010
0100
0010
1000
0000
0001
0100
0001
1000
,
0010
0100
0001
0000
0010
0000
0100
1000
0000
1000
0001
0010
0001
0000
0100
0000
,
1000
0010
0001
0000
0100
0000
0001
0010
1000
0000
0100
0010
0100
0000
1000
0000
,
0001
0010
0100
0000
1000
0010
0100
0001
1000
0001
0010
0100
1000
0000
0001
0000
,
0100
0000
0010
0000
1000
0000
0100
0010
0001
1000
0001
0000
0010
0001
0100
1000
,
0001
0000
0010
0000
1000
0000
0100
0010
0100
1000
0001
0100
0010
0000
1000
0000
,
0001
0100
0010
0000
1000
0000
0010
0100
0001
0000
1000
0000
1000
0000
0001
0000
,
0010
0001
1000
0000
0100
0000
0010
0001
0000
1000
0010
1000
0100
0000
0010
0001
,
1000
0000
0010
0000
0100
0000
0010
1000
0001
1000
0100
0000
0010
0001
0100
0001
,
1000
1100
0000
0110
0000
0011
1010
0100
,
1001
0000
0010
0000
0100
0000
0001
0010
0000
0000
0001
1000
0001
0000
0100
0000
,
0010
0000
0000
0000
0000
0000
0101
0000
0000
0000
1000
0001
1000
0000
0100
0000
,
0010
0000
0001
0000
0100
0000
0001
1000
0001
1000
0010
1000
0100
0010
0001
0100
,
0010
0001
0010
0100
0010
1000
0010
0000
0100
0001
0100
0001
1000
0000
0100
0010
,
0002
0000
0000
0000
0000
0000
0000
0000
0000
0000
0000
0000
0000
0000
0000
0013
,
1000
0000
0100
0000
0010
0000
0000
0200
0000
0000
0000
0000
0000
0000
0000
1300
,
0020
0000
0000
0000
0130
0000
0001
1000
0010
1000
0001
0000
0010
0000
0000
0001
,
1000
0000
1000
0000
0010
0000
0100
0001
0000
0000
1000
0100
1000
0000
0001
0010
,
0200
0000
0000
0000
1300
0010
0000
1010
0000
0010
1000
0000
0001
0100
0001
0100
,
0001
0000
1000
0000
0010
0100
0010
0100
0000
0001
1000
0000
1100
0000
0100
0010
,
0001
0000
0100
0010
0000
0010
1000
0000
0100
1000
0001
1000
0100
0010
0001
0000
,
0010
0100
0010
0100
0010
0100
0010
0100
0010
0100
0010
0100
0010
0100
0010
0000
,
1001
0000
0001
0000
0010
0100
1000
0000
0010
1000
0001
0000
0100
0010
1000
0000
,
0001
0000
0010
0000
1000
0000
0100
0000
0010
0001
0010
0100
1000
0001
1000
0100
,
0001
0010
0000
0100
1000
0000
0010
0100
0001
0000
1000
0100
1000
0000
0001
0010
,
0100
0000
1000
0000
0010
0000
1000
0001
0010
0100
0010
0001
0100
1000
0001
0000
,
0110
0000
0010
0000
1000
0000
0100
0010
0001
0000
1000
0010
1000
0001
0100
0000
,
0010
0000
1000
0000
0200
2300
3020
2030
3200
0320
0032
0023
0032
2003
3002
0203
,
0310
0000
1000
0000
0100
0000
1000
0010
0001
0000
0100
0000
0010
1000
0001
0000
,
0010
0000
0001
0100
1000
0000
0010
1000
0002
0023
0032
0023
0230
2300
3200
2300
,
3001
0100
0010
0000
1000
0000
0100
0010
0001
0100
0001
0000
1000
0000
0010
0000
,
0100
0000
0001
0000
0010
0000
0001
0100
0010
1000
0100
1000
0001
1000
0100
0010
,
0001
1000
0001
0000
0100
0000
0010
1000
0001
1000
0010
0000
0100
0001
0010
0100
,
1000
0000
0010
0000
0100
0000
1000
0001
1000
0100
0010
0001
0100
0000
0001
0010
,
0001
0100
0010
0000
1000
0000
0100
0010
0000
0001
1000
0010
1000
0000
0100
0001
,
0010
0001
0010
0100
1000
0000
0010
1000
0100
1000
0001
0000
0010
0001
1000
0100
,
0001
0000
0010
0000
1000
0000
0100
0010
0001
0100
0001
0000
1000
0001
1000
0010
,
0100
0001
0010
0000
0100
1000
0001
1000
0010
0000
0100
0001
0010
0100
1000
0000
,
0001
0010
1000
0000
0100
0000
1000
0010
0001
0000
0100
0000
0100
0000
0010
0000
,
0101
0100
1000
0010
1000
0001
0010
0100
,
0011
0000
1000
0000
0010
0000
1000
0200
0301
0100
0010
0000
0001
1000
0010
0100
,
0001
0010
0100
0000
1000
0001
1000
0010
0100
0001
1000
0000
0100
1000
0010
0000
,
0100
0001
0010
0000
1000
0000
0010
0001
0100
0000
0010
0000
0010
0000
1000
0000
,
1100
0010
0101
0010
1000
0001
1000
0100
,
0001
0020
0130
0000
1000
0000
0020
0130
0000
0001
1000
0200
0300
0010
0001
0100
,
1000
0000
0010
0100
0010
1000
0002
0000
0203
0000
0310
0000
1000
0100
1000
0001
,
0010
0000
0001
0100
0001
0000
1010
0000
1000
0100
1000
0000
0011
0000
0100
0010
,
0100
0000
1001
0000
0010
1000
0001
0000
0100
0010
1000
0000
0100
0010
0001
0000
,
0110
0000
1000
0010
1000
0000
0011
0000
0100
0010
0100
0000
1010
0000
1000
0001
,
1000
0000
0110
0000
0001
0010
0100
0000
1000
0010
1000
0010
1000
0001
0010
0100
,
1000
0000
0010
0100
0001
0000
1001
0000
0100
0010
1000
0000
0101
0000
0001
1000
,
0010
0000
1100
0000
1000
0100
0001
0000
0010
0100
0010
0000
0001
0100
1000
0000
,
0010
1000
0100
1000
0010
0000
0100
0001
0010
0001
0100
0000
0001
0100
1000
0100
,
0001
0000
1000
0010
0001
0010
1000
0000
0100
0010
0001
0100
0010
1000
0001
1000
,
0100
0010
0100
0010
0002
0000
0000
0000
0000
0000
0000
0000
0000
0000
0000
0000
,
2000
0000
0000
0000
,
0000
0000
0000
0000
,
3003
0000
0000
0000
;

//---------------dance-double - ----------------
#NOTES:
     dance-double:
     :
     Easy:
     6:
     :
00000000
00000000
00000000
00000000
,
00000000
00000000
00000000
00000000
,
00000000
00000000
00000000
00000000
,
00000000
00000000
00000000
00000000
,
00000000
00000000
00000000
00000000
,
00000000
00000000
00000000
00000000
,
00011000
00000000
00011000
00000000
,
00000100
00000100
00000010
00000000
,
00000001
00000001
00001000
00000000
,
00000100
00000100
00001000
00001000
,
00001001
00000000
00001001
00000000
,
00000001
00000001
00000100
00000000
,
00001000
00001000
00010000
00000000
,
00100000
00100000
10000000
10000000
,
10010000
00000000
10010000
00000000
,
10000000
01000000
20000000
30000000
,
00010000
01000000
00020000
00030000
,
00100000
01000000
00020000
00030000
,
00011000
00000000
00011000
00000000
,
00010000
00001000
00020000
00030000
,
00000100
00001000
00000200
00000300
,
00000010
00000010
00000001
00001000
,
00002002
00000000
00000000
00000000
,
00000000
00000000
00000000
00003003
,
00000000
00000100
00000000
00000100
,
00000000
00001000
00000000
00001000
,
00020000
00000000
00000000
00030000
,
02000000
00000000
00000000
03000000
,
20000000
00000000
00000000
30000000
,
00200000
00000000
00000000
00300000
,
00000000
00010000
00000000
00001000
,
00000000
00000100
00000000
00000001
,
00001000
00001000
00000001
00000001
,
00001000
00000001
00001000
00000001
,
00000100
00000000
00000001
00000000
,
00000100
00000001
00000100
00000001
,
00001000
00000000
00000100
00000000
,
00001000
00000100
00001000
00000100
,
00010000
00000000
00001000
00000000
,
00010000
00001000
00010000
00001000
,
00100000
00000000
00010000
00000000
,
00100000
00010000
00200000
00300000
,
01100000
02000000
00000000
10000000
,
00000000
10000000
00000000
13000000
,
00100000
02000000
00000000
00010000
,
00000000
00010000
00000000
03010000
,
00100000
00002000
00000000
00010000
,
00000000
00010000
00000000
00013000
,
00000100
00002000
00000000
00000010
,
00000000
00000010
00000000
00003010
,
00000100
00000000
00000001
00000000
,
00000010
00000001
00000100
00000100
,
00001000
00000000
00010000
00000000
,
00001000
00010000
00100000
00100000
,
10000000
00000000
01000000
00000000
,
00100000
01000000
00010000
00010000
,
00100000
00000000
00010000
00000000
,
00100000
00001000
00010000
00001000
,
00020000
00030000
00002000
00003000
,
00000200
00000300
00000001
00000001
,
00000200
00000300
00002000
00003000
,
00020000
00030000
00100000
00100000
,
20000000
30000000
02000000
03000000
,
00020000
00030000
00001000
00001000
,
00000200
00000300
00000002
00000003
,
00000020
00000030
00001000
00010000
,
00000000
00022000
00000000
00000000
,
00000000
00033000
00000000
00000000
;

//---------------dance-double - ----------------
#NOTES:
     dance-double:
     :
     Medium:
     9:
     :
00000000
00000000
00000000
00000000
,
00000000
00000000
00000000
00000000
,
00000000
00000000
00000000
00000000
,
00000000
00000000
00000000
00000000
,
00000000
00000000
00000000
00000000
,
00000000
00000000
00000000
00000000
,
00011000
00000000
00000000
00101000
00000000
00000000
00100000
00000000
,
00010000
10000000
01000000
00000000
00100000
00000000
00010000
00000000
,
10000000
01000000
00100000
00000000
00010000
00000000
10000000
00000000
,
00010000
01000000
10000000
00000000
10000000
01000000
00010000
00000000
,
00011000
00000000
00000000
00010100
00000000
00000000
00000100
00000000
,
00001000
00000001
00000010
00000000
00000100
00000000
00001000
00000000
,
00000001
00000010
00000100
00000000
00001000
00000000
00000001
00000000
,
00001000
00000010
00000001
00000000
00000001
00000010
00001000
00000000
,
00011000
00000000
00000000
00012000
00000000
00000000
00000000
00000000
,
00013000
00000000
00001000
00200000
00000000
00000000
00310000
00000000
,
10000000
00000000
00100000
00020000
00000000
00000000
00130000
00000000
,
10000000
00000000
01000000
00020000
00000000
00000000
00031000
00000000
,
00011000
00000000
00000000
00021000
00000000
00000000
00031000
00000000
,
00010000
00000000
00001000
00000200
00000000
00000000
00000301
00000000
,
00000010
00000000
00001000
00000020
00000000
00000000
00000031
00000000
,
00001000
00000001
00000000
00000100
00000000
00001000
00010000
00000000
,
00022000
00000000
00000000
00033000
,
00000000
00010000
00000000
01000000
,
00000000
10000000
00000000
00100000
,
00000000
00010000
00001000
00010000
,
00002000
00000000
00000000
00003000
,
00000200
00000000
00000000
00000300
,
00000002
00000000
00000000
00000003
,
00000020
00000000
00000000
00000030
,
00000100
00010100
00001000
00101000
,
00010000
01010000
00100000
10100000
,
01010000
00110000
00101000
00011000
,
00010000
00000010
00010000
00001000
00100000
00000000
00011000
00000000
,
00000100
00000000
00001000
00000010
00000000
00001000
00000100
00000000
,
00000001
00000100
00000010
00000001
,
00001000
00000000
00000100
00010000
00000000
00001000
00010000
00000000
,
00100000
10000000
00010000
10010000
,
01100000
00000000
00000000
01000000
00000000
00000000
00010000
00000000
,
10000000
00010000
00100000
01000000
,
00010000
00000000
00000000
00001000
00000000
00000000
00010000
00000000
,
00001000
00000100
00000220
00000330
,
00000110
00000010
00001000
00001000
,
00000100
00000010
00000001
00000001
,
00000100
00001000
00010000
00010000
,
01000000
10000000
00100000
00100000
,
10000000
01000000
00010000
00001000
,
00000100
00000001
00000100
00001000
,
00010000
01000000
10000000
01000000
,
00010000
00000000
00001000
00000000
00010000
00001000
00010000
00001000
,
00020000
00000000
00031000
00020000
00000000
00031000
00000100
00000000
,
00000010
00001000
00000001
00000010
,
00002000
00000000
00000000
00023000
00000000
00000000
00031000
00000000
,
01000000
00100000
10000000
00010000
,
20000000
00000000
31000000
20000000
00000000
31000000
00100000
00000000
,
00010000
10000000
01000000
00100000
,
00002000
00000000
00000000
00023000
00000000
00000000
00030000
00000000
,
00001000
00000100
00000001
00000010
,
00000002
00000000
00000000
00000203
00000000
00000000
00002300
00000000
,
00000000
00023000
00000000
00000000
00130000
00000000
00100000
00000000
,
20000000
00000000
00000000
32000000
00000000
00000000
03020000
00000000
,
00000000
00032000
00000000
00000000
00003010
00000000
00000010
00000000
,
00000200
00000000
00000000
00020300
00000000
00000000
00032000
00000000
,
00000000
02003000
00000000
00000000
03100000
00000000
01000000
00000000
,
01100000
00000000
00000000
01010000
00000000
00000000
00011000
00000000
,
00000000
00001100
00000000
00000000
00000110
00000000
00001001
00000000
,
00000000
00000220
00000000
00000000
,
00000000
00000330
00000000
00000000
;

//---------------dance-double - ----------------
#NOTES:
     dance-double:
     :
     Hard:
     12:
     :
00000000
00000000
00000000
00000000
,
00000000
00000000
00000000
00000000
,
00000000
00000000
00000000
00000000
,
00000000
00000000
00000000
00000000
,
00000000
00000000
00000000
00000000
,
00000000
00000000
00000000
00000000
,
00000011
00000000
00000000
00000101
00000000
00000000
00000010
00000000
,
00000100
00000001
00000010
00001000
00000000
00000010
00000001
00000010
,
00001000
00010000
00100000
10000000
00000000
01000000
10000000
00000000
,
00010000
01000000
00001000
00010000
00000100
00001000
00000001
00000100
,
00000101
00000000
00000000
00000011
00000000
00000000
00000100
00000000
,
00000010
00000001
00000100
00001000
00000000
00000100
00000001
00000100
,
00001000
00010000
01000000
10000000
00000000
00100000
10000000
00000000
,
00010000
01000000
00100000
00010000
00001000
00000100
00000010
00001000
,
00002002
00000000
00003003
00000220
00000000
00000000
00000330
00000000
,
00001000
00000000
00000000
00000001
00000000
00000000
00000100
00000000
00000000
00000010
00000000
00000000
00001000
00000000
00000000
00000000
,
00000100
00001000
00000001
00000010
00001000
00010000
00001000
01000000
,
00010000
00100000
01000000
10000000
01000000
00100000
00010000
00000000
,
20020000
00000000
30030000
02200000
00000000
00000000
03300000
00000000
,
00010000
00000000
00000000
10000000
00000000
00000000
01000000
00000000
00000000
00100000
00000000
00000000
00010000
00000000
00000000
00000000
,
01000000
00010000
10000000
00100000
00010000
00001000
00010000
00000100
,
00010100
00001100
00000000
00001010
00000000
00000110
00000101
00000000
,
00002002
00000000
00000000
00003000
,
00000100
00000000
00000100
00000003
,
00000100
00000100
00001000
00001000
,
00010000
00000000
00010000
00000000
01000000
10000000
00100000
02000000
,
00020000
00000000
00000000
00000000
00000000
00000000
00000000
03000000
,
00230000
00002000
00000000
00000000
00000000
00000000
00000000
00300000
,
00023000
00000200
00000000
00000000
00000000
00000000
00000000
00030000
,
00002300
00000020
00000000
00000000
00000000
00000000
00000000
00003000
,
00000130
00000000
00001001
00000000
00000100
00000100
00000001
00000010
,
00000100
00000000
00001001
00000000
00000100
00000100
00001000
00000010
,
00000100
00000010
00000100
00001000
00010000
00001000
00010000
01000000
,
00100000
00000000
01000000
00000000
00100000
00000000
00010000
10000000
00010000
00000000
10000000
00000000
00010000
00000000
00000000
00000000
,
10010000
00000000
01000000
00010000
00100000
00000000
01000000
10000000
,
00000000
01000000
00010000
00000000
00001000
00010000
00001000
00000000
,
00011000
00000000
00000100
00001000
00000010
00000000
00000100
00000001
,
00000010
00001000
00000010
00000100
00010000
00001000
00100000
00010000
,
10010000
00000000
00100000
00010000
01000000
00000000
00100000
10000000
,
00000000
00100000
00010000
00000000
00001000
00010000
00001000
00000000
,
00011000
00000000
00000010
00001000
00000100
00000000
00000010
00000001
,
00000100
00001000
00000100
00000010
00000101
00000000
00001100
00000000
,
00001000
00000000
00000001
00000000
00000100
00000001
00000000
00000000
00000010
00000000
00000000
00000100
00000000
00000000
00001000
00000000
,
00000100
00000000
00010000
00000000
00001000
00010000
00000000
00000000
01000000
00000000
00000000
00100000
00000000
00000000
00010000
00000000
,
10000000
00000000
00010000
00000000
00100000
00010000
00000000
00000000
01000000
00000000
00000000
00100000
00000000
00000000
10000000
00000000
,
00010000
00000000
10000000
00000000
01000000
00100000
00000000
00100000
00010000
00000000
00010000
01000000
00000000
00000000
01000000
00000000
,
00100000
00000000
00010000
00000000
00001000
00010000
00000000
00000000
00000100
00000000
00000000
00001000
00000000
00000000
00000010
00000000
,
00000001
00000000
00000010
00000000
00001000
00000001
00000000
00000000
00000010
00000000
00000000
00000100
00000000
00000000
00001000
00000000
,
00000100
00000000
00010000
00000000
00001000
00010000
00000000
00000000
01000000
00000000
00000000
10000000
00000000
00000000
00010000
00000000
,
10000000
00000000
00100000
00000000
01000000
00010000
00000000
00010000
00100000
00000000
00100000
01000000
00000000
00000000
10000000
00000000
,
10010000
00000000
00000000
01010000
00000000
00000000
00100000
10000000
,
00100000
00000000
01000000
00010000
00100000
01000000
10000000
01000000
,
00020000
00000000
00030000
00002000
00000000
00003000
00000010
00000000
,
00000001
00000100
00000010
00001000
00000100
00000010
00000001
00000100
,
00001001
00000000
00000000
00001010
00000000
00000000
00000100
00000001
,
00000100
00000000
00000010
00001000
00000100
00000010
00000001
00000010
,
00002000
00000000
00003000
00020000
00000000
00030000
01000000
00000000
,
10000000
00100000
01000000
00010000
00100000
01000000
10000000
00100000
,
02000000
00000000
00000000
03002000
00000000
00000000
00023000
00000000
,
00000000
00030200
00000000
00000000
00000310
00000000
00000001
00000000
,
00000220
00000000
00000330
00002200
00000000
00003300
00022000
00000000
,
00033000
00220000
00000000
00330000
01100000
00000000
10100000
00000000
,
10000000
02000000
00000000
03010000
00002000
00000000
00003010
00000002
,
00000000
00000103
00002000
00000000
00013000
00100000
10000000
01000000
,
01100000
00000000
00010000
00011000
00000000
00000100
00001100
00000000
,
00000010
00000000
00000011
00000000
00000000
00000000
00000001
00000000
00000100
00000000
00001000
00020000
00002000
00000000
00000000
00000000
,
00033000
02200000
00000000
00000000
,
00000000
03300000
00000000
00000000
;
