#TITLE:Baby's Tears;
#ARTIST:MIKI ROBERTS;
#BANNER:Baby's Tears.png;
#BACKGROUND:Baby's Tears-bg.png;
#JACKET:Baby's Tears-jacket.png;
#MUSIC:Baby's Tears.ogg;
#SAMPLESTART:58.67;
#SAMPLELENGTH:20;
#DISPLAYBPM:180;
#BPMS:0=180.4,4=180;
#BGCHANGES:;

//---------------dance-single - ----------------
#NOTES:
     dance-single:
     :
     Beginner:
     3:
     :
0000
0000
0000
0000
,
0000
0000
0000
0000
,
0010
0000
0000
0000
,
0100
0000
0000
0000
,
1000
0000
0000
0000
,
0010
0000
0000
0000
,
0100
0000
0000
0000
,
0001
0000
0000
0000
,
1000
0000
0000
0000
,
0100
0000
0000
0000
,
0000
0000
0000
0000
,
1001
0000
0100
0000
,
0010
0000
0100
0000
,
1000
0000
0001
0000
,
0100
0000
0010
0000
,
1001
0000
0100
0000
,
0010
0000
0100
0000
,
1000
0000
0001
0000
,
0100
0000
1000
0000
,
0100
0000
0000
0000
,
0100
0000
0000
0000
,
0010
0000
0000
0000
,
0100
0000
0000
0000
,
1000
0000
0001
0000
,
1000
0000
0100
0000
,
0010
0000
0000
0000
,
0001
0000
0001
0000
,
0100
0000
0000
0000
,
0100
0000
0000
0000
,
0010
0000
0000
0000
,
0100
0000
0000
0000
,
0001
0000
1000
0000
,
0000
0000
0001
0000
,
0100
0000
0000
0000
,
0010
0000
0000
0000
,
1000
0000
0001
0000
,
1000
0000
0100
0000
,
0001
0000
0100
0000
,
1000
0000
0000
0000
,
0001
0000
0000
0000
,
0010
0000
0000
0000
,
0100
0000
1000
0000
,
0001
0000
0000
0000
,
1000
0000
0001
0000
,
0100
0000
0000
0000
,
0010
0000
0000
0000
,
0100
0000
0010
0000
,
1000
0000
0001
0000
,
0100
0000
0000
0000
,
0010
0000
0100
0000
,
0001
0000
1000
0000
,
0100
0000
0000
0000
,
0100
0000
0000
0000
,
0010
0000
0000
0000
,
0001
0000
1000
0000
,
0100
0000
0000
0000
,
0010
0000
0000
0000
,
0100
0000
0000
0000
,
1000
0000
0001
0000
,
1000
0000
0000
0000
,
1001
0000
0100
0000
,
0010
0000
0100
0000
,
1000
0000
0001
0000
,
0100
0000
0010
0000
,
1001
0000
0100
0000
,
0010
0000
0100
0000
,
1000
0000
0001
0000
,
0100
0000
0010
0000
,
1001
0000
0000
0000
;

//---------------dance-single - ----------------
#NOTES:
     dance-single:
     :
     Easy:
     3:
     :
0000
0000
0000
0000
,
0000
0000
0000
0000
,
0010
0000
0000
0000
,
0100
0000
0000
0000
,
1000
0000
0000
0000
,
0010
0000
0000
0000
,
0100
0000
0000
0000
,
0001
0000
0000
0000
,
1000
0000
0000
0000
,
0200
0000
0000
0300
,
0000
0000
0000
0000
,
1001
0000
0100
0000
,
0010
0000
0100
0000
,
1000
0000
0001
0000
,
0100
0000
0010
0000
,
1001
0000
0100
0000
,
0010
0000
0100
0000
,
1000
0000
0001
0000
,
0100
0001
1000
0000
,
0100
0000
0000
0000
,
0100
0000
0000
0000
,
0010
0000
0000
0000
,
0100
0000
0000
0000
,
1000
0000
0001
0000
,
1000
0000
0100
0000
,
0010
0000
0000
0000
,
0001
0000
0001
0000
,
0100
0000
0000
0000
,
0100
0000
0000
0000
,
0010
0000
0000
0000
,
0100
0000
0000
0000
,
0001
0000
1000
0000
,
0000
0000
0001
0000
,
0100
0000
0000
0000
,
0010
0000
0000
0000
,
1000
0000
0001
0000
,
1000
0000
0100
0000
,
0001
0000
0100
0010
,
1000
0000
0000
0000
,
0001
0000
0000
0000
,
0010
0000
0000
0000
,
0100
0000
1000
0000
,
0002
0000
0000
0003
,
1000
0000
0001
0000
,
0100
0000
0000
0000
,
0010
0000
0000
0000
,
0100
0000
0010
0000
,
1000
0000
0001
0000
,
0100
0000
0000
0000
,
0010
0000
0100
0000
,
0001
0000
1000
0000
,
0100
0000
0000
0000
,
0100
0000
0000
0000
,
0010
0000
0000
0000
,
0001
0000
1000
0000
,
0100
0000
0000
0000
,
0010
0000
0000
0000
,
0100
0000
0000
0000
,
1000
0000
0001
0000
,
1000
0000
0000
0000
,
1001
0000
0100
0000
,
0010
0000
0100
0000
,
1000
0000
0001
0000
,
0100
0000
0010
0000
,
1001
0000
0100
0000
,
0010
0000
0100
0000
,
1000
0000
0001
0000
,
0100
0000
0010
0000
,
1001
0000
0000
0000
,
0000
0000
0000
0000
;

//---------------dance-single - ----------------
#NOTES:
     dance-single:
     :
     Medium:
     7:
     :
0000
0000
0000
0000
,
0000
0000
0000
0000
,
2000
0000
0000
3000
,
0002
0000
0000
0003
,
1000
0000
0001
0000
,
0100
0000
0000
0000
,
0020
0000
0000
0030
,
0200
0000
0000
0300
,
1000
0000
0001
0000
,
0200
0000
0000
0000
,
0000
0000
0000
0300
,
1001
1000
0001
0100
,
0010
1000
0100
0010
0000
0000
0000
0000
,
0001
0000
1000
0100
0000
0000
0001
0000
,
1000
0000
0000
0001
0000
0000
1000
0000
,
0010
0000
0100
0001
0000
0000
1000
0000
,
0001
0010
0100
1000
0000
0000
0000
0000
,
1000
0000
0001
0100
0000
0000
1000
0000
,
1000
0000
0000
0001
0000
0000
0000
0000
,
1000
0000
0100
0010
0000
0000
0001
0000
,
1000
0000
0000
0000
,
0001
0000
0100
0010
0000
0000
1000
0000
,
0001
0000
0000
0000
,
0100
0000
0100
0000
,
1000
0100
0010
0001
,
1000
0000
0000
0001
0100
0000
0000
0000
,
0000
0000
0000
0000
,
0001
0000
1000
0100
0000
0000
0010
0000
,
1001
0000
0000
0000
,
1000
0000
0001
0100
0000
0000
0010
0000
,
1001
0000
0000
0000
,
0100
0000
0100
0000
,
0010
0000
0000
0000
0001
0100
0010
1000
,
0100
0000
0000
0000
0000
0000
0010
0100
,
0000
0000
0000
0000
,
1000
0000
0000
1001
0000
0000
0001
0000
,
1000
0000
0000
1001
0000
0000
0001
0000
,
0110
0000
1000
0001
,
0100
0000
0000
0010
,
1000
0000
0100
0010
,
0001
0000
0100
0010
,
1000
0000
0001
1000
,
2002
0000
0000
3003
,
0100
0000
0000
0010
0000
0000
0100
0000
0010
0000
0000
0000
0000
0000
0000
0000
,
1000
0001
0100
1001
,
0100
0010
0001
1001
,
0010
0100
0001
1000
,
1001
0000
0000
0100
0010
0000
0000
0000
,
0001
0000
0000
1001
0000
0000
0010
0000
,
1000
0000
0000
1001
0000
0000
0010
0000
,
0001
0000
0000
1001
0000
0000
0010
0000
,
0200
0000
0000
0300
,
0001
1000
0100
1001
,
0100
0010
1000
1001
,
0010
0100
1000
0001
,
0110
0000
0000
0100
0010
0000
0000
0000
,
0001
0000
0000
1001
0000
0000
0010
0000
,
0100
0000
0000
0000
,
0001
0000
0000
1001
0000
0000
0100
0000
,
0020
0000
0000
0030
,
1001
0100
0010
0001
,
1000
0010
0100
0001
0000
0000
0000
0000
,
1000
0000
0100
0001
0000
0000
1000
0000
,
0001
0000
0000
0100
0000
0000
0010
0000
,
1000
0000
0001
0010
0000
0000
0100
0000
,
1000
0010
0100
0001
0000
0000
0000
0000
,
1000
0000
0100
0001
0000
0000
1000
0000
,
1001
0100
0010
1000
,
1001
0000
0000
0000
;

//---------------dance-single - ----------------
#NOTES:
     dance-single:
     :
     Hard:
     9:
     :
0000
0000
0000
0000
,
0000
0000
0000
0000
,
1000
0000
0001
0000
,
0100
0000
0010
0000
,
1000
0000
0100
0000
,
0010
0000
0001
0000
,
1000
0001
0100
0000
,
0001
1000
0100
0000
,
1000
0001
0100
0000
,
1000
0000
0000
0000
,
0010
0000
0100
0000
,
1001
0000
0010
0100
0000
0100
0010
0000
,
1000
0000
0001
0100
0000
1000
0100
0000
,
0001
0000
0010
0100
0000
0100
0010
0000
,
0001
0000
1000
0010
0000
0100
0001
0000
,
1001
0000
0100
0010
0000
0010
0100
0000
,
1000
0000
0001
0100
0000
1000
0100
0000
,
0001
0000
0010
0100
0000
0100
0010
0100
,
1000
0010
0100
0001
0000
1000
0001
0000
,
1000
0100
0010
0001
0000
0000
0001
0100
,
1000
0000
0000
0000
0000
0001
0100
0001
,
0010
0000
0100
1000
0000
0000
1000
0100
,
0001
0000
0000
0000
0000
1000
0010
0100
,
0001
0000
0000
0001
0100
0000
1000
0000
,
0100
0000
0010
0000
0001
0100
1000
0000
,
0001
0000
1000
0100
0001
0000
0000
0000
,
1000
0001
1000
0000
,
1000
0100
0010
0001
0000
0000
0001
0100
,
1000
0000
0000
0001
,
1000
0010
0100
0001
0000
0000
0001
0010
,
1000
0000
0000
0001
,
1000
0000
0000
0001
0100
0000
1000
0000
,
0100
0000
0010
0000
0001
0100
0010
1000
,
0001
0100
1000
0100
,
0001
0000
0100
0000
1000
0100
0010
0001
,
1000
0000
0001
0100
1000
0000
0001
0000
,
1000
0000
0001
0100
1000
0000
0001
0000
,
1000
0000
1000
0001
0100
0000
0010
0000
,
1001
0000
0000
0000
,
0100
0000
0010
0001
0100
0000
0010
0000
,
1000
0100
0010
0001
0000
0000
1000
0000
,
0001
0100
0010
1000
0000
0000
0001
0000
,
0110
0000
0000
0000
,
1000
0000
0000
0001
0000
0000
1000
0000
0100
0000
0000
0000
0000
0000
0000
0000
,
0010
0000
0001
0100
1000
0000
0100
0000
,
0001
0010
1000
0000
0010
0000
0001
0000
,
1000
0000
0010
0100
0010
0000
1000
0000
,
0001
0000
0010
0100
1000
0000
0000
0000
,
0001
0000
1000
0100
0001
0000
1000
0000
,
0001
0100
0010
1000
0000
0000
0001
0000
,
1000
0100
0010
0001
0000
0000
1000
0000
,
0001
0100
0010
0000
,
0010
0000
1000
0100
0001
0000
0100
0000
,
1000
0010
0001
0000
0010
0000
1000
0000
,
0001
0000
0010
0100
0010
0000
0001
0000
,
1000
0000
0010
0100
0001
0000
0000
0000
,
1000
0100
0010
0001
0000
0000
1000
0000
,
0110
0000
0000
0000
0000
1000
0001
0010
,
0100
0000
1000
0010
0000
0100
0001
0000
,
2002
0000
0000
3003
,
1001
0000
0010
0100
0000
0100
0010
0000
,
1000
0000
0001
0100
0000
1000
0100
0000
,
0001
0000
0010
0100
0000
0100
0010
0000
,
0001
0000
1000
0100
0000
0010
0001
0000
,
1001
0000
0100
0010
0000
0100
0010
0000
,
1000
0000
0001
0010
0000
0010
1000
0000
,
0010
0000
0001
0100
0000
0010
1000
0000
,
1100
0011
0101
1010
,
1001
0000
0000
0000
;

//---------------dance-single - ----------------
#NOTES:
     dance-single:
     :
     Challenge:
     13:
     :
0000
0000
0000
0000
,
0000
0000
0000
0000
,
2000
0000
0010
0000
0100
0000
3001
1000
,
0200
0000
0010
0000
0301
0100
1000
0000
,
1010
0101
1100
0011
,
0010
0001
0010
0100
1000
0001
0100
0000
,
0001
1000
0001
0020
0000
0130
1000
0000
,
0010
1000
0001
2000
0000
3100
0010
0001
,
0100
0000
0010
0000
0100
0000
0002
0000
0000
0000
1003
0000
0001
0000
0000
0200
,
0020
0300
2000
3000
,
0031
0010
1000
0100
1000
0001
0100
0000
,
0110
0001
0010
1000
0010
0100
1000
0010
,
0001
0000
0010
0000
0100
0000
0010
0000
0001
0000
0010
0000
1000
0000
0000
0001
,
1000
0000
1100
0010
1000
0100
0001
0100
,
0010
0000
0001
0000
0100
0000
0010
0000
0001
0000
0010
0000
1000
0000
0000
0100
,
0010
0000
0011
1000
0001
1000
0100
0010
,
0001
0000
0100
0000
0001
0000
0010
0000
1000
0000
0010
0000
0100
0000
0000
1000
,
0001
1000
0100
0010
0001
0100
0001
1000
,
1010
0000
0101
0000
1001
0010
0100
0001
,
0010
0001
1000
0200
0000
1300
0002
0000
,
1003
0010
1000
0100
0010
0100
1000
0001
,
0010
0001
1000
0002
0000
0103
0020
0000
,
0130
1000
0100
0001
0100
1000
0100
0010
,
1000
0000
0100
1000
0002
0000
0013
0100
,
0110
0000
1001
0000
1000
0100
0002
0000
,
0013
0001
0010
0100
1000
0001
0100
0000
,
0010
1000
0000
0001
1000
0100
1000
0010
,
0100
0001
0010
0002
0000
1003
0100
0000
,
1000
0000
0001
0000
0010
0000
0200
0000
0000
0000
1300
0000
0010
0000
0000
0100
,
0001
0010
0001
0200
0000
0310
1000
0000
,
0100
1000
0001
2000
0000
3010
0100
0001
,
0020
0000
0031
0100
2000
0000
3010
0100
,
0001
1000
0001
0020
0000
0130
1000
0000
,
1010
0001
0010
0001
1000
0100
1000
0010
,
0100
0000
0001
0000
1000
0000
0002
0000
0000
0000
0013
0100
0010
0000
0001
0000
,
0100
0010
1000
0001
0010
0100
1000
0000
,
0010
1000
0100
0001
0100
1000
0010
0000
,
1000
0001
0010
0100
1000
0010
1000
0000
,
0101
0000
0010
1000
0100
0010
0001
0000
,
0011
0000
0100
0000
0010
0000
0100
0000
1000
0000
0100
0000
0001
0000
0000
0010
,
0001
0000
1000
0000
0010
0000
1000
0000
0100
0000
0010
0000
0001
0000
1000
0100
,
1000
0010
0100
0002
0000
1003
0200
0000
,
1300
0010
1000
0001
1000
0100
0010
0001
,
0101
0000
0000
0101
0000
0000
0101
0000
0101
0000
1000
0001
1000
0000
0000
0000
,
0110
0001
0100
0010
0001
0010
1000
0100
,
1000
0010
0100
1000
0100
0001
0010
0100
,
0001
0100
0010
0100
0001
0100
1000
0010
,
0200
0000
0001
0000
0301
0000
1000
0010
1000
0000
0100
0000
0010
0000
0001
0000
,
0100
0010
1000
0002
0000
1003
0100
0000
,
0010
0001
0010
0100
0000
1000
0001
0000
,
0100
0000
0001
0000
0010
0000
0100
0000
0000
0000
1000
0000
0001
0000
0000
0010
,
0001
0000
0100
0000
1000
0000
0100
0000
0000
0000
0001
1000
0001
0000
0010
0000
,
0001
0100
1000
0100
0010
0100
0001
0010
,
1000
0010
0100
0010
1000
0010
0001
1000
,
0010
0100
1000
0100
0010
0001
0010
1000
,
0002
0000
1000
0000
1003
0000
0010
0000
0100
0000
0001
0010
0001
0000
0000
0000
,
1100
0001
1000
0020
0000
1030
0001
0000
,
0101
0000
0010
0000
0001
0000
2000
0000
0000
0000
3001
0000
0100
0000
0010
1000
,
0010
0000
0100
0000
0010
0000
2000
0000
0000
0000
3001
0000
0100
0000
0000
0010
,
0100
0000
0001
0000
0010
0000
0100
0000
1000
0000
0001
0100
0001
0100
0001
0000
,
0010
1000
0010
0100
0010
0001
0100
1000
,
0100
0010
0100
1000
0100
0001
0011
0000
,
1100
0001
1000
0010
1000
0100
0010
0001
,
0100
0000
0010
0000
0100
0000
0001
0000
0010
0000
0100
0000
1000
0000
0001
1000
,
0001
0000
0100
0010
0100
0001
0010
1000
,
0010
0100
0010
1000
0010
0001
0101
0000
,
1001
1010
1100
0110
,
0002
0100
0103
0020
1000
1030
0100
0010
,
0022
0000
0000
0000
,
0000
0000
0000
0000
,
0000
0000
0000
0000
,
0000
0000
0000
0000
,
0030
0000
0000
0000
,
0000
0000
0000
0000
,
0003
0000
0000
0000
;

//---------------dance-double - ----------------
#NOTES:
     dance-double:
     :
     Easy:
     4:
     :
00000000
00000000
00000000
00000000
,
00000000
00000000
00000000
00000000
,
10000000
00000000
00000000
00000000
,
01000000
00000000
00000000
00000000
,
00010000
00000000
00000000
00000000
,
00001000
00000000
00000000
00000000
,
00000100
00000000
00000000
00000000
,
00000001
00000000
00000000
00000000
,
00001000
00000000
00000000
00000000
,
00010000
00000000
00000000
00000000
,
00000000
00000000
00000000
00000000
,
00011000
00000000
00000010
00000000
,
00000100
00000000
00000000
00000000
,
00001001
00000000
00000100
00000000
,
00010000
00000000
00000000
00000000
,
00011000
00000000
01000000
00000000
,
00100000
00000000
00000000
00000000
,
10010000
00000000
01000000
00000000
,
00001000
00010000
00001000
00000000
,
00000010
00000000
00000000
00000100
,
00000010
00000000
00000000
00000000
,
00001000
00000000
00000000
00000001
,
00001000
00000000
00000000
00000000
,
00000100
00000000
00010000
00000000
,
00001000
00100000
00010000
00000000
,
10000000
00000000
10000000
00000000
,
01000000
00000000
00000000
00000000
,
00100000
00000000
00000000
01000000
,
00100000
00000000
00000000
00000000
,
00010000
00000000
00000000
10000000
,
00010000
00000000
00000000
00000000
,
01000000
00000000
00001000
00000000
,
00000000
00010000
00000010
00001000
,
00000001
00000000
00000000
00000000
,
00000100
00000000
00000000
00000000
,
00000001
00000000
00000100
00001000
,
00010000
00000000
00010000
00001000
,
00000100
00000000
00000001
00000000
,
00001000
00000000
00000000
00000000
,
00000100
00000000
00000000
00010000
,
00001000
00000000
00000000
00100000
,
00010000
00000000
10000000
00000000
,
00010000
00000000
00000000
00000000
,
01000000
00000000
00100000
00000000
,
10000000
00000000
00010000
10000000
,
01000000
00000000
00010000
00001000
,
00000100
00000000
00000001
00000000
,
00001000
00000000
00000000
00000000
,
00000100
00000000
00000000
00000000
,
00000010
00000000
00000000
00000000
,
00000001
00000000
00001000
00000000
,
00000100
00000000
00000000
00000000
,
00010000
00000000
00001000
00100000
,
00010000
00000000
00100000
00001000
,
00010000
00000000
00000100
00000000
,
00000010
00000000
00000000
00000000
,
00000001
00000000
00000000
00000000
,
00001000
00000000
00000000
00000000
,
00000100
00000000
00000000
00000000
,
00010000
00000000
00000000
00000000
,
00011000
00000000
00100000
00000000
,
01000000
00000000
00000000
00000000
,
10010000
00000000
01000000
00000000
,
00001000
00000000
00000000
00000000
,
00011000
00000000
00000010
00000000
,
00000100
00000000
00000000
00000000
,
00001001
00000000
00000100
00000000
,
00010000
00000000
00001000
00100000
,
10010000
00000000
00000000
00000000
,
00000000
00000000
00000000
00000000
;

//---------------dance-double - ----------------
#NOTES:
     dance-double:
     :
     Medium:
     7:
     :
00000000
00000000
00000000
00000000
,
00000000
00000000
00000000
00000000
,
20000000
00000000
00000000
30000000
,
00020000
00000000
00000000
00030000
,
00200000
00000000
00000000
00300000
,
00001000
00000000
00010000
00000000
,
00000020
00000000
00000000
00000030
,
00002000
00000000
00000000
00003000
,
00000001
00000000
00000100
00000000
,
00000010
00000000
00000000
00000000
,
00000000
00000000
00000000
00000000
,
00001001
00000100
00000010
00001000
,
00000001
00000000
00000100
00000000
00001000
00010000
00001000
00000000
,
00100000
00000000
00001000
00000000
00000100
00000001
00000100
00000000
,
00000010
00001000
00000001
00000100
,
00001000
00010000
01000000
10000000
,
00010000
00000000
01000000
00000000
00001000
00010000
00001000
00000000
,
00100000
00000000
00001000
00000000
00000100
00000001
00000100
00000000
,
00000010
00001000
00000001
00000000
,
00001000
00000000
00000100
00000000
00010000
00000000
00001000
00010000
,
00001000
00100000
00010000
00000000
,
00010000
00000000
01000000
00000000
00001000
00010000
00001000
00000000
,
00100000
00000000
00000000
00000000
,
00001000
00000000
00000000
00000000
00000100
00000001
00000010
00000000
,
00000100
00000000
00000000
00000000
00001000
00000010
00000100
00000000
,
00000001
00000000
00000000
00001000
00000100
00000000
00000000
00000000
,
00010000
00001000
00010000
00000000
,
00000010
00000000
00000100
00000000
00001000
00000000
00010000
00001000
,
00010000
00000010
00000100
00000000
,
00001000
00000000
00010000
00000000
01000000
10000000
01000000
00000000
,
00100000
00000000
00000000
00000000
,
00010000
10000000
01000000
00000000
,
00010000
00000000
00001000
00010000
00001000
00000000
00000000
00000000
,
00000010
00000001
00000100
00000000
,
00000010
00000000
00000100
00000000
,
00000001
00000000
00000010
00000100
00001000
00000000
00000000
00000000
,
00000001
00000000
00000100
00001000
00010000
00000000
00000000
00000000
,
00000100
00000000
00000010
00001001
,
00000100
00000000
00000000
00000000
,
00000010
00000000
00000000
00000000
00000001
00000100
00000001
00000000
,
00001000
00000000
00000000
00000000
00000100
00010000
00000100
00000000
,
00001000
00000000
00000000
00000000
00000001
00000100
00001000
00000000
,
00010000
00000000
00000000
00000000
,
00001000
00000000
00010000
00000000
,
00000010
00000000
00000100
00000000
00001000
00010000
00001000
00000000
,
00100000
00000000
00010000
00000000
,
01000000
00000000
00001000
00010000
00001000
00000000
00100000
00000000
,
00010000
00000000
01000000
00000000
,
00001000
00000000
00010000
00000010
,
00001000
00000000
00000001
00000010
,
00000100
00000000
00000010
00000100
,
00001001
00000000
00000000
00000000
,
00000100
00000000
00010000
00000000
00001000
00010000
00001000
00000000
,
00100000
00000000
00010000
00000000
,
01000000
00000000
00001000
00010000
00001000
00000000
00100000
00000000
,
00010000
00000000
01000000
00000000
,
00001000
00000000
00000000
00000000
00010000
00001000
00010000
00000000
,
00000010
00000000
00000000
00000000
,
00010000
00000000
00000000
00000000
00001000
00010000
00001000
00000000
,
00100000
00000000
00000000
00000000
,
10010000
01000000
00100000
00010000
,
10000000
00000000
01000000
00000000
00010000
00001000
00010000
00000000
,
00000010
00000000
00010000
00000000
01000000
10000000
01000000
00000000
,
00100000
00010000
10000000
01000000
,
00010000
00001000
00000100
00000001
,
00001000
00000000
00000100
00000000
00010000
00001000
00010000
00000000
,
00000010
00000000
00010000
00000000
01000000
10000000
01000000
00000000
,
00100000
10010000
01000000
10010000
,
01100000
00000000
00000000
00000000
,
00000000
00000000
00000000
00000000
;

//---------------dance-double - ----------------
#NOTES:
     dance-double:
     :
     Hard:
     9:
     :
00000000
00000000
00000000
00000000
,
00000000
00000000
00000000
00000000
,
10000000
01000000
00010000
00001000
,
00010000
01000000
10000000
00100000
,
00010000
00001000
00010000
00100000
,
10000000
00000000
00000000
00010000
01000000
00000000
00000000
00000000
,
00001000
00000000
00000000
00100000
00000000
00000000
01000000
00000000
,
10000000
00000000
00000000
00000000
00000000
00010000
01000000
00100000
,
10000000
00000000
00000000
01000000
00000000
00000000
00010000
00000000
,
00002000
00000000
00000000
00000000
,
00000000
00000000
00000000
00003000
,
00011000
00000000
00100000
00010000
01000000
00100000
00010000
00000000
,
00001000
00000000
00000010
00000001
00000100
00001000
00010000
00000000
,
00011000
00000000
00100000
00010000
10000000
01000000
00010000
00000000
,
00001000
00000000
00000100
00000001
00001000
00000100
00010000
00000000
,
00011000
00000000
00100000
00010000
01000000
00100000
00010000
00000000
,
00001000
00000000
00000010
00000001
00000100
00001000
00010000
00000000
,
00011000
00000000
00100000
00010000
10000000
01000000
00010000
00000000
,
00011000
00001010
00000101
00000000
,
00001000
00000000
00000100
00010000
00000000
00001000
00000000
00000000
,
00010000
00000000
00000100
00001000
00000000
00000001
00000000
00000100
,
00000010
00000000
00001000
00000100
00000000
00010000
00000000
00000000
,
00001000
00000000
00010000
00000010
00000000
00001000
00000000
00000100
,
00000010
00000000
00000001
00000100
00000000
00000010
00001000
00000001
,
00000100
00000000
00001000
00000000
00010000
00001000
00010000
00000000
,
00000010
00000000
00000100
00001000
00000000
00010000
00000000
00000000
,
00000010
00000000
00001000
00000001
00000000
00000100
00000000
00001000
,
00010000
00000000
00100000
00000000
00000000
10000000
00000000
00000000
,
00010000
00000000
00100000
00000000
00000000
01000000
00000000
00000000
,
10000000
00000000
00010000
00000000
00000000
01000000
00000000
00000000
,
10000000
00000000
00010000
00000000
00100000
01000000
00000000
00000000
,
10000000
00000000
00010000
00000000
00000000
01000000
00000000
00000000
,
00100000
00000000
10000000
00000000
00000000
00010000
00000000
00000000
,
00100000
00000000
01000000
00000000
00000000
10000000
00000000
00000000
,
00010000
00100000
00000000
00001000
00010000
00000100
00000010
00000001
,
00001000
00000000
00000010
00000100
00000000
00001000
00010000
00000000
,
00000100
00000000
00000010
00000001
00000000
00001000
00000010
00000000
,
00000100
00000000
00001000
00010000
00000000
00001000
00000000
00100000
,
00010000
00000000
01000000
00000000
00000000
00100000
10000000
00000000
,
00010000
00000000
00100000
01000000
00000000
10000000
00010000
00000000
,
01000000
00000000
00001000
00010000
00000000
00000010
00001000
00000000
,
00000001
00000000
00000010
00000100
00000000
00001000
00000001
00000000
,
00000100
00000000
00001000
00000000
00010000
01000000
10000000
00010000
,
01000000
00000000
00000000
00100000
00000000
00000000
10000000
00000000
01000000
00000000
00000000
00000000
00000000
00000000
00000000
00000000
,
00010000
00000000
00001000
00000000
00000100
00000010
00000100
00000000
,
00001000
00000000
00010000
00000000
01000000
00100000
01000000
00000000
,
10000000
00000000
00010000
00000000
01000000
00001000
00010000
00000000
,
00000010
00000000
00001000
00000100
00000000
00000010
00000001
00000000
,
00000100
00000000
00001000
00000000
00000000
00010000
01000000
00000000
,
00010000
00000000
00001000
00000000
00000000
00000100
00001000
00000000
,
00010000
00000000
01000000
00000000
00000000
10000000
00100000
00000000
,
00010000
00000000
00001000
00000000
00000010
00000001
00000100
00000000
,
00001000
00000000
00010000
00000000
01000000
00100000
01000000
00000000
,
00010000
00000000
00001000
00000000
00000100
00000010
00000100
00000000
,
00000001
00000000
00001000
00000000
00000100
00010000
00001000
00000000
,
00100000
00000000
00010000
01000000
00000000
00100000
10000000
00000000
,
01000000
00000000
00010000
00000000
00000000
00001000
00000100
00000000
,
00001000
00000000
00010000
00000000
00000000
01000000
00010000
00000000
,
00001000
00000000
00000000
00000100
00000000
00000000
00000001
00000000
,
00001000
00000000
00000001
00000000
00000100
00001000
00010000
00000000
,
00011000
00000000
00100000
00010000
01000000
00100000
00010000
00000000
,
00001000
00000000
00000010
00000001
00000100
00001000
00010000
00000000
,
00011000
00000000
00100000
00010000
10000000
01000000
00010000
00000000
,
00001000
00000000
00000100
00000001
00001000
00000100
00010000
00000000
,
00011000
00000000
00100000
00010000
01000000
00100000
00010000
00000000
,
00001000
00000000
00000010
00000001
00000100
00001000
00010000
00000000
,
00011000
00000000
00100000
00010000
10000000
01000000
00010000
00000000
,
00001000
00000000
00000100
00000001
00001000
00000000
00000110
00000000
,
00001001
00000000
00000000
00000000
,
00000000
00000000
00000000
00000000
;
