#TITLE:Baby Shark;
#ARTIST:pinkfong;
#BANNER:Baby Shark-bn.png;
#BACKGROUND:Baby Shark-bg.png;
#JACKET:Baby Shark-jacket.png;
#MUSIC:Baby Shark.ogg;
#OFFSET:-0.261;
#SAMPLESTART:18;
#SAMPLELENGTH:20;
#DISPLAYBPM:115:125;
#BPMS:0=115,130=125,146=120,148=115;
#BGCHANGES:;

//---------------dance-single - ----------------
#NOTES:
     dance-single:
     :
     Beginner:
     3:
     :
0000
0000
0000
0000
,
0000
0000
0000
0000
,
0000
0000
0000
0000
,
1000
0000
0001
0000
,
1000
0000
0001
0000
,
1000
0000
0000
0000
,
0010
0000
0000
0000
,
0100
0000
0000
0000
,
0001
0000
0010
0010
,
0010
0000
0000
0001
,
0001
0000
0000
0100
,
0100
0000
0000
0010
,
0010
0000
1000
1000
,
1000
0000
0000
0100
,
0100
0000
0000
1000
,
1000
0000
0000
0001
,
0001
0000
0100
0100
,
0100
0000
0000
0010
,
0010
0000
0000
1000
,
1000
0000
0000
0001
,
0001
0000
0001
0001
,
0001
0000
0000
1000
,
1000
0000
0000
0010
,
0010
0000
0000
0100
,
0100
0000
0001
0001
,
0001
0000
1000
1000
,
1000
0000
0010
0010
,
0010
0000
0100
0100
,
0100
0000
0010
0010
,
0010
0000
0100
0100
,
0100
0000
0001
0001
,
0001
0000
1000
1000
,
1000
0000
0001
0001
,
0001
0000
0100
0000
,
0010
0000
1000
0000
,
0100
0000
0010
0000
,
0001
0000
0000
0000
,
0110
0000
0010
0010
,
0010
0000
0000
1000
,
1000
0000
0000
0001
,
0001
0000
0000
1000
,
1000
0000
0100
0100
,
0100
0000
0010
0010
,
0010
0000
0001
0001
,
0001
0000
1000
1000
,
1000
0000
1001
0000
;

//---------------dance-single - ----------------
#NOTES:
     dance-single:
     :
     Easy:
     6:
     :
0000
0000
0000
0000
,
0000
0000
0000
0000
,
0000
0000
0000
0000
,
2000
3001
0002
1003
,
1000
0001
1000
0001
,
1000
0010
0001
0100
,
0001
0010
0001
0100
,
1000
0010
1000
0001
,
0100
0010
1001
1001
,
1001
0010
1000
0100
,
1001
0010
0001
0100
,
1001
0010
1000
0100
,
0001
0000
0110
0110
,
0110
0001
0100
0010
,
0110
1000
0100
1000
,
0110
0001
0100
0010
,
0110
0000
1010
1010
,
1010
0100
1000
0001
,
1010
0100
0010
0001
,
1010
0001
1000
0100
,
0010
0000
0011
0011
,
0011
0100
0010
1000
,
0011
0001
0010
0001
,
0011
0100
0010
0100
,
0001
0000
1100
1100
,
1100
0010
1000
0100
,
1000
0001
1000
0100
,
0010
0001
0100
0010
,
1000
0000
0101
0101
,
0101
0010
1000
0100
,
0101
0001
0010
1000
,
0101
0010
0100
0001
,
1000
0000
1001
0110
,
1001
0010
1000
0100
,
1000
0010
0100
0001
,
0010
0001
0100
1000
,
0010
0100
0010
1000
,
0110
0000
0101
1010
,
0101
0010
0001
0100
,
1000
0010
1000
0001
,
1000
0100
0010
0001
,
1000
0000
1100
0011
,
1100
0010
1000
0001
,
0100
0010
1000
0001
,
0010
0001
0100
1000
,
0010
0100
1001
0000
;

//---------------dance-single - ----------------
#NOTES:
     dance-single:
     :
     Medium:
     10:
     :
0000
0000
0000
0000
,
0000
0000
0000
0000
,
0000
0000
0000
0000
,
2000
3001
0002
1003
,
1000
0100
0001
0100
1000
0100
0001
0100
,
1000
0010
0100
0000
0001
1000
0001
0000
,
0010
0100
1000
0000
0010
0100
0001
0000
,
1000
0100
1000
0000
0001
0100
0001
0000
,
0010
0000
0001
1000
1001
0000
0110
0000
,
1001
0000
0010
0000
1000
0000
0000
0100
0000
0000
0010
0000
0001
0000
0100
0000
,
0010
0000
1000
0000
0001
0000
0000
1000
0000
0000
0100
0000
0010
0000
0001
0000
,
0100
0000
0010
0000
0100
0000
0000
0001
0000
0000
1000
0000
0010
0000
0100
0000
,
0001
0000
1010
0101
,
1010
0000
0001
0000
0010
0000
0000
0100
0000
0000
1000
0000
0001
0000
1000
0000
,
0010
0000
0100
0000
0001
0000
0000
0010
0000
0000
0001
0000
1000
0000
0010
0000
,
1000
0000
0100
0000
0010
0000
0000
0001
0000
0000
0100
0000
0001
0000
0010
0000
,
1000
0100
0000
0100
1100
0000
0011
0000
,
1100
0000
0001
0000
0010
0000
0000
0001
0000
0000
0100
0000
0010
0000
1000
0000
,
0100
0000
1000
0000
0001
0000
0000
0100
0000
0000
0010
0000
0100
0000
0001
0000
,
1000
0000
0100
0000
0010
0000
0000
0001
0000
0000
1000
0000
0001
0000
0100
0000
,
0010
0000
0000
1000
0000
0000
0001
0000
0011
0000
0000
0000
1010
0000
0000
0000
,
0011
0000
1000
0000
0001
0000
0000
0100
0000
0000
0010
0000
1000
0000
0001
0000
,
1000
0000
0100
0000
0001
0000
0000
0010
0000
0000
0001
0000
1000
0000
0010
0000
,
1000
0000
0100
0000
0010
0000
0000
0100
0000
0000
0010
0000
0001
0000
1000
0000
,
0010
0100
0001
1000
1100
0000
0101
0000
,
1100
0000
0100
0000
0010
0000
0000
0001
0000
0000
0100
0000
0001
0000
1000
0000
,
0010
0000
1000
0000
0100
0000
0000
0010
0000
0000
0100
0000
1000
0000
0001
0000
,
0100
0000
0001
0000
1000
0000
0000
0001
0000
0000
0010
0000
0001
0000
0100
0000
,
0010
0000
0000
1000
0000
0000
0001
0000
0011
0000
0000
0000
0110
0000
0000
0000
,
1100
0000
0001
0000
0100
0000
0000
1000
0000
0000
0010
0000
1000
0000
0100
0000
,
0010
0000
0100
0000
0010
0000
0000
0001
0000
0000
1000
0000
0001
0000
0100
0000
,
0010
0000
1000
0000
0100
0000
0000
1000
0000
0000
0010
0000
0100
0000
0001
0000
,
0010
0000
0001
1000
0110
0000
1001
0000
,
0110
0000
0010
0000
1000
0000
0000
0100
0000
0000
1000
0000
0010
0000
0100
0000
,
0001
0000
0010
0000
1000
0000
0000
0100
0000
0000
1000
0000
0001
0000
0010
0000
,
0001
0000
1000
0000
0001
0000
0000
0100
0000
0000
0010
0000
1000
0000
0001
0000
,
0010
0000
0000
0001
0000
0000
0100
0000
0000
0010
0000
0000
1000
0000
0001
0000
,
0010
0100
1000
0000
1100
0000
0110
0000
,
0011
0000
1000
0000
0001
0000
0000
0010
0000
0000
0001
0000
0100
0000
0010
0000
,
1000
0000
0100
0000
1000
0000
0000
0001
0000
0000
0100
0000
0010
0000
1000
0000
,
0100
0000
0010
0000
0100
0000
0000
1000
0000
0000
0001
0000
1000
0000
0010
0000
,
0100
0001
1000
0001
0101
0000
1100
0000
,
0110
0000
0001
0000
0010
0000
0000
0001
0000
0000
1000
0000
0100
0000
0010
0000
,
0001
0000
1000
0000
0010
0000
0000
1000
0000
0000
0100
0000
1000
0000
0010
0000
,
0100
0000
0001
0000
1000
0000
0000
0001
0000
0000
1000
0000
0100
0000
0010
0000
,
0001
0000
0000
0100
0000
0000
0010
0000
1001
0000
0000
0000
0000
0000
0000
0000
;

//---------------dance-single - ----------------
#NOTES:
     dance-single:
     :
     Hard:
     13:
     :
0000
0000
0000
0000
,
0000
0000
0000
0000
,
0000
0000
0000
0000
,
2000
3001
0002
1003
,
1000
0100
0001
0100
1000
0100
0001
0100
,
1000
0010
0000
0010
0000
0000
0100
0000
0001
0000
0010
0000
0001
0000
1000
0000
,
0010
0000
1000
0100
1000
0000
0010
0000
0100
0000
0001
0000
1000
0000
0001
0000
,
0010
0001
0000
0001
0100
0000
0010
0000
1000
0000
0001
0000
1000
0000
0100
0000
,
0010
0001
1000
0100
1001
0000
0110
0000
,
1001
0000
0001
0000
0100
0000
0010
1000
0000
0010
1000
0000
0100
0000
0010
0000
,
0001
0000
1000
0000
0010
0000
0100
0001
0000
0100
0001
0000
1000
0000
0100
0000
,
0010
0000
0100
0000
1000
0000
0001
0100
0000
0001
0100
0000
0010
0000
1000
0000
,
0001
0000
0000
0100
0010
0000
1000
0000
1100
0000
0000
0000
0101
0000
0000
0000
,
1100
0000
0010
0000
0100
0000
0001
1000
0000
0001
1000
0000
0100
0000
0010
0000
,
0001
0000
1000
0000
0001
0000
0010
0100
0000
0010
0100
0000
1000
0000
0010
0000
,
0100
0000
0010
0000
1000
0000
0100
0010
0000
0100
0010
0000
0001
0000
1000
0000
,
0010
1000
0000
1000
1010
0000
0101
0000
,
1010
0000
0001
0000
0001
0000
1000
0010
0000
1000
0010
0000
0100
0000
0001
0000
,
0010
0000
0100
0000
0100
0000
1000
0010
0000
1000
0010
0000
0100
0000
0001
0000
,
0010
0000
0001
0000
0001
0000
1000
0100
0000
1000
0100
0000
0010
0000
0100
0000
,
1000
0000
0001
0100
0000
0000
0010
0000
0101
0000
0000
0000
0011
0000
0000
0000
,
0101
0000
1000
0000
1000
0000
0001
0010
0000
0001
0010
0000
0100
0000
1000
0000
,
0010
0000
0100
0000
0100
0000
0001
0010
0000
0001
0010
0000
1000
0000
0100
0000
,
1000
0000
0010
0000
0010
0000
0100
0001
0000
0100
0001
0000
0010
0000
0100
0000
,
1000
0000
0010
0000
1000
0100
0010
0000
0011
0000
0000
0000
0110
0000
0000
0000
,
1100
0000
0001
0000
0001
0000
1000
0010
0000
0001
0100
0000
0010
0000
1000
0000
,
0100
0000
0010
0000
0010
0000
0001
1000
0000
0010
0100
0000
0001
0000
1000
0000
,
0100
0000
1000
0000
1000
0000
0001
0010
0000
0100
1000
0000
0010
0000
0100
0000
,
0001
0000
1000
0100
0000
0000
0010
0000
1001
0000
0000
0000
0101
0000
0000
0000
,
0011
0000
0001
0000
0100
0000
0010
1000
0000
0001
0100
0000
1000
0000
0010
0000
,
0100
0000
0010
0000
1000
0000
0001
0010
0000
0100
1000
0000
0010
0000
1000
0000
,
0100
0000
0010
0000
0100
0000
1000
0001
0000
0100
0010
0000
1000
0000
0001
0000
,
0100
0000
0010
0000
1000
0100
1000
0100
0020
0000
0000
0000
0032
0000
0000
0000
,
0103
0000
0010
0000
1000
0000
0001
0010
0000
1000
0100
0000
1000
0000
0001
0000
,
0100
0000
0010
0000
0100
0000
0001
0010
0000
1000
0100
0000
1000
0000
0010
0000
,
0001
0000
1000
0000
0100
0000
1000
0010
0000
0100
0001
0000
0010
0000
0100
0000
,
1000
0000
0010
0100
0000
0000
0001
0000
1000
0100
0000
1000
0010
0100
0010
1000
,
0001
0000
0000
0100
0000
0000
0010
1000
0010
1000
0000
0000
0100
0000
0000
0000
0000
0000
0100
0000
0000
0000
0000
0000
,
1000
0000
0010
0000
1000
0000
0010
1000
0000
0010
1000
0000
0010
0000
0100
0000
,
0001
0000
0010
0000
0001
0000
0010
0001
0000
0010
0001
0000
0010
0000
0100
0000
,
1000
0000
0001
0000
0100
0000
0001
0100
0000
0001
0100
0000
0010
0000
1000
0000
,
0001
0000
0000
1000
0000
0000
0010
0100
0010
0100
0000
0000
0110
0000
0000
0000
0000
0000
1001
0000
0000
0000
0000
0000
,
0110
0000
0001
0000
0010
0000
0001
0100
0000
0010
1000
0000
0100
0000
0010
0000
,
0001
0000
1000
0000
0010
0000
1000
0100
0000
0010
0001
0000
0100
0000
0010
0000
,
0100
0000
0001
0000
1000
0000
0100
0010
0000
0100
1000
0000
0001
0000
0100
0000
,
0010
1000
0010
0100
0000
0001
1000
0000
1001
0000
0000
0000
0000
0000
0000
0000
;
