#TITLE:BURNIN' THE FLOOR (BLUE FIRE mix);
#SUBTITLE:;
#ARTIST:NAOKI;
#TITLETRANSLIT:;
#SUBTITLETRANSLIT:;
#ARTISTTRANSLIT:;
#GENRE:;
#CREDIT:;
#BANNER:BURNIN' THE FLOOR (BLUE FIRE mix).png;
#BACKGROUND:BURNIN' THE FLOOR (BLUE FIRE mix)-bg.png;
#LYRICSPATH:;
#CDTITLE:;
#MUSIC:BURNIN' THE FLOOR (BLUE FIRE mix).ogg;
#OFFSET:0.000000;
#SAMPLESTART:65.012001;
#SAMPLELENGTH:20.000000;
#SELECTABLE:YES;
#DISPLAYBPM:155.000000;
#BPMS:0.000000=155.171997
,4.000000=155.048004
;
#STOPS:
;
#BGCHANGES:0.000=BURNIN' THE FLOOR (BLUE FIRE mix).avi=1.000=0=0=0=StretchNoLoop====,
99999=-nosongbg-=1.000=0=0=0 // don't automatically add -songbackground-
;
#KEYSOUNDS:;
#ATTACKS:;

//---------------dance-single - ----------------
#NOTES:
     dance-single:
     :
     Beginner:
     3:
     0.145870,0.249021,0.062516,0.125031,0.000000,98.000000,92.000000,6.000000,12.000000,0.000000,0.000000,0.145870,0.249021,0.062516,0.125031,0.000000,98.000000,92.000000,6.000000,12.000000,0.000000,0.000000:
0000
0000
0000
0000
,
0000
0000
0000
0000
,
0000
0000
0000
0000
,
0000
0000
0000
0000
,
0000
0000
0000
0000
,
0100
0000
0100
0000
,
0010
0000
0010
0000
,
2000
0000
3000
0000
,
0002
0000
0003
0000
,
1001
0000
0000
0000
,
0010
0000
0010
0000
,
1000
0000
0001
0000
,
0000
0000
0010
0010
,
0010
0000
0001
0000
,
1000
0000
0001
0000
,
1000
0000
0100
0000
,
1000
1000
1000
1000
,
0000
0001
0001
0000
,
1000
0000
0100
0000
,
1000
0000
0010
0000
,
0100
0000
0001
0000
,
0010
0000
0010
0000
,
0100
0000
0100
0000
,
1000
0000
0001
0000
,
1000
0000
0001
0000
,
0020
0000
0030
0000
,
0001
0000
1000
0000
,
0100
0000
0100
0000
,
0200
0000
0300
0000
,
0020
0000
0030
0000
,
0001
0000
0100
0000
,
0002
0000
0003
0000
,
0100
0100
0000
0000
,
1001
0000
0000
0000
,
0001
0000
1000
0000
,
0200
0000
0300
0000
,
1000
0000
0001
0000
,
1000
0000
0010
0000
,
1000
0000
0100
0000
,
0010
0000
0001
0000
,
0100
0000
0010
0000
,
2000
0000
3000
0000
,
0001
0000
0001
0000
,
1000
0000
0000
0000
,
0010
0020
0000
0000
,
0000
0030
0000
0000
,
1000
0000
0100
0000
,
0001
0000
0000
0000
,
0100
0200
0000
0300
,
0000
0000
0001
0001
,
0001
0000
0010
0000
,
1000
0000
0000
0000
,
0001
0002
0000
0000
,
0000
0003
0000
0000
,
0100
0000
0010
0000
,
0100
0000
0000
0000
,
1001
0000
0000
1001
,
0000
0000
1001
0000
,
1001
0000
0000
0000
,
1000
2000
0000
3000
;

//---------------dance-single - ----------------
#NOTES:
     dance-single:
     :
     Easy:
     6:
     0.281320,0.371968,0.145870,0.145870,0.000000,189.000000,175.000000,14.000000,14.000000,0.000000,0.000000,0.281320,0.371968,0.145870,0.145870,0.000000,189.000000,175.000000,14.000000,14.000000,0.000000,0.000000:
0000
0000
0000
0000
,
0000
0000
0000
0000
,
0000
0000
0000
0000
,
0000
0202
0000
0000
,
0300
0000
1000
1003
,
0001
0010
0100
1000
,
0010
0100
0010
1000
,
0001
0100
1000
0000
,
0010
0100
0001
0000
,
1001
0000
0110
0000
,
1000
0001
1000
0100
,
0010
0001
0010
0100
,
0000
1000
0001
0100
,
1010
0000
0001
0001
,
1000
0001
1000
0100
,
0010
0001
0100
0010
,
1000
0000
1100
0101
,
0000
0010
0010
1000
,
0001
0100
0010
1000
,
0001
0100
1000
0000
,
0010
0100
0010
0000
,
1000
1000
0001
0100
,
0010
0010
0100
0001
,
1000
0100
0010
0001
,
0011
0000
1100
0000
,
0002
0000
1003
0000
,
0010
0100
0001
0000
,
0020
0000
0130
0000
,
1000
0010
1000
0000
,
0001
0001
1000
0000
,
0100
0100
0010
0001
,
2000
0000
0000
3000
,
0010
1000
0002
0003
,
0100
0010
0000
0000
,
1000
0001
1000
0001
,
2020
0000
0000
0030
,
0100
0010
3100
0000
,
0001
0001
1000
1000
,
0100
0010
0001
0000
,
0100
0100
0010
0010
,
1000
0001
1000
0100
,
0022
0000
0030
0000
,
1003
0001
1000
0010
,
0100
0100
0010
1000
,
0001
0200
0000
0000
,
0000
0000
0010
0310
,
0001
0100
0001
0100
,
1000
0100
1000
0100
,
1000
0001
0020
0000
,
0000
0000
1000
0031
,
0100
0010
0100
0010
,
1000
0100
0010
0001
,
1000
0020
0000
0000
,
0000
0000
1000
1030
,
0001
0010
0001
0010
,
1000
0010
1000
0010
,
1001
0100
0100
1001
,
0100
0100
1001
0100
,
0020
0000
0000
0030
,
1000
0001
0110
0000
;

//---------------dance-single - ----------------
#NOTES:
     dance-single:
     :
     Medium:
     9:
     0.346813,0.404658,0.166708,0.666833,0.000000,233.000000,217.000000,16.000000,64.000000,0.000000,0.000000,0.346813,0.404658,0.166708,0.666833,0.000000,233.000000,217.000000,16.000000,64.000000,0.000000,0.000000:
0000
0000
0000
0000
,
0000
0000
0000
0000
,
0000
0000
0000
0000
,
0000
0000
0002
2000
0000
0000
0000
0000
,
3003
0000
0000
0000
,
0001
0010
0100
2000
0000
3002
0000
0000
,
0000
0203
0000
0000
0000
0310
1000
0001
,
2000
0000
3020
0200
0000
0000
0000
0000
,
0000
0030
0000
0000
0000
0301
1000
0001
,
0010
0001
0100
1000
,
0010
0100
0010
1000
,
0100
0010
0001
1000
,
0010
0000
1000
0100
1000
0001
0100
0000
,
0110
0000
0000
0000
1000
0001
0100
0000
,
0010
0001
1000
0100
,
1000
0010
0100
0001
,
1000
1000
1000
1001
,
0010
0000
0101
0000
1000
0100
0001
0000
,
0010
0000
0100
0000
1000
0010
1000
0000
,
0002
0000
0000
2000
0000
0000
3003
0000
,
0010
0000
1000
0000
0001
0010
0100
1000
,
2000
0000
0000
3020
0000
0100
0000
0001
,
0000
0100
0000
1000
0000
0001
0000
0100
,
0230
0000
0000
0310
2000
0000
0000
3001
,
1000
0100
1000
0000
0001
0100
0001
0000
,
2100
0000
0000
3002
0000
0000
0000
0023
,
0000
0031
0100
0001
0100
0010
0000
0000
,
2000
0000
0000
3200
0000
0000
0000
0320
,
0000
0031
1000
0001
0000
1000
0100
0010
,
0002
0000
0100
0103
0000
0000
0000
1020
,
0000
1030
0001
1000
0100
0010
0001
2000
,
0000
0020
0000
0000
0000
0000
3030
0000
,
1000
0001
2000
0200
0000
0000
3300
0000
,
1010
0000
0011
0000
0000
0000
0000
0200
,
0000
0010
0310
0000
1000
0001
0000
2200
,
0000
0000
0000
0000
0300
0000
0000
3002
,
0000
1000
2003
0000
0002
0000
3003
0000
,
0010
0001
0200
0000
2300
0000
3200
0000
,
0302
0000
0023
0200
0000
0000
0330
0000
,
1000
0100
0002
0000
0023
0000
0130
0000
,
0000
2000
0000
3002
0000
1003
0020
0000
,
0200
0000
0000
0330
,
0101
0000
1100
0000
0101
0000
1000
0002
,
0000
0023
0000
0000
0000
0130
1000
0001
,
2000
0000
3001
0200
0000
0000
0000
0000
,
0000
1000
0000
0302
0000
0000
1003
0000
,
0001
1000
0100
2000
0000
3020
0000
0000
,
0000
0230
0000
0000
0000
0310
0100
0001
,
0020
0000
0100
0200
0000
0000
0330
0000
,
0000
0000
0000
1000
0001
1000
0001
1000
,
0010
0000
0110
0000
1001
0000
1000
0002
,
0000
0203
0000
0000
0000
0300
0100
0010
,
2000
0000
0100
0200
0000
0000
3300
0000
,
0000
0010
0000
1010
0000
0001
1000
0000
,
0001
1000
0001
0200
0000
0320
0000
0000
,
0000
2030
0000
0000
0000
3100
1000
0001
,
0010
0000
0000
0011
0000
0000
0100
0000
,
0000
1100
0000
0000
0002
0000
1003
0020
,
0000
0000
0000
0030
,
1000
0100
0010
0002
0000
0000
0003
0000
;

//---------------dance-single - ----------------
#NOTES:
     dance-single:
     :
     Hard:
     10:
     0.459936,0.525848,0.333417,0.031258,0.010419,309.000000,277.000000,32.000000,3.000000,0.000000,0.000000,0.459936,0.525848,0.333417,0.031258,0.010419,309.000000,277.000000,32.000000,3.000000,0.000000,0.000000:
0000
0000
0000
0000
,
0000
0000
0000
0000
,
0000
0000
0000
0000
,
1000
0000
0000
0000
,
0001
0000
0000
0000
,
1000
1000
0100
0100
,
0001
0001
0100
0100
,
1000
1100
0001
0101
,
0010
1000
0100
1001
,
0001
1000
0100
0000
0010
0000
0101
0000
,
1000
0001
0100
0000
0010
0000
1100
0000
,
0010
1000
0100
0000
0010
1000
0100
0000
,
0001
0001
1000
1000
,
0001
1000
0100
0000
0010
0000
0101
0000
,
1000
0001
0100
0000
0010
0000
1100
0000
,
1000
0100
1000
0000
0001
0100
1000
0000
,
0010
1000
0100
1001
,
1000
0100
0010
0000
0010
0100
0010
0000
,
0010
0100
0001
1000
0010
0001
0100
0000
,
0001
0010
0100
0000
0010
0100
1000
0000
,
0010
1000
0100
0001
1000
0010
0001
0000
,
0001
0100
1000
0000
0001
0010
1000
0000
,
1000
0100
0001
0000
1000
0010
0001
0000
,
0100
0001
0100
1000
0010
0001
0010
0000
,
1010
0000
0000
0000
0101
0000
0000
0000
1000
0100
0000
1000
0010
0000
1000
0000
,
0010
0000
1100
0000
0001
0100
1000
0000
,
0010
0000
0101
0000
1000
0100
0001
0000
,
0010
1000
0100
0000
0010
0001
0100
0000
,
1100
0101
1000
0001
,
0100
0000
0110
0000
0001
1000
0100
0000
,
0100
0000
0110
0000
1000
0001
0100
0000
,
1000
0100
1000
0000
0001
0100
0001
0000
,
1100
0101
1000
1000
,
2000
0000
0001
0001
0000
0000
0000
0100
,
0000
0010
0010
0000
0100
0100
3000
0000
,
1002
0000
0010
0000
,
0100
0000
1000
0003
,
0100
1000
0100
0001
0010
1000
0010
0000
,
0100
0001
0100
1000
0010
0001
0010
0000
,
0100
1000
0100
0001
0010
1000
0010
0000
,
0100
0001
0100
1000
0010
0000
0200
0000
,
0000
0000
0000
0300
,
0100
0001
1000
0000
1100
0000
0001
0000
,
0010
0001
0100
0000
1100
0000
0010
0000
,
0100
0001
1000
0000
0100
1000
0001
0000
,
0010
0001
0100
1000
,
0010
1000
0100
0000
1001
0000
0100
0000
,
0010
0001
0100
0000
1001
0000
0100
0000
,
0010
1000
0100
0000
0010
1000
0100
0000
,
0001
0100
1000
0110
,
1000
0100
0010
0000
1100
0000
0001
0000
,
0001
0100
0010
0000
0101
0000
1000
0000
,
1000
0100
0010
0000
0100
1000
0001
0000
,
0010
0010
0100
0100
,
1000
0010
0100
0000
0001
0010
0100
0000
,
1001
0000
0110
0000
0001
1000
0100
0000
,
0110
0000
1000
0001
0000
0000
0110
0000
,
0001
1000
0000
0000
0110
0000
1000
0001
,
1000
0100
0000
0000
0001
0100
0000
0110
,
0000
1000
0001
0010
0000
0000
0000
0000
;

//---------------dance-single - ----------------
#NOTES:
     dance-single:
     :
     Challenge:
     12:
     0.604318,0.622552,0.250063,0.291740,0.140660,406.000000,382.000000,24.000000,28.000000,0.000000,0.000000,0.604318,0.622552,0.250063,0.291740,0.140660,406.000000,382.000000,24.000000,28.000000,0.000000,0.000000:
0000
0000
0000
0000
,
0000
0000
0000
0000
,
0000
0000
0000
0000
,
0000
0000
0000
0000
,
0000
0000
0000
0000
,
0010
0001
0010
0100
1000
0001
1000
0000
,
0010
1000
0100
1000
0010
0100
0001
1000
,
0101
0000
0000
0001
1000
0000
1020
0000
0000
0000
0100
0000
0130
0000
0002
0000
,
0000
2003
0000
3002
0000
0010
0010
0013
,
1001
0000
0000
0010
0000
0000
1000
0000
0100
0000
0000
0010
0000
0000
0001
0000
,
1000
0001
0010
0100
0001
0100
1000
0001
,
0001
1000
0010
1000
0100
0010
0001
0000
,
1100
0000
0000
0000
0001
1000
0001
1000
0001
0000
0010
0000
0100
0000
1000
0000
,
0110
0000
0000
0001
0000
0000
1000
0000
0010
0100
0010
0000
1000
0000
0000
0000
,
0001
0000
0010
0000
0100
0000
1000
0001
1000
0000
0010
0000
0100
0000
0000
0000
,
0001
0010
1000
0001
0100
0010
1000
0000
,
0100
0000
0010
0001
0010
0000
0100
0000
1000
0000
0001
0000
0012
0000
0000
0000
,
1003
0000
1010
0000
1001
0100
0010
0000
,
1000
0000
0100
0000
1000
0010
1000
0010
1000
0000
0001
0000
0100
0000
0000
0000
,
0010
0000
1000
0000
0100
0000
0001
0000
0100
0000
0010
0000
0100
0000
0000
1000
,
0001
1000
0010
0001
0010
1000
0100
0110
,
0110
0001
0100
0010
1000
1000
1000
0000
,
0001
0010
0001
0000
0100
0000
0000
0000
0010
0000
0010
0000
1000
0000
1001
0000
,
1001
0000
0001
0000
0100
0000
0010
0000
1000
0000
0001
0000
1000
0000
0010
0100
,
0010
1000
0100
0010
0002
0100
0103
0000
,
0010
0000
1000
0000
0100
0000
1000
0001
1000
0000
0010
0000
0100
0000
0000
0000
,
0001
0000
0010
0000
0100
0000
1000
0010
1000
0000
0001
0000
0100
0000
0000
0000
,
0010
0000
0100
0000
0001
0000
1000
0001
1000
0000
0100
0000
0010
0000
0000
0000
,
0001
0100
0010
1000
0000
1000
0100
0010
,
0001
0100
0010
0100
1000
0100
0010
0100
,
1000
0100
0001
0010
1000
0010
0100
0010
,
0001
1000
0010
1000
0100
0010
0001
0100
,
0010
1000
0001
0200
0000
0010
0310
0000
,
1010
0000
0101
1000
0100
0010
0001
0200
,
0000
1000
1000
0000
0301
0010
0000
2200
,
0000
0000
0000
0000
0000
0000
0300
3020
,
0000
0000
0100
0000
0100
0000
0000
0000
0031
0000
2000
0000
0000
3100
0000
0000
,
1001
0010
1000
0001
1000
0100
0010
0000
,
0001
0000
0100
0000
0010
0000
0000
1000
0001
0000
1000
0000
0100
0000
0010
0000
,
0001
0000
0100
0000
0010
0000
0001
0000
0010
0000
1000
0000
0100
0000
0000
1000
,
0001
0000
0010
0100
0000
0000
1000
0000
0001
0000
0001
0000
1000
0000
1000
0000
,
0022
0000
0000
0030
,
0103
1000
0100
0010
0100
0001
1000
0001
,
0010
0100
0010
0001
0100
0010
1000
0001
,
0110
0000
0000
0010
1000
0000
0002
0000
0000
0000
0100
0000
0103
0000
0000
0000
,
0001
0010
0100
2000
0000
3001
1000
0000
,
0010
1000
0100
0010
0001
0200
1000
0000
,
0310
0000
1000
0000
0001
0000
0000
0010
0001
0000
0100
0000
0010
0000
1000
0000
,
0101
0000
0000
1000
0001
0000
0020
0000
0000
0000
0100
0000
0130
0000
1000
0000
,
0000
0001
1000
0001
0100
0100
0010
0010
,
0100
0001
0100
1000
0100
0010
1000
0001
,
0010
0000
0100
0000
1000
0000
0000
0010
1000
0000
0001
0000
0100
0000
0001
0000
,
1010
0000
0000
1000
0100
0000
0020
0000
0000
0000
0001
0000
0031
0000
0000
0000
,
1000
1100
0000
0102
0010
0100
0103
0000
,
0001
0010
0100
0001
0100
2000
0010
0000
,
3001
0000
0100
0000
1000
0000
0000
0001
0010
0000
0100
0000
0100
0000
1000
0000
,
0020
0100
0130
0101
0000
0001
2000
0100
,
3100
1001
0000
0010
0002
0100
0103
0010
,
2000
0002
0000
0000
3003
0100
0010
1000
,
0001
0001
0200
0020
0000
0000
0330
0000
;

//---------------dance-double - ----------------
#NOTES:
     dance-double:
     :
     Hard:
     10:
     0.442075,0.494915,0.354255,0.031258,0.010419,297.000000,263.000000,34.000000,3.000000,0.000000,0.000000,0.442075,0.494915,0.354255,0.031258,0.010419,297.000000,263.000000,34.000000,3.000000,0.000000,0.000000:
00000000
00000000
00000000
00000000
,
00000000
00000000
00000000
00000000
,
00000000
00000000
00000000
00000000
,
00001000
00000000
00000100
00000000
,
00000001
00000000
00000100
00001000
,
00010000
01000000
00010000
00000000
11000000
00000000
10000000
00000000
,
00100000
10010000
00100000
00010000
,
00001000
00000100
00000001
00000000
00001100
00000000
00000001
00000000
,
00001000
00001000
00002000
00003000
,
00000001
00000100
00001000
00000000
00011000
00000000
01000000
00000000
,
00100000
01000000
10000000
00000000
00100000
01000000
10000000
00000000
,
01100000
10000000
01010000
10000000
,
00100000
00010000
00001000
00000110
,
00000100
00000001
00001000
00000000
00000110
00000000
00000001
00000000
,
00000100
00001000
00010000
00000000
00010000
01000000
00010000
00000000
,
00100000
01000000
10000000
00000000
00100000
01000000
10000000
00000000
,
00100000
10010000
00010000
00010000
,
00100000
00010000
01000000
00000000
00100000
00001000
00010000
00000000
,
00010000
01000000
00010000
00001000
00000100
00000001
00000010
00000000
,
00001000
00000100
00000001
00000000
00001000
00000010
00000001
00000000
,
00000100
00001000
00010000
00001000
00000100
00000010
00001000
00000000
,
00000010
00010000
00001000
00000000
00000100
00001000
00010000
00000000
,
00000010
00001000
00010000
00001000
00000100
00000010
00000100
00000000
,
00000100
00001000
00010000
01000000
00010000
01000000
00100000
00000000
,
10000000
00000000
00000000
00000000
00010000
00000000
00000000
00000000
10000000
01000000
00000000
00010000
01000000
00000000
10000000
00000000
,
11000000
00000000
00010000
00000000
00010000
01000000
10000000
00000000
,
10000000
01000000
00010000
00000000
01100000
00000000
00010000
00000000
,
00001000
00000000
00000110
00000000
00001000
00000100
00000001
00000000
,
00000001
00000100
00001000
00000000
00000101
00000000
00000010
00000000
,
00001000
00000100
00001000
00000000
00000001
00000000
00000001
00000000
,
00000001
00000100
00000001
00000000
00001000
00000000
00001000
00000000
,
00000001
00000100
00001000
00000000
00010000
00000000
00010000
00000000
,
01000000
01100000
10000000
10000000
,
10000000
00000000
01000000
01000000
00000000
00000000
00000000
00010000
,
00000000
00001000
00001000
00000000
00000010
00000020
00000000
00000000
,
00000001
00000000
00001000
00000000
,
00000100
00000000
00000001
00000030
,
00000110
00000000
00000001
00000000
00001000
00010000
01000000
00000000
,
01100000
00000000
10000000
00000000
00010000
00001000
00000100
00000000
,
00000110
00000000
00000001
00000000
00001000
00010000
01000000
00000000
,
01100000
10000000
01000000
00020000
,
00000000
00000000
00000000
00030000
,
00110000
00101000
00010000
01000000
,
10000000
01000000
00010000
00001000
,
00010100
00011000
00000100
00000001
,
00001000
00001100
00000010
00000001
,
00001010
00010010
00001000
00000100
,
00000001
00000100
00001000
00010000
,
01001000
00011000
01000000
10000000
,
00010000
01010000
00100000
10000000
,
00100000
10000000
01000000
00000000
01010000
00000000
11000000
00000000
,
00100000
00000000
00010000
00000000
00001000
00010000
01000000
00000000
,
01000000
00010000
00001000
00000000
00000110
00000000
00000001
00000000
,
00000010
00001000
00000110
00000001
,
00000110
00000000
00000001
00000000
00000100
00001000
00010000
00000000
,
01100000
00000000
10000000
00000000
01000000
00010000
00001000
00000000
,
00000100
00000000
00001000
00010000
00000000
00000000
01000000
00000000
,
00010000
00001000
00000000
00000000
00000100
00000000
00001000
00010000
,
01000000
10000000
00000000
00000000
00010000
10000000
00000000
01000000
,
00000000
00010000
00001000
00000100
00000000
00000000
00000000
00000000
;

//---------------dance-double - ----------------
#NOTES:
     dance-double:
     :
     Challenge:
     13:
     0.657903,0.664619,0.458448,0.250063,0.119822,442.000000,398.000000,44.000000,24.000000,0.000000,0.000000,0.657903,0.664619,0.458448,0.250063,0.119822,442.000000,398.000000,44.000000,24.000000,0.000000,0.000000:
// measure 0
00000000
00000000
00000000
00000000
,  // measure 1
00000000
00000000
00000000
00000000
,  // measure 2
00000000
00000000
00000000
00000000
,  // measure 3
00011000
00000000
00000020
00000200
00000000
00000000
00000000
00000000
,  // measure 4
00000000
00000000
00000330
00000100
00001000
00000001
00001000
00000100
,  // measure 5
00001001
00000001
00000010
00000100
00001000
00000010
00010000
00000000
,  // measure 6
00010100
00000100
00010000
00001000
01000000
00100000
10000000
00010000
,  // measure 7
00100000
00000000
00000000
00000000
00000000
00000000
00010000
00000000
00000000
10000000
00000000
00000000
00010000
00000000
00000000
00000000
00000000
00000000
22000000
00000000
00000000
00000000
00000000
00000000
00000000
30000000
00000000
00000000
00000000
00000000
00100000
00000000
00000000
00000000
00000000
00000000
00000000
00000000
00000000
00000000
00000000
00000000
10000000
00000000
00000000
00000000
00000000
00000000
,  // measure 8
00000000
00010000
00000000
00100000
00000000
03001000
01000000
00100000
,  // measure 9
00011000
00000000
00000000
00000001
00000000
00000000
00000100
00000010
00000100
00000000
00000000
00000001
00000000
00000000
00001000
00000100
,  // measure 10
00001000
00000010
00000100
00010000
00000100
00000010
00010000
00001000
,  // measure 11
00100000
01000000
00100000
00001000
00010000
00000010
00000100
00000000
,  // measure 12
00000110
00000000
00000000
00000000
00010000
00001000
00010000
00001000
00010000
00000000
01000000
00000000
00100000
00000000
10000000
00000000
,  // measure 13
01001000
00000000
01000000
00000000
00100000
00000000
10000000
00000000
01000000
00100000
01000000
00000000
00010000
00000000
00000000
00000000
,  // measure 14
00001000
00000000
00010000
00000000
00000010
00000000
00000100
00000001
00000100
00000000
00000010
00000000
00001000
00000000
00000000
00000000
,  // measure 15
00000001
00000010
00001000
00000010
00000100
00000010
00000001
00000000
,  // measure 16
00000100
00000000
00000001
00001000
00000001
00000000
00000100
00000000
00000010
00000000
00010000
00000000
00102000
00000000
00000000
00000000
,  // measure 17
10003000
00000000
00000000
00000000
00011000
00000000
00000000
00000000
01000000
00100000
00000000
01000000
00100000
00000000
00000000
00000000
,  // measure 18
01000000
00000000
00010000
00100000
00010000
00000000
10000000
00100000
10000000
00000000
01000000
00000000
00100000
00000000
00000000
00000000
,  // measure 19
00010000
01000000
00001000
00010000
00000010
00000100
00000101
00000000
,  // measure 20
00000010
00000100
00000010
00001000
00000001
00000010
00000100
00010100
,  // measure 21
00010100
00010000
01000000
10000000
00100000
01000000
10100000
00000000
,  // measure 22
10000000
00010000
10000000
00000000
00110000
00000000
00000000
00000000
01000000
00000000
00100000
00000000
10000000
00000000
11000000
00000000
,  // measure 23
11000000
00000000
00100000
00000000
00001000
00000000
00000010
00000000
00000001
00000000
00000100
00000000
00000010
00000000
00010000
00001000
,  // measure 24
00010000
00000010
00000100
00001000
00000100
00000010
00010000
00000000
,  // measure 25
00001010
00000100
00000010
00001000
00000100
00000001
00000100
00000010
,  // measure 26
00000001
00000100
00000010
00001000
00000100
00010000
00100000
00000000
,  // measure 27
10100000
10000000
00010000
00100000
00001000
01000000
00100000
10000000
,  // measure 28
01000000
00100000
00010000
00000200
00000000
00000310
00000100
00000001
,  // measure 29
00000011
00000100
00001000
00000020
00000000
00001030
00000100
00020000
,  // measure 30
00000000
01000000
01030000
00100000
00010000
01000000
00100000
10000000
,  // measure 31
01000000
00100000
10000000
00100000
00001000
00010000
00000010
00000000
,  // measure 32
00000100
00000000
00000000
00000000
00000000
00000000
00000010
00000000
00000000
00000000
00000000
00000000
00001000
00000000
00000000
00000000
00000000
00000000
00022000
00000000
00000000
00000000
00000000
00000000
00000000
00003000
00000000
00000000
00000000
00000000
00000010
00000000
00000000
00000000
00000000
00000000
00030010
00000000
00000000
00000000
00000000
00000000
00000000
00000000
00000000
00000000
00000000
00000000
,  // measure 33
00001001
00000000
00001001
00000100
00000000
00000010
00000000
00020010
,  // measure 34
00000000
00001000
00031000
01000000
00001000
00010000
01000000
21000000
,  // measure 35
00000000
00000000
00100000
00000000
01000000
00000000
30100000
01100000
,  // measure 36
00000000
00010000
11000000
00000000
00100000
01000000
00010000
10000000
,  // measure 37
00100000
10000000
00010000
00100000
00001000
00010000
00000010
00000000
,  // measure 38
00010000
00000010
00000100
00000001
00000010
00000100
00001000
00000000
,  // measure 39
00000010
00010000
00000100
00001000
00000010
00000100
00000001
00000000
,  // measure 40
00000010
00010000
01000000
10000000
00100000
01000000
00010000
00000000
,  // measure 41
00022000
00000000
00000000
00000000
00033000
00000000
00001000
00010000
00002000
00000000
00020000
00000000
00000000
00000000
00033000
00000000
,  // measure 42
10010000
00100000
10000000
01000000
10000000
00100000
01000000
00001000
,  // measure 43
00010000
00000010
00000100
00000010
00000001
00000010
00010000
00000100
,  // measure 44
00000110
00000000
00000000
00000010
00000001
00000000
00002000
00000000
00000000
00000000
00003100
00000000
00001000
00000000
00000010
00000000
,  // measure 45
00000000
00010000
00100000
20000000
00000000
31000000
00101000
00000000
,  // measure 46
11000000
00010000
10000000
00100000
10000000
01000000
00100000
00000000
,  // measure 47
00110000
00001000
01000000
00001000
00010000
00000010
00000100
00000001
,  // measure 48
00000010
00000000
00000100
00001000
00000100
00000000
00020000
00000000
00000000
00000000
10000000
00000000
10000000
00000000
00000000
00000000
,  // measure 49
00031000
00010000
00000010
00000100
00000010
00001000
00000100
00000010
,  // measure 50
00000001
00000100
00001000
00000100
00000001
00000100
00000010
00010000
,  // measure 51
00001000
01000000
10100000
00000000
00001000
00100000
01000000
10000000
,  // measure 52
01010000
00000000
00000000
00100000
00010000
00000000
02000000
00000000
00000000
00000000
00001000
00000000
03001000
00000000
00000000
00000000
,  // measure 53
00010000
00020000
00031000
00002000
01003000
01100000
01100000
00000000
,  // measure 54
10010000
10000000
00010000
00001000
00000100
00000001
00000010
00000000
,  // measure 55
00001100
00001000
00000010
00000100
00000001
00000010
00000100
00001000
,  // measure 56
00010100
00001000
00000010
00000100
00000000
00000001
00000011
00000100
,  // measure 57
00000010
00001000
00000000
00000100
01000100
01000000
00100000
10000000
,  // measure 58
01100000
00000000
01100000
00000000
00000000
00000000
00100000
01000000
00100000
00000000
10000000
00000000
01000000
00000000
00100000
00000000
,  // measure 59
00001000
01000000
00001000
00202000
00000000
00000000
00000000
00000000
,  // measure 60
00000000
00000000
00000000
00303000
;

//---------------dance-double - ----------------
#NOTES:
     dance-double:
     :
     Medium:
     10:
     0.427190,0.474728,0.333417,0.604318,0.010419,287.000000,255.000000,32.000000,58.000000,0.000000,0.000000,0.427190,0.474728,0.333417,0.604318,0.010419,287.000000,255.000000,32.000000,58.000000,0.000000,0.000000:
00000000
00000000
00000000
00000000
,
00000000
00000000
00000000
00000000
,
00000000
00000000
00000000
00000000
,
00000000
00000000
00000020
00000200
00000000
00000000
00000000
00000000
,
00000000
00000000
00000030
00000000
00000301
00001000
00000100
00000000
,
00010000
00001000
00010000
02000000
00000000
20000000
00000000
03000000
,
00000000
00200000
00000000
30000000
00000000
01300000
00010000
10000000
,
00200000
00000000
00310000
00000200
00000000
00000000
00000000
00000001
,
00000000
00001000
00000000
00020300
00000000
00031000
00010000
00000010
,
00000110
00000000
00000001
00000100
00001000
00000000
00001100
00000000
,
00010000
01000000
10000000
00000000
00100000
00000000
01100000
00000000
,
10000000
00010000
00100000
00000000
00010000
10000000
00100000
00000000
,
00000000
00000000
10000000
01000000
00001000
01000000
10000000
00100000
,
10010000
00000000
00000000
00100000
00001000
00010000
00000001
00000000
,
00000100
00000010
00001000
00000000
00000011
00000000
00001100
00000000
,
00000001
00000010
00000100
00000000
00010000
00000010
00000100
00000000
,
00000010
00010000
00001000
00010000
01000000
00100000
02000000
00000000
,
03000000
00110000
21000000
30010000
,
01000000
00000000
00100000
00000000
10000000
00010000
01000000
00000000
,
00100000
00000000
10010000
00000000
00000100
00010000
00000100
00000000
,
00001000
00000010
00000100
00000000
00000001
00000000
00000101
00000000
,
00000100
00000000
00000110
00000000
00000010
00001000
00000100
00000000
,
00010000
00000000
00101000
00000000
01000000
00010000
10000000
00000000
,
00100000
10000000
01000000
00000000
10000000
00010000
01000000
00000000
,
00100000
01000000
00010000
00000000
10000000
01000000
00100000
00000000
,
00002000
00000000
00000000
00023000
00000000
00000000
00000000
00030020
,
00000000
00001030
00000001
00001000
00000100
00010000
00000000
00000000
,
00200000
00000000
00000000
02300000
00000000
00000000
00000000
03002000
,
00000000
00013000
00001000
00000010
00000000
00000100
00000010
00001000
,
00001002
00000000
00000013
00000200
00000000
00000000
00001300
00000020
,
00000000
00001030
00000001
00000010
00001000
00010000
01000000
00200000
,
00000000
00000000
00300000
00000000
00000000
00000000
01001000
00000000
00000000
00000000
00000000
00000000
01000000
00000000
00000000
00100000
00000000
00000000
01000000
00000000
00000000
00000000
00000000
00000000
,
00010000
10000000
00200000
02000000
00000000
00000000
03300000
00000000
,
00011000
00000000
00022000
00000000
00033000
00000000
00000000
00000020
,
00000000
00000031
00001000
00000000
00000001
00001000
00000000
00020200
,
00000000
00000000
00000000
00000000
00000300
00000000
00000000
00032000
,
00000000
01003000
00100000
00000000
10000000
11000000
00000000
00010000
,
10000000
02000000
00001000
00000000
00100000
00000000
00010000
00000000
,
10000000
00000000
03001000
00000200
00000000
00000000
00000000
00000000
,
00000301
00000010
00002000
00000000
01000000
00000000
00010000
00000000
,
00003100
00000000
00010000
00002000
00000000
00200000
00003000
00000000
,
02000000
00000000
00000000
03300000
,
11000000
00000000
01100000
00000000
00110000
00000000
01000000
00200000
,
00000000
20000000
00000000
00300000
00000000
30010000
10000000
01000000
,
00200000
00000000
00301000
00020000
00000000
00000000
00000000
00000000
,
00000000
00000000
00000000
01030000
00000000
00000000
00010000
00000000
00000000
00000200
00000000
00000000
00000000
00000000
00000300
00000000
00000000
00000000
00000012
00000000
00000000
00000000
00000000
00000000
,
00001003
00000010
00000100
00000002
00000000
00002000
00000000
00000003
,
00000000
00000200
00000000
00003000
00000000
00000301
00000100
00001000
,
00001001
00000000
00000200
00020000
00000000
00000300
00000000
00230000
,
00000000
20300000
00000000
30010000
10000000
00100000
10000000
00010000
,
00110000
00000000
10010000
00000000
11000000
00000000
00100000
02000000
,
00000000
00020000
00000000
03000000
00000000
10030000
00100000
00010000
,
00001000
00000010
00000100
00000020
00000000
00000000
00000000
00000000
,
00000031
00000101
00000000
00001100
00000000
00000001
00002000
00000000
,
00003010
00000100
00000010
00002000
00000000
00000002
00000000
00003000
,
00000000
00020000
00000000
00000003
00000000
00031000
00010000
01000000
,
11000000
00000000
00010000
01000000
00000000
00000000
01010000
00000000
,
00001000
01000000
00000000
00000000
10010000
00000000
01000000
00100000
,
20000000
00020000
00000000
00000000
00000000
00000000
30030000
10000000
,
01000000
00001000
01000000
02200000
00000000
00000000
00000000
00000000
,
00000000
00000000
00000000
03300000
;

//---------------dance-double - ----------------
#NOTES:
     dance-double:
     :
     Easy:
     7:
     0.325974,0.411431,0.354255,0.302159,0.000000,219.000000,185.000000,34.000000,29.000000,0.000000,0.000000,0.325974,0.411431,0.354255,0.302159,0.000000,219.000000,185.000000,34.000000,29.000000,0.000000,0.000000:
00000000
00000000
00000000
00000000
,
00000000
00000000
00000000
00000000
,
00000000
00000000
00000000
00000000
,
00000000
22000000
00000000
00000000
,
00000000
03000000
00010000
30010000
,
10010000
00100000
01000000
00010000
,
00110000
00001000
00010000
00000010
,
00000110
00002002
00000000
00003000
,
00000010
00000100
00000010
00000103
,
00011000
00000000
01000000
01000000
,
10000000
00100000
01000000
00010000
,
00100000
01000000
10000000
00010000
,
00100000
00101000
00010000
00000100
,
00001010
00000000
00001000
00000001
,
00000010
00000100
00000010
00000001
,
00000100
00000010
00001000
00000001
,
00000010
00000100
00010000
00022000
,
00030000
00003001
00000100
00001000
,
00000010
00000100
00000010
00001000
,
00000100
00010000
00001000
00000100
,
00001000
01000000
00100000
10000000
,
00010000
00110000
10000000
10100000
,
01000000
01010000
00001000
00101000
,
00010000
01000000
00010000
10000000
,
11000000
00010000
00001000
00000100
,
00000002
00000000
00002000
00003003
,
00000010
00000100
00000001
00000000
,
00000020
00000000
00000200
00000330
,
00010000
00001000
00100000
00000000
,
01100000
00001000
01000000
00000000
,
01100000
00100000
10000000
00010000
,
00200000
02000000
00000000
03300000
,
10010000
00001000
02002000
00003000
,
00100000
03100000
00000000
00000000
,
10000000
00010000
00100000
00000000
,
00022000
00000000
00000000
00003000
,
00000010
00000100
00030100
00000000
,
00000010
00001000
00000001
00000100
,
00000001
00000020
00000000
00000030
,
00000001
00001000
00000100
00010000
,
00001000
01000000
00100000
10000000
,
20200000
00000000
00000000
00300000
,
00010000
01000000
30010000
10000000
,
00100000
01000000
00100000
10000000
,
11000000
00020000
00000000
00000000
,
00100000
00100000
10000000
01030000
,
00001000
00000100
00000001
00000010
,
00000100
00000010
00000001
00001000
,
00000101
00002000
00000002
00000003
,
00000010
00000100
00010000
00013000
,
01000000
01100000
10010000
00010000
,
01000000
00100000
10000000
00010000
,
00110000
00002200
00000000
00003000
,
00010000
00001000
00010000
00001300
,
00000110
00000001
00000100
00000010
,
00010010
00010000
01000000
00100000
,
00110000
00000000
00000000
11000000
00000000
00000000
01010000
00000000
,
00000000
10100000
00000000
00000000
20000000
00000000
30010000
00000000
,
02000000
00002000
00000000
00000000
00000000
00000000
03003000
00000000
,
01100000
00022000
00000000
00000000
,
00000000
00000000
00000000
00033000
;
