#TITLE:BRILLIANT 2U (K.O.G G3 MIX);
#ARTIST:NAOKI;
#BANNER:BRILLIANT 2U (K.O.G G3 MIX)-bn.png;
#BACKGROUND:BRILLIANT 2U (K.O.G G3 MIX)-bg.png;
#JACKET:BRILLIANT 2U (K.O.G G3 MIX)-jacket.png;
#MUSIC:BRILLIANT 2U (K.O.G G3 MIX).ogg;
#SAMPLESTART:50.824;
#SAMPLELENGTH:20;
#DISPLAYBPM:170;
#BPMS:0=170.616,4=170;
#BGCHANGES:0=BRILLIANT 2U (K.O.G G3 MIX).avi=1=0=0=0,
;

//---------------dance-single - ----------------
#NOTES:
     dance-single:
     :
     Beginner:
     4:
     :
0000
0000
0000
0000
,
0000
0000
0000
0000
,
0000
0000
0000
0000
,
0000
0000
0000
0000
,
0000
0000
0000
0000
,
0000
0000
0000
0000
,
0010
0000
0010
0000
,
0100
0000
0100
0000
,
0001
0000
0001
0000
,
1000
1000
1000
0000
,
1001
0000
0110
0000
,
0010
0010
0010
0000
,
1000
0000
1000
0000
,
0100
0000
0100
0000
,
0010
0000
0010
0000
,
0001
0000
0001
0000
,
0100
0000
0100
0000
,
0010
0000
0010
0000
,
1000
0000
1000
0000
,
0001
0000
0001
0000
,
1000
0000
0010
0000
,
0100
0000
0001
0000
,
0010
0000
0001
0000
,
1000
0000
0100
0000
,
0010
0000
0100
0000
,
1000
0000
0001
0000
,
1000
0000
0001
0000
,
0010
0010
0010
0000
,
0001
0001
0001
0001
,
0000
0000
0100
0000
,
0110
0110
0110
0000
,
1001
0000
1000
0000
,
0100
0100
0100
0100
,
0000
0000
1000
0000
,
1001
1001
1001
0000
,
0010
0010
0010
0000
,
1000
1000
0000
0000
,
1001
1001
1001
0000
,
0001
0000
0010
0000
,
0110
0110
0110
0000
,
0001
0001
0000
0000
,
1001
1001
1001
0000
,
0100
0000
0010
0000
,
0100
0100
0100
0000
,
0002
0000
0003
0000
,
2000
0000
3000
0000
,
0020
0000
0030
0000
,
0200
0000
0300
0000
,
0002
0000
0003
0000
,
0020
0000
0030
0000
,
0200
0000
0300
0000
,
2000
0000
3000
0000
,
0010
0000
1000
0000
,
0100
0000
0001
0000
,
0010
0000
0100
0000
,
1000
0000
0001
0000
,
1000
0000
0010
0000
,
0100
0000
0001
0000
,
0010
0000
0001
0000
,
1000
0000
0100
0000
,
0010
0000
0000
0000
;

//---------------dance-single - ----------------
#NOTES:
     dance-single:
     :
     Easy:
     7:
     :
0000
0000
0000
0000
,
0000
0000
0000
0000
,
0000
0000
0000
0000
,
0000
0000
0000
0000
,
0000
0000
0000
0000
,
0000
0000
0000
0000
,
0010
0000
1000
0001
,
0100
0000
0001
1000
,
0100
0000
0010
0001
,
1000
1000
1000
1000
,
1001
0010
0100
0001
,
0010
0010
0010
1001
,
0001
0100
1000
0010
,
1000
0001
1000
0100
,
0010
0001
0010
0100
,
1000
0010
1000
0001
,
0100
0010
0100
0001
,
0010
0100
1000
0010
,
1000
0001
0010
0100
,
1000
0010
1000
0001
,
0000
0010
0000
0010
0000
0010
0000
0010
,
0000
0010
0000
0010
0000
0010
0000
0010
,
0000
0001
0000
0001
0000
0001
0000
0001
,
0000
0001
0000
0001
0000
0001
0000
0001
,
0000
1000
0000
1000
0000
1000
0000
1000
,
0000
1000
0000
1000
0000
1000
0000
1000
,
0000
0100
0000
0100
0000
0100
0000
0100
,
0000
0100
0000
0100
0000
0100
0000
0100
,
0010
0001
0100
0100
,
0000
1001
0001
1000
,
0110
0110
0110
0001
,
1001
0010
1000
0001
,
0100
0001
1000
1000
,
0010
0100
0110
0110
,
1001
1001
1001
1000
,
0100
0010
0001
0100
,
2000
0002
0000
0000
,
0000
3003
0100
0010
,
1000
0100
1000
0001
,
1001
0110
1001
0110
,
0200
0020
0000
0000
,
0000
0330
1000
0001
,
0010
0001
1000
1000
,
0001
0001
0001
0001
,
0010
0001
0200
0000
,
0310
1000
0200
0000
,
1300
0001
0020
0000
,
0031
1000
0200
0000
,
1300
0100
2000
0000
,
3001
0100
0002
0000
,
1003
0010
2000
0000
,
3001
0010
0002
0000
,
1003
0001
1000
0001
,
0010
0100
2000
3000
,
0010
1000
0010
0100
,
0001
0010
0200
0300
,
0010
0001
1000
0010
,
1000
0100
0002
0003
,
0010
0001
0100
1000
,
0001
0010
0100
1000
,
0020
0000
0000
0000
,
0030
0000
0000
0000
;

//---------------dance-single - ----------------
#NOTES:
     dance-single:
     :
     Medium:
     9:
     :
0000
0000
0000
0000
,
0000
0000
0000
0000
,
0000
0000
0000
0000
,
0000
0000
0000
0000
,
0000
0000
0000
0000
,
0000
0000
0000
0000
0000
0000
0000
0100
,
0020
0000
0000
0032
0000
0000
0203
0000
,
0320
0000
0000
2030
0000
0000
3001
0100
,
0020
0000
0000
0230
0000
0000
0302
0000
,
1003
0100
1000
0100
1000
0100
0010
0000
,
1001
0000
0001
0100
0001
0000
1001
0000
,
0010
0000
0000
0010
0000
0000
0010
0000
0000
0000
1000
0000
0001
0000
0000
0000
,
0100
0000
0001
1000
0000
0100
0010
0000
,
0001
0000
1000
0010
0000
1000
0100
0000
,
0010
0000
0001
1000
0000
0100
0010
0000
,
0100
0000
1000
0010
0000
0100
0001
0000
,
0010
0000
0001
1000
0000
0001
0100
0000
,
0001
0000
0010
0100
0000
1000
0010
0000
,
1000
0000
0001
0010
0000
0001
0100
0000
,
0010
0000
1000
0100
0000
1000
0001
0000
,
0000
0010
0000
0010
0000
0100
0000
0100
,
0000
1000
0000
0001
0000
1000
0000
0001
,
0000
0100
0000
0010
0000
0100
0000
0010
,
0000
1000
0000
1000
0000
0001
0000
0001
,
0000
0010
0000
0001
0000
0010
0000
0001
,
0000
1000
0000
0100
0000
1000
0000
0100
,
0000
1000
0000
0010
0000
1000
0000
0010
,
0000
0100
0000
0001
0000
0100
0000
0001
,
0010
0000
0010
0000
0001
0100
1000
0000
,
0000
0000
1001
0000
0010
1000
0100
0000
,
0110
0000
0110
0000
0110
0001
1000
0000
,
1000
0010
1000
0010
1000
0010
1000
0001
,
0100
0000
0100
0000
0001
0010
1000
0000
,
0100
1000
0001
0000
0101
0000
1100
0000
,
0110
0000
0110
0000
0110
0000
0001
1000
,
0010
1000
0010
1000
0010
0100
0001
1000
,
1100
0000
0002
2000
0000
0000
0000
0000
,
0000
0000
0000
0000
0003
0000
3010
0000
0100
0000
0000
0001
0000
0000
1000
0000
,
0100
0000
0100
0000
1000
0010
0001
0000
,
1001
0000
0110
0000
1001
0000
1000
0001
,
1001
0000
0020
0200
0000
0000
0000
0000
,
0000
0000
0000
0000
0030
0000
0301
0000
1000
0000
0000
0100
0000
0000
0010
0000
,
0001
1000
0010
0000
1010
0000
0011
0000
,
1000
0100
1000
0100
1000
0100
0010
0000
,
0001
0100
1000
0100
0001
0200
0000
0000
,
0301
0100
1000
0100
0002
0000
0000
0000
,
1003
0100
0001
0100
1000
0200
0000
0000
,
1300
0100
0001
0100
2000
0000
0000
0000
,
3001
0010
1000
0010
0001
0020
0000
0000
,
0031
0010
1000
0010
0002
0000
0000
0000
,
1003
0010
0001
0010
1000
0020
0000
0000
,
1030
0010
0001
0010
2000
0000
0000
3000
,
0000
0010
0000
0010
0000
0100
0000
0100
,
0000
1000
0000
0001
0000
1000
0000
0001
,
0000
0100
0000
0010
0000
0100
0000
0010
,
0000
1000
0000
1000
0000
0001
0000
0001
,
0000
1000
0000
0100
0000
1000
0000
0100
,
0000
0010
0000
0001
0000
0010
0000
0001
,
0000
1000
0000
0010
0000
1000
0000
0010
,
0000
0100
0000
0001
0000
0100
0000
0001
,
0010
0000
0000
0000
;

//---------------dance-single - ----------------
#NOTES:
     dance-single:
     :
     Hard:
     10:
     :
0000
0000
0000
0000
,
0000
0000
0000
0000
,
0000
0000
0000
0000
,
0000
0000
0000
0000
,
0000
0000
0000
0000
,
0000
0000
0000
0000
0000
0000
0000
0100
,
0010
1000
0001
0100
,
0001
0000
0100
0000
0010
0000
1000
0001
,
0100
0010
1000
0001
,
1000
0000
0010
0000
0100
0000
0001
1000
,
1001
0000
0010
0100
0010
0000
1001
0000
,
0110
0000
0001
1000
0000
0100
0010
0000
,
0010
0000
0001
0000
1000
0001
0100
0000
,
0010
0000
0100
0000
0001
0100
1000
0000
,
0100
0000
0010
0000
1000
0001
0100
0000
,
0010
0000
1000
0000
0001
1000
0100
0000
,
0010
0000
0100
0000
1000
0100
0001
0000
,
0100
0000
0010
0000
0001
1000
0100
0000
,
1000
0000
0001
0000
1000
0001
0100
0000
,
0001
0000
1000
0000
0001
1000
0100
0000
,
0000
1001
0000
0110
0000
1001
0000
0110
,
0000
1010
0000
0101
0000
0011
0000
1100
,
0000
0001
0000
1000
0000
0010
0000
0100
,
0000
0010
0000
1000
0000
0001
0000
0100
,
0000
1010
0000
0110
0000
0101
0000
1001
,
0000
1100
0000
0011
0000
0110
0000
1001
,
0000
0110
0000
1001
0000
0110
0000
1001
,
0010
0000
0000
0100
0000
0000
0001
0000
0000
0000
1000
0000
0001
0000
0000
0000
,
0010
0000
0000
0001
0000
0000
0100
0000
0000
0000
1000
0000
0100
0000
0001
0000
,
1000
1000
1000
1000
,
0010
0000
0000
1000
0000
0000
0100
0000
0000
0000
0001
0000
0100
0000
1000
0000
,
0001
0001
0001
0001
,
1000
0000
0000
0001
0000
0000
0100
0000
0000
0000
0010
0000
1000
0000
0100
0000
,
0001
0100
1000
0000
0110
0000
1001
0000
,
0010
0000
0000
1000
0000
0000
0100
0000
0000
0000
1000
0000
0001
0000
0100
0000
,
0010
0000
0000
0100
0000
0000
0001
0000
0000
0000
1000
0000
0100
0000
0010
0000
,
0001
0000
1000
0200
0000
0000
0000
0000
,
0001
0000
1000
0000
0001
0000
1300
0001
,
0100
0000
0000
0010
0000
0000
1000
0000
0000
0000
0001
0000
1000
0000
0100
0000
,
0010
0001
1000
0100
,
1000
0000
0001
0200
0000
0000
0000
0000
,
1000
0000
0001
0000
1000
0000
0301
1000
,
0100
0000
0000
0010
0000
0000
0001
0000
0000
0000
1000
0000
0001
0000
0100
0000
,
0010
0000
1000
0000
0001
1000
0100
0000
,
0010
0000
0001
0000
1000
0100
0000
1000
0000
0001
0000
0000
0000
0000
0100
0000
,
0010
0000
1000
0000
0001
0100
0000
0001
0000
0000
0000
0000
0000
0000
0000
0000
,
1000
0000
0010
0000
0100
0010
0000
0100
0000
0001
0000
0000
0000
0000
1000
0000
,
0001
0000
0010
0000
0100
0010
0000
0100
0000
0000
0000
0000
0000
0000
0000
0000
,
1000
0000
0001
0000
0100
0010
0000
0100
0000
0001
0000
0000
0000
0000
1000
0000
,
0001
0000
1000
0000
0100
0010
0000
0100
0000
0000
0000
0000
0000
0000
0000
0000
,
0010
0000
0001
0000
0100
0001
0000
0100
0000
0010
0000
0000
0000
0000
1000
0000
,
0010
0000
1000
0000
0100
1000
0000
0100
0000
0000
0000
0000
0000
0000
0000
0000
,
0000
0010
0000
1000
0000
0010
0000
0100
,
0000
0001
0000
0100
0000
0001
0000
1000
,
0000
0100
0000
0011
0000
0100
0000
1000
,
0000
0001
0000
1100
0000
0010
0000
0001
,
0000
1010
0000
0100
0000
0011
0000
1000
,
0000
0101
0000
0010
0000
1100
0000
0001
,
0000
0110
0000
1001
0000
0110
0000
1001
,
0010
1000
0001
0100
0010
0100
0001
0100
,
0010
0000
0000
0000
;

//---------------dance-single - ----------------
#NOTES:
     dance-single:
     :
     Challenge:
     14:
     :
0000
0000
0000
0000
,
0000
0000
0000
0000
,
0000
0000
0000
0000
,
0000
0000
0000
0000
,
0000
0000
0000
0000
,
0000
0000
0000
0000
,
0010
0000
0000
1000
0000
0000
0100
0000
0000
0010
0000
0000
0001
0000
1000
0000
,
0001
0000
0000
0010
0000
0000
0100
0000
0000
1000
0000
0000
0010
0000
0100
0000
,
0010
0000
0000
1000
0000
0000
0001
0000
0000
1000
0000
0000
0100
0000
0010
0000
,
0001
0100
0000
0010
1000
0010
1000
0010
1000
0000
0010
0000
0010
0000
0100
0000
,
1001
0000
1100
1100
1100
0000
0011
0000
,
0101
0000
0000
1100
0000
0000
0101
0000
0000
0000
0110
0000
1001
0000
0000
0000
,
0010
0000
1000
0000
0100
0000
1000
0001
0000
0001
0010
0000
0100
0000
1000
0000
,
0010
0000
0001
0000
0010
0000
1000
0100
0000
0100
0010
0000
0001
0000
1000
0000
,
0100
0000
0001
0000
0100
0000
0010
0001
0000
0001
1000
0000
0010
0000
0100
0000
,
1000
0000
0100
0000
0001
0000
0010
0001
0000
0001
1000
0000
0100
0000
0010
0000
,
0100
0000
0001
0000
0100
0000
0010
0001
0000
0001
1000
0000
0100
0000
0010
0000
,
0100
0000
1000
0000
0010
0000
0100
0001
0000
0001
1000
0000
0010
0000
0100
0000
,
0001
0000
0010
0000
1000
0000
0010
0001
0000
0001
1000
0000
0100
0000
0010
0000
,
1000
0000
0010
0000
0100
0000
0010
0001
0000
0001
0100
0000
0010
0000
1000
0000
,
0001
0001
0010
0010
1000
1000
0100
0100
,
0010
0010
0001
0001
0100
0100
1000
1000
,
0010
0010
1000
1000
0001
0001
0100
0100
,
0001
0001
0010
0010
1000
1000
0100
0100
,
0010
0010
0100
0100
0010
0010
0001
0001
,
0100
0100
1000
1000
0010
0010
0001
0001
,
1000
1000
0001
0001
0010
0010
0100
0100
,
1100
0000
0000
0011
0000
0000
1100
0000
0000
0000
1001
0000
0110
0000
0100
0001
,
1000
0000
0000
0010
0000
0000
0100
0000
0000
0001
0000
0000
0011
0000
0100
0000
,
1000
0000
0010
0000
1000
0001
0000
0000
0100
0000
0100
0000
0100
0010
1000
0000
,
1100
0000
0000
0000
0101
0000
0000
0000
1100
0000
0001
0100
0010
0100
0000
0000
,
1001
0000
0010
0000
1000
0000
0100
0000
0010
0001
0010
0001
0010
0000
0100
0000
,
0100
0000
0000
1000
0000
0000
0001
0000
0000
0010
0000
0000
0110
0000
0000
0000
,
1000
0000
1000
0000
1010
0000
0000
0000
0100
0010
0000
0010
0001
0000
0000
0000
,
0101
0000
1100
0000
0101
0000
1000
0100
,
0010
0001
0010
0001
0010
0000
0100
0000
1000
0000
0100
0000
0001
0000
0100
0000
,
1000
0000
0010
0100
0001
0000
0001
0000
0000
0010
0000
0000
1000
0000
0100
0000
,
1010
0000
0000
0000
0011
0000
0100
0001
1000
0000
0000
0010
0000
0000
0100
0000
,
0001
0000
0000
0010
0000
0000
1000
0000
0000
0100
0000
0000
0110
0000
0000
0000
,
0011
0000
0000
0000
1100
0000
0000
0000
0011
0000
0000
0000
0100
0010
0100
0010
,
0100
0000
0001
1000
0010
0000
0010
0000
0000
0100
0000
0000
0001
0000
1000
0000
,
1100
0000
0000
0000
0110
0000
0000
0000
0011
0000
0100
0001
1000
0001
0000
0000
,
0010
0000
0010
0000
0010
0000
0100
0000
1000
0001
0000
0001
0100
0000
0010
0000
,
1000
0100
0000
0010
0001
0010
0001
0010
0001
0000
0110
0000
1001
0000
0010
0000
,
1000
0000
1000
0000
0001
0100
0000
0010
0000
0020
0000
0000
0000
0000
0130
0001
,
0010
0000
0010
0000
0001
1000
0000
2000
0000
0000
0000
0000
0000
0000
3100
0000
,
1000
0000
1000
0000
0100
0010
0000
0001
0000
0002
0000
0000
0000
1003
0100
0010
,
0001
0000
0001
0000
0010
0100
0000
0200
0000
0000
0000
0000
0000
0000
1300
0010
,
1000
0000
1000
0000
0001
0010
0000
0100
0000
0200
0000
0000
0000
0310
0001
1000
,
0001
0000
0001
0000
1000
0010
0000
0020
0000
0000
0000
0000
0000
0000
0130
0000
,
0010
0000
0010
0000
1000
0100
0000
1000
0000
0002
0000
0000
0000
0103
0001
1000
,
0010
0000
0010
0000
0100
0001
0000
1000
0000
0100
1000
0000
1000
0000
0001
0010
,
0100
0100
0010
0010
0001
0001
0100
0100
,
1000
1000
0001
0001
0010
0010
0100
0100
,
0010
0010
0001
0001
0100
0100
1000
1000
,
0001
0001
1000
1000
0010
0010
0001
0001
,
1000
1000
0001
0001
0010
0010
0100
0100
,
0010
0010
0001
0001
1000
1000
0100
0100
,
1000
1000
0010
0010
0001
0001
0100
0100
,
0001
0010
0001
0010
0001
1000
0001
1000
0100
0010
0100
0010
0100
1000
0100
1000
,
0020
0000
0000
0000
,
0030
0000
0000
0000
;

//---------------dance-double - ----------------
#NOTES:
     dance-double:
     :
     Easy:
     6:
     :
00000000
00000000
00000000
00000000
,
00000000
00000000
00000000
00000000
,
00000000
00000000
00000000
00000000
,
00000000
00000000
00000000
00000000
,
00000000
00000000
00000000
00000000
,
00000000
00000000
00000000
00000000
,
00100000
00010000
01000000
00100000
,
10000000
01000000
10000000
00010000
,
00000010
00000100
00001000
00000001
,
00000100
00000010
00001000
00000001
,
00001001
00000100
00000110
00000110
,
00000001
00001000
00000001
00001001
,
00000010
00010000
00001000
00000100
,
00000001
00000010
00000100
00010000
,
00001000
01000000
00100000
01000000
,
00001000
00010000
01000000
00100000
,
00001000
01000000
00100000
10000000
,
00010000
10000000
01000000
00100000
,
00001000
00000010
00000100
00000010
,
00000001
00000100
00000010
00010000
,
00000000
00001000
00000000
00001000
,
00000000
00010000
00000000
00010000
,
00000000
00000010
00000000
00000010
,
00000000
00000100
00000000
00000100
,
00000000
00000001
00000000
00000001
,
00000000
00000010
00000000
00000010
,
00000000
00000100
00000000
00000100
,
00010000
00001000
00010000
00011000
,
00100000
00100000
00010000
10000000
,
00000000
10010000
00100000
10000000
,
11000000
11000000
11000000
00010000
,
00110000
00100000
00001000
00010000
,
00000100
00000100
00000010
00000001
,
00001000
00000001
00000100
00000100
,
00010010
00010010
00010010
00001000
,
01000000
00100000
00010000
10000000
,
00200000
02000000
00000000
00000000
,
00000000
03300000
00010000
10000000
,
01000000
00100000
00001000
00010000
,
00010100
00010100
00010100
00000010
,
00000002
00002000
00000000
00000000
,
00000000
00003003
00000010
00000100
,
00000001
00000011
00001000
00000100
,
00010000
00001000
00010000
00011000
,
01000000
10000000
00020000
00000000
,
00130000
00010000
02000000
00000000
,
03001000
00010000
00000200
00000000
,
00001300
00000100
00000020
00000000
,
00000031
00000100
00002000
00000000
,
00003010
00010000
02000000
00000000
,
13000000
00010000
00200000
00000000
,
00310000
01000000
00002000
00000000
,
00013000
00010000
00001000
00001000
,
00010000
00000010
00000200
00000000
,
00000301
00000001
00001000
00001000
,
00000010
00000100
00000002
00000000
,
00001003
00001000
00000100
00000100
,
00010000
00001000
00020000
00000000
,
00130000
10000000
02000000
00000000
,
13000000
00100000
01000000
00001000
,
00010000
00000000
00000000
00000000
;

//---------------dance-double - ----------------
#NOTES:
     dance-double:
     :
     Medium:
     9:
     :
00000000
00000000
00000000
00000000
,
00000000
00000000
00000000
00000000
,
00000000
00000000
00000000
00000000
,
00000000
00000000
00000000
00000000
,
00000000
00000000
00000000
00000000
,
00000000
00000000
00000000
00000000
00000000
00000000
00000000
00010000
,
00000010
00001000
00000001
00000100
,
00001000
00010000
01000000
00100000
,
00010000
10000000
01000000
00100000
,
00010000
01000000
00010000
10000000
,
10010000
00000000
01000000
00010000
00001000
00000000
00000110
00000000
,
00001001
00000000
00000100
00010000
00000000
01000000
00100000
00000000
,
00010000
00000000
10000000
00000000
00100000
00010000
00001000
00000000
,
00000010
00000000
00000100
00000000
00001000
00000001
00000100
00000000
,
00000010
00000000
00000100
00000000
00001000
00010000
01000000
00000000
,
10000000
00000000
00010000
00000000
00100000
01000000
00010000
00000000
,
00001000
00000000
00000100
00000000
00000010
00001000
00000100
00000000
,
00000010
00000000
00000001
00000000
00000100
00001000
00010000
00000000
,
00100000
00000000
10000000
00000000
00010000
10000000
01000000
00000000
,
00100000
01000000
00100000
10010000
,
00000000
00100000
00000000
00010000
00000000
10000000
00000000
01000000
,
00000000
00010000
00000000
00001000
00000000
00000100
00000000
00000010
,
00000000
00001000
00000000
00000001
00000000
00000100
00000000
00000010
,
00000000
00000100
00000000
00000001
00000000
00001001
00000000
00001001
,
00000000
00000010
00000000
00001000
00000000
00000010
00000000
00000001
,
00000000
00000100
00000000
00001000
00000000
00010000
00000000
01000000
,
00000000
00100000
00000000
10000000
00000000
00100000
00000000
00010000
,
00000000
01000000
00000000
00100000
00000000
10010000
00000000
10010000
,
10000000
00000000
00000000
01000000
00000000
00000000
00010000
00000000
00000000
00000000
00001000
00000000
00000100
00000000
00000001
00000000
,
00000010
00000000
00000100
00000000
00000010
00000001
00000100
00000000
,
00000001
00000000
00000000
00000100
00000000
00000000
00001000
00000000
00000000
00000000
00010000
00000000
01000000
00000000
10000000
00000000
,
00100000
00000000
01000000
00000000
00100000
10000000
01000000
00000000
,
10000000
00000000
00000000
00100000
00000000
00000000
00010000
00000000
00000000
00000000
00001000
00000000
00000010
00000000
00000001
00000000
,
00001000
00000000
00000001
00000000
00001000
00000001
00000100
00000000
,
00000001
00000000
00000000
00000010
00000000
00000000
00001000
00000000
00000000
00000000
00010000
00000000
00100000
00000000
10000000
00000000
,
10000000
00000000
00000000
01000000
00000000
00000000
00010000
00000000
00000000
00000000
00001000
00000000
00000100
00000000
00000001
00000000
,
00001000
00000000
00000001
00000020
00000000
00000000
00000000
00000000
,
00001000
00001000
00001000
00001030
,
00001000
00000000
00000000
00010000
00000000
00000000
00100000
00000000
00000000
00000000
10000000
00000000
01000000
00000000
00010000
00000000
,
00001000
00000100
00001000
01000000
,
00010000
00000000
10000000
00200000
00000000
00000000
00000000
00000000
,
00010000
00010000
00010000
00310000
,
00010000
00000000
00000000
00001000
00000000
00000000
00000010
00000000
00000000
00000000
00000001
00000000
00000100
00000000
00001000
00000000
,
00010000
00000000
01000000
00000000
00010000
00001000
00000100
00000000
,
00000010
00000000
00000100
00000000
00000001
00000100
00000000
00000001
00000000
00000100
00000000
00000000
00000000
00000000
00001000
00000000
,
00010000
00000000
00100000
00000000
10000000
00100000
00000000
10000000
00000000
00000000
00000000
00000000
01000000
00000000
00000000
00000000
,
00100000
00000000
01000000
00000000
10000000
01000000
00000000
10000000
00000000
01000000
00000000
00000000
00000000
00000000
00010000
00000000
,
00001000
00000000
00000010
00000000
00000001
00000010
00000000
00000001
00000000
00000000
00000000
00000000
00000000
00000000
00000000
00000000
,
00000010
00000000
00000100
00000000
00001000
00010000
00000000
00001000
00000000
00010000
00000000
00000000
00000000
00000000
00100000
00000000
,
10000000
00000000
01000000
00000000
10000000
01000000
00000000
00100000
00000000
00000000
00000000
00000000
01000000
00000000
00000000
00000000
,
00100000
00000000
01000000
00000000
00010000
00001000
00000000
00010000
00000000
00001000
00000000
00000000
00000000
00000000
00000010
00000000
,
00000001
00000000
00000100
00000000
00000001
00000100
00000000
00000010
00000000
00000000
00000000
00000000
00000000
00000000
00001000
00000000
,
00000000
00000001
00000000
00000100
00000000
00000010
00000000
00000100
,
00000000
00001000
00000000
00010000
00000000
00100000
00000000
00010000
,
00000000
00001000
00000000
00000010
00000000
00001000
00000000
00010000
,
00000000
01000000
00000000
10000000
00000000
01000000
00000000
10000000
,
00000000
00100000
00000000
10000000
00000000
01000000
00000000
00010000
,
00000000
00001000
00000000
00000100
00000000
00000010
00000000
00000100
,
00000000
00000101
00000000
00001010
00000000
00010100
00000000
00101000
,
00000000
01010000
00000000
10100000
00000000
01000000
00010000
00001000
,
00000100
00000000
00000000
00000000
;

//---------------dance-double - ----------------
#NOTES:
     dance-double:
     :
     Hard:
     11:
     :
00000000
00000000
00000000
00000000
,
00000000
00000000
00000000
00000000
,
00000000
00000000
00000000
00000000
,
00000000
00000000
00000000
00000000
,
00000000
00000000
00000000
00000000
,
00000000
00000000
00000000
00000000
00000000
00000000
00000000
10000000
,
00100000
00000000
00000000
01000000
00000000
00000000
00010000
00000000
00000000
10000000
00000000
00000000
01000000
00000000
00000000
00000000
,
00100000
00000000
00000000
00001000
00000000
00000000
00010000
00000000
00000000
00000100
00000000
00000000
00000010
00000000
00000001
00000000
,
00000100
00000000
00000000
00000010
00000000
00000000
00001000
00000000
00000000
00000001
00000000
00000000
00000100
00000000
00000000
00000000
,
00000010
00010000
00000010
00010000
00000010
00000100
00000100
00000001
,
00001001
00000000
00000010
00010000
01000000
00000000
01100000
00000000
,
00001000
00000000
00000000
00001000
00000000
00000000
00001000
00000000
00000000
00000000
00011000
00000000
00011000
00000000
00000000
00000000
,
01000000
00000000
00000000
10000000
00000000
00000000
00100000
00000000
00000000
01000000
00010000
00000000
10000000
00000000
00100000
00000000
,
01000000
00000000
00000000
00010000
00000000
00000000
00001000
00000000
00000000
00000100
00000001
00000000
00000010
00000000
00000100
00000000
,
00001000
00000000
00000000
00000010
00000000
00000000
00010000
00000000
00000000
00000100
00000010
00000000
00000001
00000000
00000100
00000000
,
00001000
00000000
00000000
00100000
00000000
00000000
00010000
00000000
00000000
10000000
01000000
00000000
00100000
00000000
00001000
00000000
,
01000000
00000000
00000000
00100000
00000000
00000000
10000000
00000000
00000000
01000000
00100000
00000000
00001000
00000000
00010000
00000000
,
00000010
00000000
00000000
00000100
00000000
00000000
00000001
00000000
00000000
00000100
00001000
00000000
00010000
00000000
00000100
00000000
,
00000010
00000000
00000000
00000100
00000000
00000000
00001000
00000000
00000000
00000001
00000100
00000000
00000010
00000000
00001000
00000000
,
00100000
00000000
00000000
10000000
00000000
00000000
01000000
00000000
00000000
00100000
00010000
00000000
10000000
00000000
01000000
00000000
,
00000000
10000000
01000000
00100000
00000000
00010000
01000000
00100000
,
00000000
10000000
01000000
00010000
00000000
00001000
00000010
00000001
,
00000000
00000100
00000001
00000010
00000000
00000001
00001000
00000010
,
00000000
00000100
00000010
00001000
00000000
01000000
00100000
00010000
,
00000000
10000000
00010000
00100000
00000000
00010000
00001000
00000100
,
00000000
00000001
00000010
00000100
00000000
00000010
00000001
00001000
,
00000000
00000010
00010000
00001000
00000000
00010000
00000100
00000010
,
00000001
00000000
00000000
00000100
00000000
00000000
00001000
00000000
00000000
00000000
00011000
00000000
00011000
00000000
00000000
00000000
,
00010000
00000000
00000000
00001000
00000000
00000000
01000000
00000000
00000000
00100000
00000000
00000000
10000000
00000000
00000000
00000000
,
01000000
00000000
00100000
00000000
00010000
10000000
00000000
00000000
00100000
00000000
10000000
00000000
01000000
00000000
00100000
00000000
,
00001000
00000000
00000000
00010000
00000000
00000000
00000010
00000000
00000000
00001000
00000000
00000000
00000001
00000000
00000000
00000000
,
00001001
00000010
00001000
00000100
00000001
00000100
00001000
00010000
,
01000000
00000000
00000000
00100000
00000000
00000000
01000000
00000000
00000000
10000000
00000000
00000000
00010000
00000000
00000000
00000000
,
00100000
00000000
01000000
00000000
11000000
00000000
00000000
00000000
10000000
00010000
00000000
10000000
00010000
00000000
00000000
00000000
,
01000000
00000000
00000000
00100000
00000000
00000000
10000000
00000000
00000000
00010000
00000000
00000000
00100000
00000000
01000000
00000000
,
00010000
00001000
00000100
00000001
00000010
00000100
00001000
00000001
,
00000010
00000000
00000001
00000000
00000100
00000000
00000010
00000000
00000000
00001000
00000000
00000000
00010000
00000000
00000000
00000000
,
00110000
00000000
11000000
00000000
00110000
00000000
10000000
00010000
,
01000000
00000000
00000000
00100000
00000000
00000000
10000000
00000000
00000000
01000000
00000000
00000000
00010000
00000000
00001000
00000000
,
01001000
00000000
01010000
00000000
01100000
00000000
10000000
00010000
,
00100000
00000000
01000000
00000000
10000000
00000000
00100000
00000000
00000000
01000000
00000000
00000000
00010000
00000000
00000000
00000000
,
00110000
00000000
00011000
00000000
00001100
00000001
00000010
00000000
,
00000100
00000000
00000010
00000000
00000110
00000000
00000000
00000000
00000001
00001000
00000000
00000001
00001000
00000000
00000000
00000000
,
00000010
00010000
00000000
00000010
00010000
00000000
00001000
00000000
01000000
00000000
00011000
00000000
00011000
00000000
00000000
00000000
,
00100000
00000000
00000000
00010000
00000000
00000000
01000000
00000000
00000000
00100000
00000000
00000000
10000000
00000000
01000000
00000000
,
00010000
00000000
00000000
00001000
00000000
00000000
01000000
00000000
00000000
00100000
00000000
00000000
10000000
00000000
00010000
00000000
,
00100000
00000000
00000000
00001000
00000000
00000000
00010000
00000000
00000000
00000100
00000000
00000000
00001000
00000000
00000001
00000000
,
00000010
00000000
00000000
00000001
00000000
00000000
00001000
00000000
00000000
00000010
00000000
00000000
00010000
00000000
00000100
00000000
,
00000010
00000000
00000000
00000001
00000000
00000000
00000100
00000000
00000000
00001000
00000000
00000000
00100000
00000000
01000000
00000000
,
10000000
00000000
00000000
00010000
00000000
00000000
01000000
00000000
00000000
00001000
00000000
00000000
00100000
00000000
01000000
00000000
,
10000000
00000000
00000000
00010000
00000000
00000000
01000000
00000000
00000000
00001000
00000000
00000000
00010000
00000000
00000010
00000000
,
00000100
00000001
00000000
00000100
00000001
00000000
00000100
00000001
00000000
00000100
00000001
00000000
00000100
00000000
00000010
00000000
,
00001000
00000000
00000001
00000000
00000010
00000100
00000000
00001000
00000000
00000002
00000000
00000000
00000000
00000000
00000103
00000010
,
00000100
00000000
00000001
00000000
00001000
00000100
00000000
00020000
00000000
00000000
00000000
00000000
00000000
00000000
00031000
00000000
,
00010000
00000000
01000000
00000000
00100000
01000000
00000000
10000000
00000000
00020000
00000000
00000000
00000000
00000000
01030000
00001000
,
01000000
00000000
00100000
00000000
10000000
00010000
00000000
02000000
00000000
00000000
00000000
00000000
03010000
00100000
00010000
00100000
,
00010000
00000000
00000010
00000000
00000001
00000100
00000000
00000010
00000000
00002000
00000000
00000000
00000000
00000000
00003100
00000010
,
00000100
00000000
00000001
00000000
00000100
00001000
00000000
00000020
00000000
00000000
00000000
00000000
00000000
00000000
00000031
00000000
,
00000010
00000000
00001000
00000000
00000100
00010000
00000000
00001000
00000000
00200000
00000000
00000000
00000000
00000000
00000000
00000000
,
00310000
00000000
01000000
00000000
00100000
00000000
10000000
00000000
01000000
00000000
00010000
00000000
01000000
00100000
01000000
00100000
,
02000000
00000000
00000000
00000000
,
03000000
00000000
00000000
00000000
;

//---------------dance-double - ----------------
#NOTES:
     dance-double:
     :
     Challenge:
     14:
     :
00000000
00000000
00000000
00000000
,
00000000
00000000
00000000
00000000
,
00000000
00000000
00000000
00000000
,
00000000
00000000
00000000
00000000
,
00000000
00000000
00000000
00000000
,
00000000
00000000
00000000
00000000
,
00001000
00000000
00000000
00010000
00000000
00000000
00001000
00000000
00000000
00010000
00000000
00000000
01000000
00000000
00000000
00000000
,
10000000
00000000
00000000
00100000
00000000
00000000
10000000
00000000
00000000
00100000
00000000
00000000
01000000
00000000
00001000
00000000
,
00010000
00000000
00000000
00000100
00000000
00000000
00001000
00000000
00000000
00000001
00000000
00000000
00000100
00000000
00000000
00000000
,
00000001
00000010
00000000
00000100
00001000
00000100
00001000
00000100
00001000
00000000
00000010
00000000
00000010
00000000
00000110
00000000
,
00001001
00000000
00000011
00000011
00000011
00000000
00001100
00000000
,
00000101
00000000
00000000
00010100
00000000
00000000
00000101
00000000
00000000
00000000
00011000
00000000
00011000
00000000
00000000
00000000
,
00000100
00000000
00010000
00000000
01000000
00000000
10000000
00100000
00000000
00100000
01000000
00000000
00010000
00000000
10000000
00000000
,
01000000
00000000
00100000
00000000
00010000
00000000
00000100
00000001
00000000
00000001
00001000
00000000
00000010
00000000
00000100
00000000
,
00001000
00000000
00000100
00000000
00000001
00000000
00000010
00000100
00000000
00000100
00010000
00000000
00001000
00000000
00000010
00000000
,
00000001
00000000
00000010
00000000
00001000
00000000
00000100
00010000
00000000
00010000
00001000
00000000
01000000
00000000
10000000
00000000
,
01000000
00000000
00100000
00000000
01000000
00000000
00010000
10000000
00000000
10000000
01000000
00000000
00100000
00000000
10000000
00000000
,
00100000
00000000
00010000
00000000
01000000
00000000
10000000
01000000
00000000
01000000
00001000
00000000
00010000
00000000
00000100
00000000
,
00000010
00000000
00000001
00000000
00000100
00000000
00001000
00000100
00000000
00000100
00000010
00000000
00010000
00000000
00001000
00000000
,
00000100
00000000
00000001
00000000
00000100
00000000
00010000
00001000
00000000
00001000
01000000
00000000
00100000
00000000
10000000
00000000
,
01000000
00000000
00100000
00000000
00010000
00000000
01000000
00001000
00000000
00010000
01000000
00000000
10000000
00000000
00100000
00000000
,
01000000
00000000
00001000
00000000
00000010
00000000
00000001
00001000
00000000
00000100
00010000
00000000
00000010
00000000
00000001
00000000
,
00000010
00000000
00001000
00000000
00000100
00000000
00000001
00000100
00000000
00010000
00001000
00000000
00100000
00000000
01000000
00000000
,
00001000
00000000
01000000
00000000
00100000
00000000
00010000
10000000
00000000
00100000
01000000
00000000
00001000
00000000
00100000
00000000
,
00010000
00000000
00000100
00000000
00000001
00000000
00000010
00000100
00000000
00001000
00000001
00000000
00000100
00000000
00000010
00000000
,
00010000
00000000
00001000
00000000
00000010
00000000
00000001
00001000
00000000
00000010
00010000
00000000
01000000
00000000
00100000
00000000
,
01000000
00000000
10000000
00000000
00100000
00000000
10000000
00010000
00000000
00100000
01000000
00000000
00010000
00000000
01000000
00000000
,
10000000
01000000
00000000
10000000
01000000
00000000
10000000
01000000
00000000
00100000
00001000
00000000
00010000
00001000
00010000
00001000
,
00010000
00000000
00000000
00000010
00000000
00000000
00000100
00000000
00000000
00000010
00000000
00000000
00001000
00000000
00000000
00000000
,
00000100
00000000
00000001
00000000
00000100
00001000
00000000
00000000
00000010
00000000
00000010
00000000
00000010
00001000
01000000
00000000
,
01100000
00000000
00000000
00000000
00011000
00000000
00000000
00000000
00000110
00000000
00000001
00000100
00000010
00001000
00000000
00000000
,
00101000
00000000
00100000
00000000
00010000
00000000
10000000
00000000
00100000
01000000
00010000
10000000
01000000
00100000
00010000
00000000
,
00000100
00000000
00000000
00000010
00000000
00000000
00001000
00000000
00000000
00000001
00000000
00000000
00000010
00000000
00000000
00000000
,
00000011
00000000
00000011
00000000
00000011
00000000
00000000
00000000
00010000
00000010
00000000
00001000
01000000
00000000
00100000
00000000
,
01100000
00000000
00011000
00000000
00000110
00000000
00000001
00001000
,
00000010
00000100
00000010
00000100
00000010
00000000
00001000
00000001
00000000
00001000
00000001
00000000
00000100
00001000
00010000
01000000
,
00100000
00000000
00010000
10000000
00100000
00000000
01000000
00000000
00000000
00010000
10000000
00000000
01000000
00000000
00000000
00000000
,
00110000
00000000
00000000
00000000
01001000
00000000
00010000
00001000
00000010
00000000
00000001
00000100
00000000
00000010
00001000
00000000
,
00000100
00001000
00000000
00001000
00000001
00000000
00000001
00000100
00000000
00000100
00000010
00000000
00010000
00000000
00000000
00000000
,
00001001
00000000
00000000
00000000
00011000
00000000
00000000
00000000
10010000
00000000
00000000
00000000
10000000
01000000
00100000
00010000
,
01000000
00000000
00010000
10000000
01000000
00000000
00100000
00000000
00000000
00001000
00010000
00000000
00000010
00000000
00000000
00000000
,
00000101
00000000
00000000
00000000
00010010
00000000
00000000
00000000
00001100
00000000
00000010
00000001
00000010
00000100
00001000
00000000
,
01100000
00000000
01100000
00000000
01100000
00000000
00000000
00000000
10000000
00010000
00000000
00001000
00000001
00000000
00000000
00000000
,
00000100
00000001
00000000
00001000
00000010
00001000
00000010
00001000
00000010
00000000
00011000
00000000
00011000
00000000
00000000
00000000
,
00000100
00000000
00000100
00000000
00000100
00000010
00000000
00000011
00000000
00000011
00000000
00000000
00000000
00000001
00001000
00000100
,
00010000
00000000
00010000
00000000
00010000
00001000
00000000
01001000
00000000
00000000
00000000
00000000
00000000
00000000
01100000
00000000
,
01100000
00000000
00010000
00000000
00010000
10000000
00000000
11000000
00000000
11000000
00000000
00000000
00000000
10000000
00100000
01000000
,
00001000
00000000
00001000
00000000
00001000
00010000
00000000
00010010
00000000
00000000
00000000
00000000
00000000
00000000
00000010
00000100
,
00000001
00000000
00000001
00000000
00000001
00001000
00000000
00001010
00000000
00001010
00000000
00000000
00000000
00000010
00000100
00010000
,
01000000
00000000
01000000
00000000
01000000
10000000
00000000
10010000
00000000
00000000
00000000
00000000
00000000
00000000
00100000
01000000
,
00100000
00000000
00100000
00000000
00100000
10000000
00000000
01010000
00000000
01010000
00000000
00000000
00000000
00100000
00001000
00010000
,
00000100
00000000
00000100
00000000
00000100
00000010
00000000
00000110
00000000
00000001
00001000
00000000
00001000
00000000
00001000
00000100
,
00000010
00000010
00000001
00000001
00000100
00000100
00000010
00000010
,
00001000
00001000
00000100
00000100
00010000
00010000
00001000
00001000
,
00100000
00100000
10000000
10000000
00100000
00100000
00001000
00001000
,
01000000
01000000
00010000
00010000
10000000
10000000
01000000
01000000
,
00001000
00001000
00000100
00000100
00010000
00010000
00000010
00000010
,
00000100
00000100
00000001
00000001
00000010
00000010
00000100
00000100
,
00001000
00001000
01000000
01000000
00100000
00100000
00001000
00001000
,
00010000
00001000
00010000
00001000
00010000
00001000
00010000
00001000
00010000
00001000
00010000
00001000
00010000
00001000
00010000
00001000
,
01000000
00000000
00000000
00000000
;
