#TITLE:BRILLIANT 2U (AKBK MIX);
#ARTIST:NAOKI;
#BANNER:BRILLIANT 2U (AKBK MIX).png;
#BACKGROUND:BRILLIANT 2U (AKBK MIX)-bg.png;
#JACKET:BRILLIANT 2U (AKBK MIX)-jacket.png;
#MUSIC:BRILLIANT 2U (AKBK MIX).ogg;
#SAMPLESTART:38.52;
#SAMPLELENGTH:20;
#DISPLAYBPM:162;
#BPMS:0=162;
#BGCHANGES:;

//---------------dance-single - ----------------
#NOTES:
     dance-single:
     :
     Beginner:
     3:
     :
0000
0000
0000
0000
,
0000
0000
0000
0000
,
0000
0000
0000
0000
,
0000
0000
0000
0000
,
0000
0000
0000
0000
,
1000
0000
0001
0000
,
1000
0000
0000
0000
,
0100
0000
0100
0000
,
0010
0000
0000
0000
,
0010
0000
0000
0000
,
0001
0000
0001
0000
,
0100
0000
0100
0000
,
1000
0000
1000
0000
,
0100
0000
0000
0000
,
0001
0000
0001
0000
,
0100
0000
0010
0000
,
1000
0000
1000
0000
,
0100
0000
0000
0000
,
0001
0000
0001
0000
,
0100
0000
0000
0000
,
0100
0100
0100
0000
,
1000
0000
0000
0000
,
0001
0000
0100
0000
,
1000
0000
1000
0000
,
0100
0100
0100
0000
,
0010
0000
0000
0000
,
1000
0000
0000
0000
,
0010
0010
0010
0000
,
0001
0000
0000
0000
,
0010
0010
0010
0000
,
1000
0000
0000
0000
,
0010
0010
0010
0000
,
0001
0000
0000
0000
,
0010
0010
0010
0000
,
2000
0000
3000
0000
,
0002
0000
0003
0000
,
0200
0000
0300
0000
,
0020
0000
0030
0000
,
1000
0000
1000
0000
,
0010
0000
0000
0000
,
0001
0000
0001
0000
,
0010
0000
0000
0000
,
0001
0000
1000
0000
,
0010
0000
0100
0000
,
0001
0000
1000
0000
,
0010
0000
0100
0000
,
1000
0000
0100
0000
,
0001
0000
0100
0000
,
0010
0000
1000
0000
,
0001
0000
0000
0000
,
1001
0000
0000
0000
,
1000
1000
1000
0000
,
0010
0000
0010
0000
,
0001
0001
0001
0000
,
0010
0000
0010
0000
,
1000
1000
1000
0000
,
0100
0000
0100
0000
,
0001
0001
0001
0000
,
0100
0000
0100
0000
,
0001
0000
0001
0000
,
0100
0100
0100
0000
,
1000
0000
1000
0000
,
0100
0100
0100
0000
,
0001
0000
0010
0000
,
0100
0100
0100
0000
,
1000
0000
0010
0000
,
0100
0100
0100
0000
,
0010
0000
0000
0000
,
0010
0000
0010
0010
,
0020
0000
0000
0000
,
0030
0000
0000
0000
,
0000
0000
0000
0000
;

//---------------dance-single - ----------------
#NOTES:
     dance-single:
     :
     Easy:
     7:
     :
0000
0000
0000
0000
,
0000
0000
0000
0000
,
0000
0000
0000
0000
,
0000
0000
0000
0000
,
0000
0000
0000
0000
,
0100
0100
0001
0010
,
0100
0100
1000
0100
,
0010
0010
0001
0100
,
0010
0010
0100
0100
,
2002
0000
0000
3003
,
1000
0010
0100
0000
0010
0000
1000
0000
,
0001
0100
0010
0100
,
0001
1010
0100
0001
,
0010
1000
0100
0001
,
1000
0100
0010
0000
0100
0000
0100
0000
,
0010
0001
1000
0010
,
0100
0011
0100
0100
,
0001
1000
2002
3003
,
0001
0010
0100
0000
,
1000
0010
0100
0100
,
0001
0001
1000
0001
,
1000
0100
0010
0001
,
1000
0100
0010
0000
,
0001
1000
0001
0000
1001
0000
1001
0000
,
0010
0010
0100
0001
,
1000
0100
0001
0010
,
0100
1000
0100
0001
,
1000
0001
1000
1001
,
1001
0001
0010
1000
,
0001
1000
0001
1001
,
1001
0100
0001
0010
,
0100
0100
0100
0110
,
0110
0100
1000
0010
,
0001
1000
1001
1001
,
0010
0200
0001
0310
,
1000
0001
0202
0303
,
0010
2000
0010
3001
,
0100
0010
2200
3300
,
2000
0010
3002
0100
,
0013
0100
0022
0033
,
0020
1000
0230
0001
,
0310
0000
1000
0000
0100
0010
0001
0000
,
1001
0001
0100
1000
,
0010
0011
0001
1001
,
0010
1000
0100
0001
,
0010
1010
1000
1001
,
0100
1000
0010
0001
,
0100
1100
1000
1001
,
0100
0001
0010
1000
,
0100
0100
2002
3003
,
1001
0000
0000
0000
,
0001
0100
0010
0000
0100
0000
0001
0000
,
1000
0010
0100
0010
,
1000
0010
0100
0000
0010
0000
1000
0000
,
0100
0001
0010
1000
,
0001
0010
0100
0000
0010
0000
0010
0000
,
0100
1000
0001
0100
,
0010
1000
0100
0000
0010
0000
0010
0000
,
0001
1000
2002
3003
,
0001
0100
1000
0100
,
0001
1000
0001
1001
,
1001
0100
0001
0100
,
1000
0001
1000
1001
,
1001
0010
0001
0010
,
1000
0001
0010
0011
,
0011
0010
1000
0010
,
0001
1000
1010
1010
,
0100
0200
0000
0000
0300
0000
0000
1000
,
0100
0001
0000
0100
0010
0100
0010
0100
,
0020
0000
0000
0000
,
0030
0000
0000
0000
,
0000
0000
0000
0000
;

//---------------dance-single - ----------------
#NOTES:
     dance-single:
     :
     Medium:
     11:
     :
0000
0000
0000
0000
,
0000
0000
0000
0000
,
0000
0000
0000
0000
,
0000
0000
0000
0000
,
0000
0000
0000
0000
,
0010
0000
1100
0000
0001
0100
0010
1000
,
0001
0000
0011
0000
1000
0010
0100
0001
,
1000
0000
1010
0000
0001
0100
0010
1000
,
0001
0000
0101
0000
1000
0001
1000
0001
,
2002
0000
0000
3003
,
0001
0000
0100
0000
1000
0000
0100
0000
0001
0000
0000
0001
0000
0000
0001
0000
,
0010
0100
1000
0010
0100
0000
0001
0000
,
0100
0000
1000
0000
0100
0000
0001
0000
0100
0000
0000
0100
0000
0000
0100
0000
,
0001
0010
0001
0100
0010
1000
0001
0000
,
0001
0000
0100
0000
1000
0000
0100
0000
0010
0000
0000
0010
0000
0000
0010
0000
,
1000
0100
1000
0010
0100
0000
0010
0000
,
0100
0000
0001
0000
0100
0000
1000
0000
0100
0000
0000
0100
0000
0000
0010
0000
,
1000
0100
0010
0001
0100
0020
0000
0000
,
1030
0000
0000
0100
0000
0000
1000
0000
0000
0100
0000
0000
0010
0000
0001
0000
,
0000
0000
0100
0000
1000
0100
0001
0000
,
0110
0000
0110
0000
0010
0100
1000
0000
,
0001
1000
0100
1000
0010
0100
0001
0000
,
0010
0000
0000
0001
0000
0000
0010
0000
0000
0001
0000
0000
0100
0000
0010
0000
,
0100
0100
0100
0000
0101
0000
1100
0000
,
0110
0000
0110
0000
0110
0000
1000
0100
,
0001
0100
1000
0001
0100
0010
0110
0000
,
1000
0000
0000
0100
0000
0000
0010
0000
0000
0001
0000
0000
1000
0000
0010
0000
,
0100
0000
0100
0000
0101
0000
0001
0100
,
1000
0000
0000
0100
0000
0000
0010
0000
0000
1000
0000
0000
0001
0000
0100
0000
,
0010
0000
0010
0000
1010
0000
1000
0100
,
0001
0000
0000
0100
0000
0000
0010
0000
0000
0001
0000
0000
1000
0000
0010
0000
,
0100
0000
0100
0000
0101
0000
1000
0010
,
0001
0000
0000
0010
0000
0000
0100
0000
0000
0010
0000
0000
1000
0000
0001
0000
,
1000
0100
0010
0100
0001
0100
0010
0000
,
1000
0000
0001
0000
1000
0000
0000
1000
0000
0000
0100
0000
0010
0000
0001
0000
,
0100
0000
1000
0000
0100
0000
0000
0020
0000
0000
0000
0000
0000
0000
0030
0000
,
0001
0000
0100
0000
0001
0000
0000
0001
0000
0000
0010
0000
0001
0000
0100
0000
,
0010
0000
1000
0000
0010
0000
0000
0200
0000
0000
0000
0000
0000
0000
0300
0000
,
0001
0000
1000
0000
0001
0000
0000
0001
0000
0000
0001
0000
0010
0000
0100
0000
,
1000
0000
0010
0000
0001
0000
0000
0020
0000
0000
0000
0000
0000
0000
0030
0000
,
1000
0000
0100
0000
0001
0000
0000
0010
0000
0000
0001
0000
0010
0000
0100
0000
,
1000
0100
1000
0001
0100
0010
1001
0000
,
0020
0000
0000
0100
0000
0000
0130
0000
0001
0000
1000
0000
0010
0000
0000
0000
,
0200
0000
0000
0001
0000
0000
0301
0000
0010
0000
0100
0000
1000
0000
0100
0000
,
0020
0000
0000
0001
0000
0000
0031
0000
0100
0000
0010
0000
1000
0000
0000
0000
,
0001
0100
0010
0001
0100
0010
1000
0100
,
0020
0000
0000
0001
0000
0000
0130
0000
1000
0000
0010
0000
1000
0000
0000
0000
,
0002
0000
0000
0010
0000
0000
1003
0000
0010
0000
0100
0000
0001
0000
0010
0000
,
0200
0000
0000
1000
0000
0000
0310
0000
0001
0000
1000
0000
0100
0000
1000
0000
,
0010
0000
1000
0000
0001
0000
0000
0000
1001
0000
0000
1001
0000
0000
1001
0000
,
0100
0010
0010
0010
,
1000
0000
0010
0000
0001
0000
0010
0000
1000
0000
0000
1000
0000
0000
1000
0000
,
0100
0010
0001
0100
0001
1000
0010
0100
,
0001
0000
0010
0000
1000
0000
0010
0000
0100
0000
0000
0100
0000
0000
0100
0000
,
1000
0100
0010
0100
0010
0001
0100
0010
,
1000
0000
0010
0000
0001
0000
0010
0000
0100
0000
0000
0100
0000
0000
0100
0000
,
0001
0010
0001
0100
0010
1000
0100
1000
,
0010
0000
0100
0000
1000
0000
0100
0000
0010
0000
0000
0010
0000
0000
1000
0000
,
0001
0010
0100
1000
0010
0200
0000
0000
,
0301
0000
0000
0010
0000
0000
0100
0000
0000
1000
0000
0000
0001
0000
0100
0000
,
0010
0000
0110
0000
1010
0000
1000
0010
,
0001
0000
0000
0010
0000
0000
0100
0000
0000
0001
0000
0000
1000
0000
0010
0000
,
0100
0000
0110
0000
0101
0000
0001
0010
,
1000
0000
0000
0010
0000
0000
0100
0000
0000
1000
0000
0000
0001
0000
0100
0000
,
0010
0000
0011
0000
1010
0000
0001
0100
,
1000
0000
0000
0100
0000
0000
0010
0000
0000
0100
0000
0000
0001
0000
1000
0000
,
0001
0010
0100
0010
1000
0010
0110
0000
,
0010
0000
0100
0000
0000
0000
0001
1000
0001
0000
0000
0000
0001
0000
0100
0000
,
0010
0100
0000
0100
0010
1000
0010
0001
,
0020
0000
0000
0000
,
0030
0000
0000
0000
,
0000
0000
0000
0000
;

//---------------dance-single - ----------------
#NOTES:
     dance-single:
     :
     Hard:
     15:
     :
0000
0000
0000
0000
,
0000
0000
0000
0000
,
0000
0000
0000
0000
,
0000
0000
0000
0000
,
0000
0000
0000
0000
,
0001
0000
0000
1000
0001
0000
0010
0000
0000
0100
1000
0000
1000
0000
0001
0000
,
1000
0000
0000
0001
1000
0000
0010
0000
0000
0100
0001
0000
0001
0000
0100
0000
,
0010
0000
0000
0010
0100
0000
0001
0000
0000
0001
1000
0000
0100
0000
0010
0000
,
0100
0000
0000
0010
0001
0000
1000
0000
0000
0010
0100
0000
0001
0000
1000
0000
,
2002
0000
0000
3003
,
0001
0010
0100
0010
0100
0000
0010
0000
0001
1000
0001
1000
0010
0100
0010
0000
,
0100
0000
0010
0000
1000
0010
0000
0010
1000
0010
1000
0010
0100
0000
0001
0000
,
1000
0001
1000
0000
0100
0010
0001
0010
0000
0001
0000
0010
0001
0000
1000
0000
,
0001
0100
0001
0000
1000
0100
1000
0000
0001
1000
0010
0100
0001
0000
1000
0000
,
0010
1000
0100
1000
0100
0000
0010
0000
0001
1000
0001
1000
0010
0100
0010
0000
,
0100
0000
0010
0000
0100
0010
0000
0010
1000
0010
1000
0010
0100
0000
0001
0000
,
1000
0001
0100
0001
0100
0000
0010
1000
0010
1000
0000
0001
0010
0000
0100
0000
,
1000
0100
1000
0000
0001
0100
0001
0100
0010
1000
0020
0000
0000
0000
0000
0000
,
0130
0000
0000
0100
0001
0000
0010
0000
0000
0010
0000
0000
0100
0000
1000
0000
,
1000
0000
0000
0000
0010
0100
0000
0000
0001
0000
0010
0000
1000
0000
0010
0000
,
0101
0000
0000
0000
1100
0000
0000
0000
0101
0000
0010
1000
0010
0000
0000
0000
,
1000
1000
0010
0001
0010
0010
1000
0001
,
0100
0000
0000
0100
0010
0000
1000
0000
0000
0100
0000
0000
0001
0000
0100
0000
,
1000
0000
1000
0000
0101
0000
0000
0000
0010
1000
0000
0000
0001
0100
0000
0000
,
1010
0000
0011
0000
1010
0000
0100
0100
,
0010
1000
0010
0000
1000
0100
1000
0000
0100
0010
0100
0000
0010
0001
0010
0000
,
0001
0000
0000
0001
1000
0000
0020
0000
0000
2030
0000
0000
3100
0000
0010
0000
,
0011
0000
0000
0000
1100
0000
0000
0000
0011
0000
0000
0000
1000
0100
1000
0100
,
0010
0000
0000
0010
0001
0000
2000
0000
0000
3020
0000
0000
0130
0000
0001
0000
,
0101
0000
0000
0000
1010
0000
0000
0000
0001
0100
0001
0100
0010
1000
0010
1000
,
0100
0000
0000
0100
0010
0000
0001
0000
0100
0010
0000
1000
0001
0000
0100
0000
,
0110
0000
1100
0000
0101
0000
0001
0010
,
1000
0000
0000
0010
0100
0000
1000
0000
0100
0010
0000
0001
1000
0000
0001
0000
,
1000
0100
1000
0000
0100
0010
0100
0000
0010
0001
0010
0000
0001
1000
0001
0000
,
0010
0000
0001
0000
0010
0001
0000
1000
0000
0100
0010
0000
0100
0000
1000
0000
,
0010
0000
1000
0000
0001
1000
0000
0102
0000
0000
0010
0000
0000
0000
0013
0000
,
0100
0000
1000
0000
0100
1000
0000
0010
0000
0100
0001
0000
0100
0000
0010
0000
,
0001
0000
1000
0000
0100
0010
0000
0010
0001
0000
0010
0000
0100
0000
1000
0000
,
0010
0000
0100
0000
0001
1000
0000
1001
0000
1000
0001
0000
0100
0000
0001
0000
,
0010
0000
0100
0000
0010
0100
0000
0210
0000
0000
1000
0000
0000
0000
0301
0000
,
1000
0000
0010
0000
0001
0100
0000
0110
0000
0010
1000
0000
0100
0000
0010
0000
,
0001
1000
0001
0000
0010
0100
0010
0000
1000
0100
0010
0001
1000
0010
0100
0001
,
0010
0000
0000
0110
0000
0000
0110
0000
1000
0000
0002
0000
0100
0000
0103
0000
,
0010
0000
0000
1010
0000
0000
1010
0000
0100
0000
0002
0000
0010
0000
0013
0000
,
0100
0000
0000
1100
0000
0000
1100
0000
0010
0000
2000
0000
0100
0000
3100
0000
,
0010
0001
0010
0000
0100
1000
0100
0000
1000
0100
1000
0000
0001
0010
0001
0000
,
0100
0000
0000
1010
0000
0000
1001
0000
0010
0000
0200
0000
1000
0000
1300
0000
,
0001
0000
0000
0110
0000
0000
1010
0000
0100
0000
0020
0000
0100
0000
0130
0000
,
0001
0000
0000
1001
0000
0000
0101
0000
1000
0000
0120
0000
0000
0000
0031
0000
,
1000
0001
0010
0100
1000
0010
0100
0000
0110
0000
0000
0110
0000
0000
1001
0000
,
0100
0010
0010
0010
,
1000
0100
0010
0100
0010
0000
0100
0000
1000
0001
1000
0001
0100
0010
0100
0000
,
0010
0000
0100
0000
0001
0100
0000
0100
0001
0100
0001
0100
0010
0000
1000
0000
,
0001
1000
0001
0000
0010
0100
1000
0100
0000
0110
0000
0100
1000
0000
0001
0000
,
1000
0010
1000
0000
0001
0010
0001
0000
1000
0001
0100
0010
1000
0000
0001
0000
,
0100
0001
0010
0001
0010
0000
0100
0000
1000
0001
1000
0001
0100
0010
0100
0000
,
0010
0000
0100
0000
0010
0100
0000
0100
0001
0100
0001
0100
0010
0000
1000
0000
,
0001
1000
0010
1000
0010
0000
0100
0001
0100
0001
0000
1000
0100
0000
0010
0000
,
0001
0010
0001
0000
1000
0010
1000
0010
0100
0001
0200
0000
0000
0000
0000
0000
,
0310
0000
0000
0010
1000
0000
1100
0000
0000
0110
0000
0000
0011
0000
1001
0000
,
1100
0000
0000
0000
0101
0000
0000
0000
1001
0000
0000
0000
0001
0010
0100
0010
,
0100
0000
0000
1000
0100
0000
0011
0000
0000
1001
0000
0000
1010
0000
1001
0000
,
0101
0000
0000
0000
0011
0000
0000
0000
0001
0010
0001
0100
0010
1000
0100
0010
,
0100
0000
0000
0100
0010
0000
0011
0000
0000
1010
0000
0000
1100
0000
1001
0000
,
0110
0000
0000
0000
1001
0000
0000
0000
0110
0000
0000
0000
1000
0001
0100
0001
,
0100
0000
0000
0010
1000
0000
0101
0000
0000
0011
0000
0000
1100
0000
1001
0000
,
0001
0010
0001
0010
0100
1000
0100
1000
0001
0100
0001
1000
0100
1000
0010
0100
,
0020
0000
0100
0000
0000
0000
0130
0001
1000
0000
0000
0000
1001
0000
0100
0000
,
0020
0000
0100
0000
0000
0000
0130
0000
1000
0001
0010
0100
1000
0010
0100
0001
,
0020
0000
0000
0000
,
0030
0000
0000
0000
,
0000
0000
0000
0000
;

//---------------dance-single - ----------------
#NOTES:
     dance-single:
     :
     Challenge:
     18:
     :
0000
0000
0000
0000
,
0000
0000
0000
0000
,
0000
0000
0000
0000
,
0000
0000
0000
0000
,
0000
0000
0000
0000
,
1010
0000
0010
0100
0010
0000
1000
0100
0000
0010
0001
0000
0100
0000
0001
1000
,
0001
0000
1000
0010
1000
0000
0010
0100
0000
0001
1000
0000
0001
0000
0010
0100
,
0010
0000
0001
1000
0001
0000
0100
0001
0000
1000
0010
0000
0100
0000
0010
1000
,
0010
0000
0100
0001
0100
0000
0001
0010
0000
0100
1000
0000
0001
1000
0010
1000
,
0002
0000
0000
0000
0000
0000
0000
0000
0000
0020
0000
0000
0000
0000
0000
0003
0000
0000
0200
0000
0000
0030
0000
0000
2000
0000
0000
0000
0000
0000
0000
0000
0000
0300
0000
0000
3010
0000
0100
0000
0010
0000
0100
0000
0010
0000
0100
0000
,
0010
1000
0100
0010
0001
0000
0100
0001
0100
1000
0100
0010
0100
0001
1000
0000
,
0010
1000
0001
0000
1000
0100
0000
0010
0001
0100
0001
0010
0001
1000
0100
1000
,
0010
0000
0100
0001
1000
0100
1000
0010
0100
0001
0010
0001
0100
0000
1000
0000
,
0100
0001
0010
0100
1000
0001
0010
0001
0100
1000
0100
0010
1000
0001
0010
1000
,
0010
0100
0010
0001
0100
0000
0001
1000
0100
0001
0100
1000
0001
1000
0010
0000
,
0100
0001
1000
0000
0010
1000
0000
0001
0100
0010
0100
0001
1000
0010
1000
0001
,
0100
0010
0100
0001
1000
0000
0001
0010
1000
0100
0010
0100
0000
1000
0001
0000
,
0100
0000
0001
0010
0001
1000
0100
1000
0010
0100
0001
0000
1000
0100
1000
0100
,
0010
0000
0001
0100
0001
0000
1000
0100
0000
0100
0010
0000
0001
1000
0001
1000
,
0010
1000
0010
1000
0010
0001
0010
0001
0010
1000
0010
1000
0010
0001
0010
0001
,
0010
0000
1000
0100
1000
0000
0001
0010
0001
0100
0010
1000
0001
1000
0100
0000
,
0010
1000
0010
1000
0010
0001
0010
0001
0010
1000
0010
1000
0010
0001
0010
0001
,
0100
0000
0010
1000
0001
0100
0010
1000
0000
0001
0010
0000
0100
1000
0001
0000
,
0100
1000
0100
1000
0100
0001
0100
0001
0100
1000
0100
1000
0100
0001
0100
0001
,
0100
0000
0010
1000
0010
0000
1000
0100
1000
0001
0010
0001
0100
0001
1000
0000
,
0010
0001
0010
0001
0010
1000
0010
1000
0010
0001
0010
0001
0010
1000
0010
1000
,
0001
0000
0100
0010
0000
0010
1000
0000
0100
0001
0100
1000
0001
0000
0010
0000
,
1100
0000
0001
0100
0001
0000
1000
0100
1000
0010
1000
0010
0100
0001
0010
1000
,
0010
0000
0001
0100
0001
0010
0100
1000
0000
0010
1000
0001
1000
0000
0100
0010
,
0001
0000
0100
0010
1000
0000
0001
1000
0010
0001
1000
0001
0100
1000
0100
0010
,
1000
0001
0000
0001
0010
0000
0010
0100
0000
0100
1000
0010
1000
0000
0001
0000
,
0100
0001
0100
0001
0010
1000
0010
1000
0100
1000
0100
1000
0010
0001
0010
0001
,
0100
1000
0010
1000
0100
0010
0001
1000
0000
0010
0100
0010
1000
0001
1000
0100
,
0010
0001
0010
0001
1000
0100
1000
0100
0010
0001
0100
0001
1000
0100
1000
0010
,
0100
0000
0010
0000
1000
0001
0000
0101
0000
1010
0000
0010
1000
0001
1000
0100
,
0010
0000
0001
0000
0100
0010
1000
0010
0100
1000
0100
0001
0010
0000
0001
1000
,
0100
0000
0010
0000
0001
1000
0000
1100
0000
0011
0000
0100
0010
1000
0001
1000
,
0010
0000
0100
0001
1000
0001
0100
0010
1000
0001
0100
0010
1000
0010
0100
0001
,
0010
0000
0100
1000
0100
0010
0001
1000
0000
0001
0010
0001
1000
0000
0100
0010
,
0001
0000
0100
0010
1000
0001
1000
0010
0000
0000
1000
0001
0010
0100
1000
0010
,
0100
0000
0001
0000
0010
0001
1000
0100
0000
1000
0010
1000
0001
0000
0100
0010
,
1000
0010
0100
1000
0001
0100
0010
0001
0010
0001
0100
1000
0010
1000
0001
0100
,
0010
0000
0000
0000
0000
0000
1000
0000
0000
0001
0000
0000
1000
0000
0000
0100
0000
0000
0010
0000
0000
0001
0000
0000
0000
0000
0100
0000
0010
0000
0100
0000
0000
0000
0000
0000
0001
0000
0000
1000
0000
0000
0001
0000
0000
0010
0000
0000
,
0100
1000
0001
0100
0010
1000
0010
0100
0001
0010
0001
1000
0100
0001
1000
0010
,
1000
0000
0000
0100
0000
0000
0010
0000
0000
0001
0000
0000
0100
0000
0000
0010
0000
0000
1000
0000
0000
0001
0000
0000
0000
0000
0000
0010
0000
0000
0001
0000
0100
0000
0001
0000
0100
0000
0000
0010
0000
0000
1000
0000
0000
0001
0000
0000
,
0100
0001
0010
0001
1000
0100
0010
0001
0100
0010
0100
1000
0001
1000
0010
1000
,
0100
0000
0000
0010
0000
0000
0001
0000
0000
0100
0000
0000
0001
0000
0000
1000
0000
0000
0010
0000
0000
0100
0000
0000
0000
0000
0001
0000
1000
0000
0001
0000
0000
0010
0000
0000
0001
0000
0000
0100
0000
0000
0010
0000
0000
1000
0000
0000
,
0100
0010
0100
1000
0010
1000
0001
0010
0001
0100
0001
1000
0100
1000
0001
0010
,
0100
0000
0000
1000
0000
0000
0010
0000
0000
1000
0000
0000
0100
0000
0000
0010
0000
0000
0001
0000
0000
0000
0000
0000
0100
0000
0000
0010
0000
0000
1000
0000
0000
0000
0000
0000
0001
0000
0000
0010
0000
0000
0001
0000
1000
0000
0001
0000
,
1000
0010
1000
0001
0010
0001
1000
0001
0100
0000
0000
0100
0000
0000
0100
0000
,
0110
0000
0000
0000
0000
0000
0010
0000
0000
0000
0000
0000
1000
0000
0000
0001
0000
0000
1000
0000
0000
0000
0000
0000
0100
0000
0000
0000
0000
0000
1001
0000
0000
0000
0000
0000
1000
0000
0010
0000
1000
0000
0010
0000
1000
0000
0010
0000
,
1000
0100
1000
0001
0010
0000
0001
0100
0010
0001
0010
1000
0100
1000
0001
0000
,
0010
0001
0100
0000
0001
1000
0000
0010
1000
0001
0010
0001
1000
0000
0100
0000
,
0110
0000
1001
0000
0010
1000
0010
1000
0100
0010
0100
0010
0001
0000
1000
0001
,
1000
0010
0100
0001
1000
0100
0010
0001
1000
0001
0010
0100
1000
0001
0100
0010
,
1000
0100
0010
0001
1000
0000
0010
0000
0100
1000
0100
0010
0100
0001
0010
0000
,
0100
1000
0001
0000
1000
0010
0000
0010
0100
0001
0010
0001
1000
0100
1000
0010
,
0100
0001
0010
0001
0100
0000
0010
1000
0100
0010
0001
1000
0100
1000
0001
0000
,
0010
0000
0011
0000
0101
0000
1000
0010
1000
0001
0010
0001
0010
0100
1000
0100
,
0001
0000
0010
0001
0100
0010
1000
0000
0100
1000
0001
1000
0100
0010
0001
0000
,
0100
0010
0100
0010
1000
0001
1000
0001
0100
0010
0100
0010
1000
0001
1000
0001
,
0010
0001
0010
0100
1000
0010
1000
0000
0001
0100
0001
0010
0001
1000
0010
0100
,
0001
0010
0001
0010
0100
1000
0100
1000
0001
0010
0001
0010
0100
1000
0100
1000
,
0010
0000
1000
0001
0100
0010
1000
0100
0000
0100
1000
0001
0010
0001
0100
0010
,
1000
0010
1000
0010
0100
0001
0100
0001
1000
0010
1000
0010
0100
0001
0100
0001
,
0010
0000
0001
0100
0010
1000
0100
1000
0000
0001
0010
0001
1000
0001
0100
0010
,
0100
0010
0001
0010
1000
0010
0001
1000
0010
0001
0100
1000
0001
0100
1000
0100
,
0010
0000
0000
0000
0000
0000
0001
0000
0000
0100
0000
0000
0001
0000
0000
0000
0000
0000
1000
0000
0000
0100
0000
0000
1000
0000
0000
0000
0000
0000
0001
0000
0000
0010
0000
0000
0001
0000
1000
0000
0001
0000
1000
0000
0001
0000
1000
0000
,
0001
1000
0100
0010
0100
0010
0100
0001
1000
0001
0010
1000
0010
0001
1000
0200
,
0020
0000
0000
0000
,
0330
0000
0000
0000
;

//---------------dance-double - ----------------
#NOTES:
     dance-double:
     :
     Easy:
     7:
     :
00000000
00000000
00000000
00000000
,
00000000
00000000
00000000
00000000
,
00000000
00000000
00000000
00000000
,
00000000
00000000
00000000
00000000
,
00000000
00000000
00000000
00000000
,
00000010
00000100
00000001
00000100
,
00001000
00010000
01000000
00000000
,
00100000
01000000
10000000
01000000
,
00010000
00001000
00010000
00000000
,
00022000
00000000
00000000
00033000
,
00000010
00001000
00000001
00000000
00000100
00000000
00000001
00000000
,
00000010
00000100
00001000
00000010
,
00000100
00001000
00010000
00100000
,
01000000
00000000
20020000
30030000
,
10000000
00010000
00100000
00000000
00001000
00000000
00010000
00000000
,
00000100
00000010
00000001
00001000
,
00000001
00000100
00001000
00010000
,
00100000
00010000
20020000
30030000
,
10000000
10000000
00010000
00010000
,
01000000
01100000
10000000
01000000
,
00010000
00001000
00011000
00000000
,
00000010
00001000
00000100
00000010
,
00000001
00000001
00001000
00001000
,
00000001
00000001
00000100
00001000
,
00010000
00001000
00010000
00011000
,
00010000
01000000
00200000
00300000
,
01000000
01000000
00100000
01100000
,
10000000
00010000
10000000
01000000
,
00010000
00010000
00001000
00011000
,
00010000
00001000
00010000
00000100
,
00000010
00000010
00000100
00000110
,
00000001
00001000
00000001
00000100
,
00000110
00000100
00001000
00010000
,
00100000
01000000
01000000
00000000
,
10000000
01000000
00100000
00010000
,
00001000
00000100
00000020
00000000
,
00000031
00000100
00000010
00001000
,
00010000
01000000
00200000
00000000
,
10300000
01000000
00010000
00001000
,
00000010
00000001
00002002
00003003
,
00000001
00000100
00001000
00010000
,
00100000
00000000
10000000
00000000
00010000
10000000
00010000
00000000
,
00100000
00001000
00010000
00000100
,
00001001
00000101
00000011
00000001
,
00000100
00001000
00010000
00100000
,
10010000
11000000
10100000
10000000
,
00100000
00010000
00001000
00000100
,
00001010
00001001
00000101
00000010
,
00000100
00001000
00010000
00001000
,
00101000
00110000
02200000
03300000
,
10010000
00000000
00000000
00000000
,
00100000
00010000
10000000
00000000
01000000
00000000
00100000
00000000
,
00010000
10000000
01000000
00010000
,
00001000
00010000
00001000
00000000
00000100
00000000
00000010
00000000
,
00001000
00000100
00000220
00000330
,
00000001
00000100
00001000
00000000
00010000
00000000
00001000
00000000
,
01000000
00100000
10000000
00010000
,
10000000
01000000
00010000
00000000
00001000
00000000
00010000
00000000
,
00000010
00001000
00002002
00003003
,
00000100
00000100
00000010
00000100
,
00001001
00000001
00001001
00000100
,
00001000
00010000
00001000
00100000
,
10010000
00010000
10010000
01000000
,
00100000
10000000
01000000
00100000
,
10010000
10000000
11000000
01000000
,
00010000
00001000
00000100
00000010
,
00001001
00001000
00001001
00000000
,
00000010
00000020
00000000
00000000
00000030
00000000
00000000
00001000
,
00000100
00001000
00000000
00000100
00010000
00000000
00011000
00000000
,
00022000
00000000
00000000
00000000
,
00033000
00000000
00000000
00000000
,
00000000
00000000
00000000
00000000
;

//---------------dance-double - ----------------
#NOTES:
     dance-double:
     :
     Medium:
     11:
     :
00000000
00000000
00000000
00000000
,
00000000
00000000
00000000
00000000
,
00000000
00000000
00000000
00000000
,
00000000
00000000
00000000
00000000
,
00000000
00000000
00000000
00000000
,
00100000
00000000
00010000
00000000
00100000
01000000
10000000
00000000
,
00100000
00000000
00010000
00000000
00001000
00010000
00000100
00000000
,
00000010
00000000
00000001
00000000
00000100
00000010
00001000
00000000
,
00000001
00000000
00000100
00000000
00001000
00010000
00001000
00000000
,
00022000
00000000
00000000
00033000
,
00010000
00000000
00001000
00000000
00000100
00000000
00000000
00000000
00000010
00000000
00000000
00001000
00000000
00000000
00000001
00000000
,
00000000
00000100
00000010
00000000
00001000
00000001
00000010
00000000
,
00000001
00000000
00000100
00000000
00001000
00000000
00000000
00000000
00001000
00000000
00000000
00010000
00000000
00000000
00100000
00000000
,
00000000
01000000
00100000
00000000
10000000
00010000
10000000
00010000
,
10000000
00000000
01000000
00000000
00010000
00000000
00000000
00000000
00001000
00000000
00000000
00010000
00000000
00000000
00000010
00000000
,
00000000
00000100
00000010
00000000
00001000
00000100
00000010
00000000
,
00000001
00000000
00000010
00000000
00001000
00000000
00000000
00000000
00001000
00000000
00000000
00010000
00000000
00000000
00100000
00000000
,
00000000
01000000
00100000
01000000
01000000
00200000
00000000
00000000
,
00310000
00000000
00000000
01000000
00000000
00000000
10000000
00000000
00000000
01000000
00000000
00000000
00010000
00000000
00001000
00000000
,
00010000
00000010
00000100
00000010
,
00001100
00000000
00000101
00000000
00001000
00000001
00000100
00000000
,
00000010
00000100
00001000
00000000
00010000
00100000
01000000
00000000
,
00010000
00000000
00000000
00100000
00000000
00000000
10000000
00000000
00000000
00100000
00000000
00000000
00010000
00000000
10000000
00000000
,
00100000
01000000
00100000
00000000
10010000
00000000
10010000
00000000
,
11000000
01010000
11000000
00100000
,
01000000
00010000
00001000
00000000
00000010
00000001
00001000
00000000
,
00000010
00000000
00000000
00001000
00000000
00000000
00000001
00000000
00000000
00000010
00000000
00000000
00000001
00000000
00000100
00000000
,
00001000
00000000
00001000
00000000
00011000
00000000
00001000
00010000
,
00100000
00000000
00000000
10000000
00000000
00000000
00010000
00000000
00000000
00100000
00000000
00000000
01000000
00000000
00010000
00000000
,
00001000
00000000
00001000
00000000
00011000
00000000
00010000
00001000
,
00000100
00000000
00000000
00000010
00000000
00000000
00001000
00000000
00000000
00000001
00000000
00000000
00000100
00000000
00000010
00000000
,
00001000
00000000
00001000
00000000
00011000
00000000
00010000
01000000
,
00100000
00000000
00000000
10000000
00000000
00000000
01000000
00000000
00000000
00100000
00000000
00000000
00010000
00000000
10000000
00000000
,
00100000
01000000
00010000
00100000
00001000
00010000
00001000
00000000
,
00001000
00010000
00000200
00000000
00001000
00000000
00000310
00000001
,
00000010
00000100
00000020
00000000
00000001
00000000
00000130
00000000
,
00010000
00001000
00020000
00000000
00001000
00000000
01030000
00100000
,
00010000
00100000
00020000
00000000
01000000
00000000
10030000
00000000
,
00100000
10000000
02000000
00000000
10000000
00000000
03100000
00010000
,
00100000
00001000
00020000
00000000
00001000
00000000
00030010
00000000
,
00001000
00000001
00000200
00000000
00000010
00000000
00001300
00000000
,
00010000
00001000
00000100
00000000
00001000
00010000
00100000
00000000
,
10000000
00000000
00000000
00010000
00000000
00000000
10000000
00000000
00000000
00000000
00100000
00000000
00100000
00000000
00000000
00000000
,
01000000
00000000
00000000
00010000
00000000
00000000
00100000
00000000
00000000
00000000
00001000
00000000
00010000
00000000
00001000
00000000
,
00000100
00000000
00000000
00000010
00000000
00000000
00000100
00000000
00000000
00000000
00000001
00000000
00000001
00000000
00000000
00000000
,
00001000
00000100
00000001
00000100
00001000
00000010
00000100
00001000
,
00010000
00000000
00000000
00001000
00000000
00000000
00100000
00000000
00000000
00000000
01000000
00000000
01000000
00000000
00000000
00000000
,
10000000
00000000
00000000
01000000
00000000
00000000
00100000
00000000
00000000
00000000
00001000
00000000
00010000
00000000
00001000
00000000
,
00000010
00000000
00000000
00000001
00000000
00000000
00001000
00000000
00000000
00000000
00000001
00000000
00000001
00000000
00000000
00000000
,
00000100
00000000
00000000
00000010
00000000
00000000
00001000
00000000
00001001
00000000
00000000
00001001
00000000
00000000
00001001
00000000
,
00000100
00000010
00000010
00000010
,
00001000
00000000
00010000
00000000
01000000
00000000
00100000
00000000
01000000
00000000
00000000
10000000
00000000
00000000
00010000
00000000
,
10000000
01000000
00100000
00000000
00010000
10000000
00100000
00000000
,
10000000
00000000
01000000
00000000
00010000
00000000
00001000
00000000
00010000
00000000
00000000
00001000
00000000
00000000
00000010
00000000
,
00000000
00000100
00000010
00000000
00000001
00001000
00000001
00001000
,
00000001
00000000
00000100
00000000
00001000
00000000
00010000
00000000
00001000
00000000
00000000
00100000
00000000
00000000
00010000
00000000
,
10000000
01000000
00100000
00000000
00010000
01000000
00100000
00000000
,
10000000
00000000
01000000
00000000
00010000
00000000
00001000
00000000
00010000
00000000
00000000
00000100
00000000
00000000
00000010
00000000
,
00000000
00000100
00000010
00000100
00000100
00000020
00000000
00000000
,
00000130
00000000
00000000
00001000
00000000
00000000
00000001
00000000
00000000
00000100
00000000
00000000
00000001
00000000
00000010
00000000
,
00001000
00000000
00011000
00000000
00011000
00000000
00001000
00010000
,
01000000
00000000
00000000
10000000
00000000
00000000
00010000
00000000
00000000
01000000
00000000
00000000
00100000
00000000
00010000
00000000
,
00001000
00000000
00011000
00000000
00011000
00000000
00010000
00001000
,
00000010
00000000
00000000
00000100
00000000
00000000
00001000
00000000
00000000
00000001
00000000
00000000
00000010
00000000
00000100
00000000
,
00001000
00000000
00011000
00000000
00101000
00000000
00010000
00100000
,
01000000
00000000
00000000
10000000
00000000
00000000
00100000
00000000
00000000
01000000
00000000
00000000
00010000
00000000
10000000
00000000
,
01000000
00100000
00010000
10000000
01000000
00010000
00001000
00000000
,
00000010
00000000
00000100
00000000
00000000
00000000
00000001
00001000
00000001
00000000
00000000
00000000
00000110
00000000
00000000
00000000
,
00001000
00010000
00000000
00010000
00001000
00100000
00001000
01000000
,
00200000
00000000
00000000
00000000
,
00300000
00000000
00000000
00000000
,
00000000
00000000
00000000
00000000
;

//---------------dance-double - ----------------
#NOTES:
     dance-double:
     :
     Hard:
     15:
     :
00000000
00000000
00000000
00000000
,
00000000
00000000
00000000
00000000
,
00000000
00000000
00000000
00000000
,
00000000
00000000
00000000
00000000
,
00000000
00000000
00000000
00000000
,
00101000
00000000
00000000
00100000
01000000
00000000
00010000
00000000
00001000
00000000
00000100
00000000
00000001
00000000
00000010
00000000
,
00000001
00000000
00000000
00000001
00000100
00000000
00000010
00000000
00000100
00000000
00001000
00000000
00010000
00000000
01000000
00000000
,
00100000
00000000
00000000
00100000
00010000
00000000
01000000
00000000
00100000
00000000
10000000
00000000
01000000
00000000
00010000
00000000
,
00001000
00000000
00000000
00000100
00000010
00000000
00001000
00000000
00000001
00000000
00000100
00000000
00001000
00000000
00010000
00000000
,
00022000
00000000
00000000
00033000
,
00001000
00100000
00001000
00100000
00010000
00000000
01000000
00000000
00010000
10000000
00010000
10000000
00100000
01000000
00100000
00000000
,
10000000
00000000
01000000
00000000
00100000
00010000
00000000
00100000
00001000
00010000
00001000
00010000
00000100
00000000
00001000
00000000
,
00000010
00001000
00000010
00000000
00000100
00000001
00000100
00000000
00000001
00000010
00000000
00000001
00001000
00000000
00000010
00000000
,
00000100
00000010
00001000
00000000
00000100
00010000
00001000
00000000
00100000
00010000
01000000
00100000
01000000
00000000
00010000
00000000
,
10000000
00100000
10000000
00100000
01000000
00000000
00010000
00000000
00100000
00001000
00100000
00001000
00010000
00001000
00010000
00000000
,
00000100
00000000
00000010
00000000
00000001
00001000
00000000
00001000
00000010
00000100
00000010
00000100
00000001
00000000
00000010
00000000
,
00000100
00010000
00000100
00010000
00001000
00000000
00010000
00001000
00100000
00001000
00000000
00100000
00010000
00000000
01000000
00000000
,
00100000
10000000
00010000
00000000
10000000
01000000
10000000
01000000
00100000
00001000
00020000
00000000
00000000
00000000
00000000
00000000
,
00031000
00000000
00000000
00001000
00000100
00000000
00000001
00000000
00000000
00000010
00000000
00000000
00000001
00000000
00000100
00000000
,
00000010
00000000
00000000
00000000
00000010
00000100
00000000
00000000
00001000
00000000
00010000
00000000
00100000
00000000
10000000
00000000
,
11000000
00000000
01010000
00000000
00101000
00010000
01000000
00000000
,
00010000
10000000
00100000
00010000
00001000
00000100
00000001
00001000
,
00000010
00000000
00000000
00000010
00000100
00000000
00000001
00000000
00000000
00000100
00000000
00000000
00001000
00000000
00010000
00000000
,
00001000
00000000
00010000
00000000
00011000
00000000
00000000
00000000
00100000
00001000
00000000
00000000
00000010
00010000
00000000
00000000
,
00010100
00000000
00011000
00000000
01001000
00000000
01000000
01000000
,
00010000
00000000
10000000
01000000
00100000
00000000
00010000
00000000
00100000
00001000
00010000
00000000
00000100
00001000
00000010
00000000
,
00000100
00000000
00000000
00000100
00000002
00000000
00000100
00000000
00000000
00001000
00000000
00000000
00000013
00000000
00000100
00000000
,
00000011
00000000
00000000
00000000
00001100
00000000
00000000
00000000
00010010
00000000
00000000
00000000
00001000
00010000
00001000
00010000
,
00000100
00000000
00000000
00000100
00020000
00000000
00000100
00000000
00000000
00001000
00000000
00000000
00130000
00000000
01000000
00000000
,
01010000
00000000
00000000
00000000
10100000
00000000
00000000
00000000
10000000
01000000
10000000
01000000
00100000
00010000
00100000
00010000
,
01000000
00000000
00000000
01000000
00020000
00000000
01000000
00000000
00000000
10000000
00000000
00000000
00130000
00000000
01000000
00000000
,
00110000
00000000
00000000
00000000
11000000
00000000
00000000
00000000
00101000
00000000
00000000
00000000
00010000
00001000
00010000
00001000
,
01000000
00000000
00000000
01000000
00002000
00000000
01000000
00000000
00000000
00010000
00000000
00000000
00003100
00000000
00000010
00000000
,
00000100
00000001
00001000
00000000
00000010
00010000
00001000
00000000
00100000
00001000
00100000
00001000
00100000
00010000
01000000
00000000
,
00100000
00000000
10000000
00000000
01000000
00010000
00000000
00001000
00000000
00000100
00000001
00000000
00000010
00000000
00000100
00000000
,
00000010
00000000
00000001
00000000
00000100
00000010
00000000
00002000
00000000
00000000
00000100
00000000
00000000
00000000
00003001
00000000
,
00000010
00000000
00000001
00000000
00000100
00001000
00000000
00010000
00000000
01000000
10000000
00000000
00100000
00000000
01000000
00000000
,
00100000
00000000
10000000
00000000
01000000
00100000
00000000
00010000
01000000
00000000
00100000
00000000
00010000
00000000
00001000
00000000
,
00000100
00000000
00000001
00000000
00000010
00000100
00000000
00001000
00000000
00000001
00000010
00000000
00001000
00000000
00010000
00000000
,
00100000
00000000
10000000
00000000
01000000
00100000
00000000
00020000
00000000
00000000
10000000
00000000
00000000
00000000
00130000
00000000
,
00001000
00000000
00010000
00000000
00000100
00000010
00000000
00000001
00000000
00000100
00000010
00000000
00001000
00000000
00000010
00000000
,
00000100
00000001
00001000
00000000
00000010
00001000
00000100
00000000
00010000
00001000
00100000
00010000
00100000
00000000
01000000
00000000
,
10000000
00000000
00000000
10100000
00000000
00000000
11000000
00000000
00100000
00000000
00001000
00000000
00010000
00000000
00000100
00000000
,
00000010
00000000
00000000
00000011
00000000
00000000
00000101
00000000
00000010
00000000
00010000
00000000
00001000
00000000
00100000
00000000
,
01000000
00000000
00000000
11000000
00000000
00000000
10100000
00000000
01000000
00000000
00010000
00000000
00100000
00000000
00001000
00000000
,
00010000
00001000
00010000
00000000
00000100
00001000
00000100
00000000
00000010
00000100
00000010
00000000
00000001
00000010
00000001
00000000
,
00000001
00000000
00000000
00000101
00000000
00000000
00000011
00000000
00000100
00000000
00010000
00000000
00001000
00000000
00100000
00000000
,
01000000
00000000
00000000
11000000
00000000
00000000
10100000
00000000
01000000
00000000
00001000
00000000
00010000
00000000
00000100
00000000
,
00000010
00000000
00000000
00000011
00000000
00000000
00000101
00000000
00000010
00000000
00001000
00000000
00000100
00000000
00010000
00000000
,
00001000
00010000
00001000
00100000
00010000
00100000
01000000
00000000
01100000
00000000
00000000
10010000
00000000
00000000
01100000
00000000
,
10000000
00100000
00010000
00001000
,
00010000
00000100
00010000
00000100
00001000
00000000
00000010
00000000
00001000
00000001
00001000
00000001
00000100
00000010
00000100
00000000
,
00000001
00000000
00000010
00000000
00000100
00001000
00000000
00000100
00010000
00001000
00010000
00001000
00100000
00000000
00010000
00000000
,
01000000
00010000
01000000
00000000
00100000
10000000
00100000
00000000
10000000
01000000
00000000
10000000
00010000
00000000
01000000
00000000
,
00100000
01000000
00010000
00000000
00100000
00001000
00010000
00000000
00000100
00001000
00000010
00000100
00000010
00000000
00001000
00000000
,
00000001
00000100
00000001
00000100
00000010
00000000
00001000
00000000
00000100
00010000
00000100
00010000
00001000
00010000
00001000
00000000
,
00100000
00000000
01000000
00000000
10000000
00010000
00000000
00010000
01000000
00100000
01000000
00100000
10000000
00000000
01000000
00000000
,
00100000
00001000
00100000
00001000
00010000
00000000
00001000
00010000
00000100
00010000
00000000
00000100
00001000
00000000
00000010
00000000
,
00000100
00000000
00000000
00000000
00000000
00000000
00000000
00000000
00000000
00000000
00000000
00000000
00000001
00000000
00000000
00000000
00000000
00000000
00000000
00000000
00000000
00000000
00000000
00000000
00001000
00000000
00000000
00000000
00000000
00000000
00000000
00000000
00000000
00000000
00000000
00000000
00000000
00000000
00000000
00000000
00000000
00000000
00000000
00000000
00000000
00000000
00000000
00000000
00000001
00000000
00000000
00000000
00000000
00000000
00000000
00000000
00000000
00000000
00000000
00000000
00000010
00000000
00000000
00000000
00000000
00000000
00000000
00000000
00000000
00000000
00000000
00000000
00000001
00000000
00000000
00000000
00000000
00000000
00000000
00000000
00000000
00000000
00000000
00000000
00000010
00000000
00000000
00000000
00000000
00000000
00000000
00000000
00000000
00000000
00000000
00000000
00000100
00000000
00000000
00000000
00000000
00000000
00000000
00000000
00000000
00000000
00000000
00000000
00010000
00000000
00000000
00000000
00000000
00000000
00000000
00000000
00000000
00000000
00000000
00000000
00002000
00000000
00000000
00000000
00000000
00000000
00000000
00000000
00000000
00000000
00000000
00000000
00000000
00000000
00000000
00000000
00000000
00000000
00000000
00000000
00000000
00000000
00000000
00000000
00000000
00000000
00000000
00000000
00000000
00000000
00000000
00000000
00000000
00000000
00000000
00000000
00000000
00000000
00000000
00000000
00000000
00000000
00000000
00000000
00000000
00000000
00000000
00000000
00000000
00000000
00000000
00000000
00000000
00000000
00000000
00000000
00000000
00000000
00000000
00000000
00000000
00000000
00000000
00000000
00000000
00000000
00000000
00000000
00000000
00000000
00000000
00003000
,
00100000
00000000
00000000
00100000
00020000
00000000
00001000
00000000
00000000
00100000
00000000
00000000
10030000
00000000
00100000
00000000
,
01010000
00000000
00000000
00000000
00101000
00000000
00000000
00000000
01010000
00000000
00000000
00000000
00100000
10000000
00100000
10000000
,
00010000
00000000
00000000
00010000
02000000
00000000
10000000
00000000
00000000
00100000
00000000
00000000
03010000
00000000
00100000
00000000
,
00110000
00000000
00000000
00000000
00011000
00000000
00000000
00000000
00000010
00001000
00000010
00001000
00000001
00000100
00000001
00000100
,
00000010
00000000
00000000
00000010
00002000
00000000
00010000
00000000
00000000
00000010
00000000
00000000
00003001
00000000
00000010
00000000
,
00001100
00000000
00000000
00000000
00010010
00000000
00000000
00000000
00001100
00000000
00000000
00000000
00000010
00000001
00000010
00000001
,
00001000
00000000
00000000
00001000
00000200
00000000
00000001
00000000
00000000
00000010
00000000
00000000
00001300
00000000
00000001
00000000
,
00000100
00000000
00000010
00000000
00010000
00000000
00001000
00000000
00010000
00001000
00010000
00001000
00100000
00000000
01000000
00000000
,
00200000
00000000
01000000
00000000
00000000
00000000
01300000
10000000
01000000
00000000
00010000
00000000
00001000
00000000
00000100
00000000
,
00000020
00000000
00000100
00000000
00000000
00000000
00000130
00000000
00000001
00001000
00000001
00001000
00000010
00000100
00000010
00000000
,
00002002
00000000
00000000
00000000
,
00003003
00000000
00000000
00000000
,
00000000
00000000
00000000
00000000
;
