#TITLE:BRE∀K DOWN! (World Version);
#ARTIST:ELE ROCKS;
#TITLETRANSLIT:BREAK DOWN! (World Version);
#BANNER:BREAK DOWN! (World Version).png;
#BACKGROUND:BREAK DOWN! (World Version)-bg.png;
#JACKET:BREAK DOWN! (World Version)-jacket.png;
#MUSIC:BREAK DOWN! (World Version).ogg;
#SAMPLESTART:64.03;
#SAMPLELENGTH:20;
#DISPLAYBPM:190;
#BPMS:0=189.97;
#BGCHANGES:;

//---------------dance-single - ----------------
#NOTES:
     dance-single:
     :
     Beginner:
     2:
     :
0000
0000
0000
0000
,
0000
0000
0000
0000
,
0000
0000
0000
0000
,
0000
0000
0000
0000
,
0000
0000
0000
0000
,
1000
1000
0000
0000
,
0001
0001
0000
0000
,
0000
0000
0110
0000
,
1001
0000
0000
0000
,
0000
1000
0000
1000
,
0000
0001
0000
0001
,
0000
0000
0100
0000
,
0001
0000
1000
0000
,
0000
0000
0100
0000
,
1000
0000
0001
0000
,
0000
0000
0010
0000
,
0001
0000
0100
0000
,
0010
0000
0100
0000
,
0110
0000
0000
0000
,
0000
0000
0001
0000
,
0010
0000
0100
0000
,
0000
0000
1000
0000
,
0010
0000
1000
0000
,
0000
0000
0100
0000
,
0010
0000
0001
0000
,
1000
0000
1000
0000
,
1001
0000
0000
0000
,
0001
0000
1000
0000
,
0010
0000
0000
0000
,
1000
0000
0100
0000
,
1000
0000
0100
0000
,
0010
0000
0001
0000
,
0100
0000
0010
0000
,
0000
0000
1000
0000
,
0001
0000
0100
0000
,
1001
0000
0000
0000
,
1000
0000
0010
0000
,
0100
0000
0000
0000
,
0001
0000
0010
0000
,
0001
0000
0000
0000
,
1000
0000
0001
0000
,
0100
0000
0100
0000
,
0010
0000
1000
0000
,
0110
0000
0000
0000
,
0001
0000
0010
0000
,
0001
0000
0000
0000
,
0100
0000
0010
0000
,
1000
0000
0000
0000
,
0100
0000
1000
0000
,
0001
0000
0100
0000
,
0110
0000
0000
0000
,
1001
0000
0000
0000
,
1000
0000
0000
0000
,
0001
0000
0000
0000
,
0010
0000
0000
0000
,
0100
0000
0000
0000
,
0010
0000
0000
0000
,
0001
0000
0001
0000
,
1000
0000
1000
0000
,
1001
0000
0000
0000
,
0010
0000
1000
0000
,
0100
0000
0000
0000
,
1000
0000
0001
0000
,
0110
0000
0000
0000
,
0100
0000
0010
0000
,
1000
0000
1000
0000
,
0110
0000
0000
0000
,
1001
0000
0000
0000
;

//---------------dance-single - ----------------
#NOTES:
     dance-single:
     :
     Easy:
     7:
     :
0000
0000
0000
0000
,
0000
0000
0000
0000
,
0000
0000
0000
0000
,
0000
0000
0000
0000
,
0000
0000
0000
0000
,
1000
0100
0001
0100
,
1000
0010
0001
0010
,
0000
1001
0000
0000
0110
0000
0000
0000
,
1001
0000
0000
1000
0000
0001
0000
0000
,
0100
0110
0010
0110
,
1000
0001
1000
0100
,
1001
0010
0001
0100
,
1000
0001
0010
0110
,
0110
0001
0100
0010
,
1000
0001
1000
1001
,
1001
0010
1000
0100
,
0010
0001
1000
0001
,
0200
0000
0000
0320
0000
0000
2030
0000
,
0002
0000
3003
1001
,
0110
0001
0010
0100
,
1000
0010
2000
3002
,
0103
0001
0010
0001
,
0100
0010
1000
0110
,
1001
0010
1000
0100
,
1000
0010
0001
0100
,
0010
1000
0100
0001
,
0220
0000
0000
0330
,
0001
0100
0001
1000
,
2002
0000
0000
3003
,
2000
0000
0020
3030
,
1001
0001
0100
0010
,
1000
0100
1000
0001
,
0010
0000
0000
0010
0000
0000
0010
0000
,
0000
0110
0001
0100
,
1000
0001
1000
0110
,
1001
0000
0010
0000
,
1000
0100
0010
0001
,
0100
0000
0010
0000
,
1000
0001
0010
0100
,
1000
0000
0001
0000
,
0010
0001
0100
0010
,
2000
0000
0002
3003
,
2000
3200
0320
0032
,
0103
0010
0000
1000
,
0001
0010
0001
0100
,
1000
0000
0010
0000
,
1000
0001
0010
0100
,
1000
0000
0001
0000
,
0010
0001
0100
0010
,
2002
3003
0220
0330
,
0001
1000
0001
0110
,
1001
0000
0000
0000
,
1000
0000
0001
0000
,
0100
0000
0000
0000
,
0010
0000
1000
0000
,
0001
0000
0000
0000
,
0010
0000
0100
0000
,
1000
0000
1000
0000
,
0002
0023
0230
2300
,
3010
1000
0100
0010
,
0001
0100
0001
0010
,
0100
1000
0010
0100
,
0001
0010
0001
0100
,
0010
1000
0100
0010
,
0001
0100
0001
1000
,
0220
0330
2002
3003
,
0220
0000
0330
0001
,
2002
0000
0000
0000
,
0000
0000
0000
0000
,
0000
0000
0000
0000
,
3003
0000
0000
0000
;

//---------------dance-single - ----------------
#NOTES:
     dance-single:
     :
     Medium:
     10:
     :
0000
0000
0000
0000
,
0000
0000
0000
0000
,
0000
0000
0000
0000
,
0000
0000
0000
0000
,
0000
0000
0000
0000
,
1000
0100
1000
0001
0000
0100
0000
0000
,
0001
0010
0001
1000
0000
0010
0000
0000
,
0000
0101
0000
0000
1100
0000
0000
0000
,
1001
0000
0000
1010
0000
0011
0000
0000
,
1000
0001
0200
0000
0301
1000
0200
0000
,
0310
0001
0100
0000
0110
0000
1001
0000
,
0110
0000
1000
0100
1000
0000
0001
0000
,
0010
0001
0010
0100
0000
0000
1100
0000
,
0101
0000
0001
1000
0001
0000
0100
0000
,
0010
1000
0000
0001
0000
0000
0011
0000
,
1010
0000
0100
1000
0001
0000
0100
0000
,
0010
0000
1000
0001
0000
0001
0100
0000
,
0110
0000
1000
0010
0000
1000
0001
0000
,
0200
0000
0020
0000
0330
1000
0001
0000
,
1001
0000
1000
0100
0001
0000
0010
0000
,
0001
1000
0010
0100
0000
0000
1010
0000
,
0101
0000
1000
0001
0010
0000
0100
0000
,
0010
0001
1000
0100
0000
0000
1100
0000
,
0011
0000
0001
1000
0100
0000
0010
0000
,
0001
1000
0010
0100
0000
0100
0001
0000
,
0011
0000
0010
0100
0000
0100
1000
0002
,
2000
0000
0000
0000
3003
0100
0010
0000
,
1000
0100
1000
0100
0000
0010
0001
0010
,
0002
0000
0003
0000
1000
0100
0010
0001
,
0200
0310
2000
3001
,
1010
0000
0001
1000
0000
1000
0100
0000
,
1000
0010
1000
0010
0000
0100
0001
0100
,
0002
0000
0000
2003
0000
0000
3020
0000
,
0030
1000
0001
0010
0001
0000
0100
0010
,
0000
1000
0001
1000
0001
0000
0110
0000
,
1001
0000
0100
0010
0000
0010
1000
0001
,
1000
0000
0100
0010
0000
0011
0000
0101
,
0000
1000
0000
0001
1000
0000
0010
0100
,
0001
0000
0010
0100
0000
1100
0000
1010
,
0000
0000
1000
0001
0000
0010
0100
0010
,
0001
0000
0100
0010
0000
1000
0000
0000
,
2100
3001
0102
1003
,
1001
0110
1001
0110
,
1001
0000
0010
1000
0000
0001
1000
0001
,
0100
0000
0010
1000
0000
1100
0000
0011
,
0000
0100
0000
0001
1000
0000
0010
0100
,
0010
0000
1000
0001
0000
1010
0000
0101
,
0000
0000
0010
0001
0000
1000
0001
1000
,
0010
0000
0100
0001
0000
1001
0000
1000
,
0020
0000
0030
0100
0002
0000
0003
0000
,
0010
0001
0100
0010
1000
0000
0110
0000
,
1001
0000
0000
0000
0000
1000
0001
1000
,
0001
0000
0010
0200
0000
2300
0000
3002
,
0000
0003
0000
0000
0000
0010
0001
1000
,
0010
0000
1000
0200
0000
0320
0000
0032
,
0000
0003
0000
0000
0000
0100
0010
1000
,
0100
0000
1000
0001
0000
0100
0000
0000
,
0012
1003
2010
3001
,
1001
0110
1001
0110
,
1001
0000
1000
0001
0000
0010
0100
0010
,
0100
0000
1000
0001
0000
0011
0000
1010
,
0000
0100
0000
0001
1000
0000
0001
0010
,
0100
0000
1000
0010
0000
1100
0000
0011
,
0000
0000
1000
0010
0000
1000
0001
0100
,
0010
0000
1000
0001
0000
0110
0000
0100
,
0020
0000
0030
1000
0002
0000
0003
0000
,
0220
0000
0330
0001
0000
1000
0100
0000
,
2002
0000
0000
0000
,
0000
0000
0000
0000
,
0000
0000
0000
0000
,
3003
0000
0000
0000
;

//---------------dance-single - ----------------
#NOTES:
     dance-single:
     :
     Hard:
     13:
     :
0000
0000
0000
0000
,
0000
0000
0000
0000
,
0000
0000
0000
0000
,
0000
0000
0000
0000
,
0000
0000
0000
0000
,
1000
0100
1000
0001
0000
0100
0100
0010
,
1000
0001
0010
0001
0000
0100
0100
0010
,
1000
1100
0000
0001
0001
1000
0100
0000
,
0011
0001
0100
0010
1000
0100
0001
0000
,
0010
0010
1001
0000
0010
0010
1001
0000
,
1000
0000
1000
0000
1000
0000
0000
0001
0100
0000
0000
0010
1000
0000
0000
0100
,
0010
0000
0001
0100
0001
1000
0100
0010
,
0001
1000
0001
0020
0000
0100
0130
0000
,
0110
0000
0010
0001
1000
0010
1000
0100
,
1000
0010
0100
0002
0000
1000
1003
0000
,
1001
0000
0010
1000
0100
1000
0001
1000
,
0100
0010
0001
1000
0000
0010
1000
0001
,
0102
0000
1000
2003
0000
3001
0100
0010
,
1000
0000
0100
0000
0001
0000
0000
0010
0001
0000
0100
0000
0100
0000
0000
0000
,
1010
0000
1000
0001
1000
0100
0010
0100
,
0010
0001
1000
0020
0000
0100
0130
0000
,
0101
0000
0010
0001
1000
0010
1000
0100
,
1000
0000
0001
0000
0010
0000
0100
1000
0100
0000
0001
0000
0001
0000
0000
0000
,
0011
1000
0010
1000
0001
0010
0001
0100
,
0010
0100
0001
1000
0000
0100
1000
0001
,
0010
0001
1000
0020
0000
0130
0010
2000
,
0002
0000
0000
0000
3003
0100
0100
0010
,
1000
0100
1000
1000
0000
0001
0010
0001
,
0001
1001
0000
0100
0010
1000
0001
1000
,
0200
0010
0310
0000
0002
1000
1003
0000
,
1010
0100
1000
0001
0000
0010
0010
0100
,
1000
0010
1000
1000
0000
0001
0100
0001
,
0002
0000
1003
0010
1000
0001
0100
0000
,
0110
1000
0001
1000
0100
0010
0001
0200
,
0000
0000
0010
0000
0310
0000
1000
0000
0001
0000
1000
0100
1000
0000
0000
0000
,
1001
0000
0001
0010
0000
0001
1000
0100
,
1000
0010
0100
0001
0000
1100
0000
0101
,
1000
0001
0000
0100
0100
0010
1000
0001
,
1000
0000
0100
0000
0010
0000
0001
1000
0001
0000
0100
0000
0010
0000
1000
0000
,
0100
1000
1000
0001
0000
0010
0001
0100
,
0001
0010
0001
1000
0100
0010
0001
0000
,
0012
1000
1003
0001
0200
0010
0310
1000
,
0001
0000
0000
1000
0100
0000
0000
0100
0010
0000
0001
0000
1000
0000
0001
0000
,
1001
0000
0100
0010
0000
1000
0001
0010
,
0100
1000
0001
0100
0000
0101
0000
1010
,
0001
1000
0000
0010
0010
1000
0100
0010
,
0001
0000
0100
0000
0010
0000
1000
0100
1000
0000
0001
0000
0100
0000
0010
0000
,
1000
0100
0010
0010
0000
0001
1000
0001
,
0010
0100
1000
0010
1000
0001
0100
0010
,
2010
0000
3001
1000
0200
1000
1300
0000
,
0110
0000
0001
0000
1000
0000
0001
0100
0001
0000
1000
0100
1000
0000
0010
0000
,
1001
0000
0100
0000
0000
0010
1000
0001
,
0012
0000
0100
0203
0000
0320
0000
1030
,
0001
0000
0100
0000
0000
0001
1000
0100
,
2100
0000
0001
3002
0000
0023
0000
0130
,
1000
0000
0010
0110
0000
0100
0001
1000
,
0100
0010
0001
0100
0010
1000
0001
0000
,
0012
1000
1003
0000
2100
0001
3001
0100
,
0010
1000
0010
1000
0001
0100
0010
0100
,
0001
0010
0001
0001
0000
1000
0100
0010
,
0001
0100
0010
1000
0000
1010
0000
0101
,
0000
0110
0000
0001
1000
0100
0100
1000
,
0010
0100
0001
1000
0000
1100
0000
0011
,
1000
0001
0010
0010
0000
0001
0100
1000
,
0020
1000
1030
0001
0000
0100
0010
1000
,
1200
0000
0310
0001
2001
0000
3010
0000
,
0110
0001
1000
0010
0000
0100
0110
0000
,
2002
0000
0000
0000
,
0000
0000
0000
0000
,
0000
0000
0000
0000
,
3003
0000
0000
0000
;
