#TITLE:BOOM BOOM DOLLAR;
#SUBTITLE:(Daytona Mix);
#ARTIST:KING KONG 2000;
#BANNER:BOOM BOOM DOLLAR (Daytona Mix)-bn.png;
#BACKGROUND:BOOM BOOM DOLLAR (Daytona Mix)-bg.png;
#JACKET:BOOM BOOM DOLLAR (Daytona Mix)-jacket.png;
#MUSIC:BOOM BOOM DOLLAR (Daytona Mix).ogg;
#OFFSET:-0.05;
#SAMPLESTART:56.45;
#SAMPLELENGTH:20;
#DISPLAYBPM:170;
#BPMS:0=170;
#BGCHANGES:;

//---------------dance-single - ----------------
#NOTES:
     dance-single:
     :
     Beginner:
     4:
     :
0000
0000
0000
0000
,
0000
0000
0000
0000
,
0000
0000
0000
0000
,
0000
0000
0000
0000
,
0000
0000
0000
0000
,
0000
0000
0000
0000
,
0000
0000
0000
0000
,
0000
0000
0000
0000
,
0001
0000
1000
0000
,
0100
0100
0100
0000
,
1000
0000
0010
0000
,
0100
0000
0001
0000
,
0010
0000
0001
0000
,
1000
1000
1000
0000
,
0010
0000
0100
0000
,
0001
0001
0001
0000
,
0010
0000
1001
0000
,
0001
0000
0100
0000
,
1000
0000
0010
0000
,
0100
0100
0100
0100
,
0000
0000
0110
0000
,
0010
0000
1000
0000
,
0001
0000
0010
0000
,
0001
0001
0001
0001
,
0000
0000
1000
0000
,
0010
0010
0010
0000
,
0000
0000
0100
0000
,
0001
0000
0000
0000
,
0000
0000
0010
0000
,
0001
0001
0001
0000
,
1000
1000
1000
0000
,
0010
0000
0000
0000
,
0100
0000
0001
0000
,
0010
0000
0000
0000
,
0001
0000
0100
0000
,
1000
0000
0000
0000
,
0010
0000
1000
0000
,
0001
0000
0100
0000
,
0110
0000
0000
0000
,
1001
0000
0000
0000
,
1000
0000
0001
0000
,
0010
0000
0100
0000
,
0010
0000
0001
0000
,
0100
0000
0010
0000
,
1000
0000
0100
0000
,
1000
0000
0001
0000
,
1001
0000
0000
0000
,
0110
0000
0000
0000
,
1000
0000
0010
0000
,
1000
1000
1000
0000
,
0100
0000
0010
0000
,
0001
0000
1000
0000
,
0001
0000
0010
0000
,
0100
0100
0100
0000
,
0010
0000
0001
0000
,
0010
0000
0100
0000
,
1000
1000
1000
0000
,
0001
0001
0001
0000
,
0010
0010
0010
0000
,
0001
0000
1000
0000
,
0100
0100
0100
0000
,
0010
0010
0010
0000
,
0001
0001
0001
0000
,
1000
0000
0010
0000
,
1001
0000
0000
0000
,
0001
0001
0001
0000
,
0010
0000
0010
0000
,
0001
0000
1000
0000
,
0110
0000
0000
0000
,
1000
1000
1000
0000
,
0010
0000
0100
0000
,
0010
0000
0000
0000
,
1000
0000
0100
0000
,
1000
0000
0000
0000
,
0001
0000
0100
0000
,
0001
0000
0000
0000
,
1000
0000
0001
0000
,
1000
0000
0000
0000
,
0100
0000
0000
0000
,
0010
0000
0000
0000
;

//---------------dance-single - ----------------
#NOTES:
     dance-single:
     :
     Easy:
     7:
     :
0000
0000
0000
0000
,
0000
0000
0000
0000
,
0000
0000
0000
0000
,
0000
0000
0000
0000
,
0000
0000
0000
0000
,
0000
0000
0000
0000
,
0000
0000
0000
0000
,
0000
0000
0000
0000
,
0001
1000
0001
0010
,
0001
0100
1000
1000
,
0010
0100
0010
1000
,
0100
0010
0001
0001
,
0010
0001
1000
0001
,
0100
0001
0010
0010
,
0100
1000
0010
1000
,
0001
0010
0100
0100
,
1000
0110
1001
0000
,
0010
0010
1000
0001
,
0010
0001
1000
0000
,
0002
0023
0230
2300
,
3000
1001
0110
0000
,
1000
1000
0001
0010
,
0100
0000
1000
0000
,
0002
0023
0230
2300
,
3010
1000
0001
1000
,
0100
0100
0100
0000
,
0010
0001
1000
0001
,
0100
0000
0110
1001
,
0110
0001
0100
1000
,
0010
0010
0010
0000
,
1000
0001
0010
0100
,
2000
0000
0000
3000
,
0001
0001
0001
0001
,
0010
0001
0100
0000
,
1000
1000
1000
1000
,
1001
0010
1000
0100
,
0010
0010
0010
0010
,
0001
0100
1000
0000
,
0002
0000
0000
0003
,
2000
0000
0000
3000
,
0100
0100
0100
0100
,
1000
0001
0110
0000
,
0001
0001
0001
0001
,
1001
0010
1000
0100
,
1000
1000
1000
1000
,
0010
1000
0001
0000
,
0020
0000
0000
0030
,
0200
0000
0000
0300
,
1000
1000
1000
0010
,
1000
0001
0010
0100
,
0010
0010
0010
0001
,
0100
0010
1000
0001
,
0100
0100
0100
0010
,
1000
0001
1000
0100
,
0001
0001
0001
0010
,
0001
0100
0010
1000
,
0010
0010
1000
0001
,
0010
0100
1000
0001
,
0100
0100
0010
1000
,
0001
0010
1001
0110
,
0001
0001
0010
0100
,
0010
0001
1000
0010
,
1000
1000
0100
0010
,
0001
0100
0110
1001
,
0110
0000
0001
1000
,
0100
0100
0100
0000
,
1000
0001
1000
1001
,
0010
0100
0010
1001
,
0110
1001
1000
0001
,
0100
0100
0100
0000
,
0001
1000
0001
0110
,
0200
0000
0000
0300
,
0010
0010
0010
0010
,
0001
1000
0001
0000
,
0100
0100
0100
0100
,
0010
1000
0001
0100
,
0001
0010
0100
1000
,
0010
0010
0010
0000
,
2000
0000
0000
3000
,
0020
0000
0000
0030
;

//---------------dance-single - ----------------
#NOTES:
     dance-single:
     :
     Medium:
     10:
     :
0000
0000
0000
0000
,
0000
0000
0000
0000
,
0000
0000
0000
0000
,
0000
0000
0000
0000
,
0000
0000
0000
0000
,
0000
0000
0000
0000
,
0000
0000
0000
0000
,
0000
0000
0000
0000
,
0001
0001
1000
0001
,
0010
0100
1000
0000
1001
0000
0110
0000
,
0010
0010
1000
0001
,
0100
0010
2000
0000
3200
0000
0320
0000
,
0130
0100
1000
0010
,
1000
0001
0100
0000
0101
0000
1100
0000
,
1000
1000
0010
0100
,
0001
0010
1000
0000
1010
0000
0011
0000
,
1000
0000
0110
0000
0001
1000
0000
0020
,
0000
0000
0130
0000
0001
1000
0001
0020
,
0000
0032
0000
2003
0000
3200
0000
0000
,
1300
0010
1000
0000
0001
0010
0001
0000
,
0000
0100
0010
1000
0001
0000
0000
0021
,
0000
0000
0001
0000
1000
0000
0031
0200
,
0000
0300
0000
0110
0000
1001
0000
0000
,
0001
0100
0001
0000
1000
0100
1000
0000
,
1001
0000
0010
0000
1000
0001
0100
0000
,
0101
0000
0101
0000
2000
0002
3003
0000
,
0110
0000
0010
0000
1000
0001
0100
0020
,
0000
0000
0000
0000
0030
0000
0000
0000
1000
0000
0000
1000
0000
0000
1000
0000
,
0001
0000
0101
0000
0010
1000
0100
0000
,
1010
0000
1010
0000
0200
0020
0330
0000
,
1100
0000
1100
0000
0001
1000
0001
0020
,
0000
0000
0000
0030
,
2001
3002
2003
3002
,
0013
0000
0100
0000
1000
0001
0000
0000
,
0200
0320
0230
0320
,
1030
0000
1000
0001
0100
0000
0101
0000
,
2100
3002
0203
0320
,
1030
0001
0010
0000
0001
0100
0000
0000
,
0002
0010
1000
0103
,
2000
0100
0001
3010
,
0200
0302
2003
3020
,
1030
0100
0010
0000
0001
1000
0000
0000
,
0020
0230
0302
2003
,
3100
0000
0100
0010
0001
0000
1001
0000
,
0012
2003
3200
0320
,
0130
0010
0001
0000
1000
0001
0000
0000
,
0200
0010
1000
0301
,
0020
0000
0000
0030
,
0001
0001
0010
0100
,
1000
0001
1000
0000
1010
0000
0101
0000
,
0010
0010
1000
0100
,
1000
0001
0020
0000
0032
0000
2003
0000
,
3100
0100
1000
0010
,
0100
0001
1000
0000
1100
0000
0011
0000
,
1000
1000
0010
0100
,
0001
0010
0001
0000
1001
0000
0110
0000
,
0010
0000
1000
0000
0001
1000
0000
0100
,
0000
0010
0001
0000
0011
0000
0101
0000
,
1000
0000
0010
0000
1000
0001
0000
0100
,
0000
0010
2000
0000
3002
0000
0203
0000
,
0310
0000
0100
0000
0001
0010
0000
0001
,
0000
1000
0010
0000
1001
0000
1010
0000
,
1000
0000
0100
0000
0010
0001
0000
1000
,
0000
0100
1000
0000
1100
0000
0110
0000
,
0011
0001
1000
0010
,
0100
0000
0000
0100
0000
0000
0100
0000
0000
0000
0000
0000
0110
0000
0000
0000
,
0001
0000
0000
0001
0000
0000
0001
0000
0000
0000
1000
0000
0001
0000
0000
0000
,
0100
0000
0000
0100
0000
0000
0100
0000
0000
0000
0001
0000
1000
0000
0000
0000
,
1001
1001
0010
1000
,
0100
0000
0000
0100
0000
0000
0100
0000
0000
0000
2000
0000
0000
0000
3002
0000
,
0000
0203
0000
0302
0000
2003
0000
3001
,
0020
0000
0000
0030
,
0001
0001
1000
1000
,
0010
0000
0100
0000
0010
1000
0000
0000
,
0010
0010
0100
0100
,
0001
0010
0001
1000
,
0001
0010
0100
1000
,
0010
0000
1000
0000
0100
0010
0000
0000
,
0002
1000
1000
1003
,
0020
0000
0000
0030
;

//---------------dance-single - ----------------
#NOTES:
     dance-single:
     :
     Hard:
     12:
     :
0000
0000
0000
0000
,
0000
0000
0000
0000
,
0000
0000
0000
0000
,
0000
0000
0000
0000
,
0000
0000
0000
0000
,
0000
0000
0000
0000
,
0000
0000
0000
0000
,
0000
0000
0000
0000
,
0001
0000
0001
0000
1000
1000
0000
0010
,
0000
0000
1000
0000
0001
0000
0000
0000
0011
0000
0000
0001
0100
0000
0000
0000
,
1000
0000
1000
0000
0010
0010
0000
0100
,
0000
0000
0001
0000
1000
0000
0000
1000
0010
0000
0000
1000
0010
0000
0100
0000
,
0010
0000
0010
0000
0100
0100
0000
0001
,
0000
0000
1000
0000
0001
0000
0000
0000
1010
0000
0000
0100
0010
0000
0000
0000
,
0100
0000
0100
0000
0001
0001
0000
0010
,
0000
0001
1000
0000
1100
0000
0101
0000
,
1000
0010
0001
1000
0100
0001
0000
0020
,
0000
0031
0100
0010
1000
0001
1000
0200
,
0000
0320
0000
0032
0000
1003
0100
0000
,
0010
0001
0100
1000
0010
0001
0100
1000
,
0000
0001
0100
0010
0100
0001
0000
2000
,
0000
3010
1000
0001
0010
0001
1000
0200
,
0000
0320
0000
0032
0000
1003
0100
0000
,
0010
1000
0100
0001
0010
1000
0100
0001
,
0010
0100
0100
0010
0001
1000
0001
0100
,
0101
0000
0101
0000
1000
0001
0100
0000
,
0010
1000
1000
0001
1000
0100
0010
0001
,
0100
0000
0000
0001
1000
0000
0000
0000
0010
0000
0000
1000
0000
0000
0001
0000
,
1000
0100
0100
0010
0001
0100
0001
1000
,
1010
0000
1000
0100
1000
0001
0100
0000
,
0110
0000
1001
0000
0001
0010
0100
2000
,
0000
0010
0000
0100
0000
0001
3001
1000
,
1001
1001
0110
0110
,
0001
0010
0001
0100
0001
1000
0000
0000
,
1100
1100
0011
0011
,
0020
0000
0031
0100
1000
0100
0001
0000
,
1010
1010
0101
0101
,
0010
1000
0001
1000
0100
0010
0001
0000
,
0200
0010
1000
0301
,
0011
0000
0000
0001
1000
0000
0000
0000
0010
0000
1000
0000
0010
0000
1000
0000
,
1100
0101
1100
0101
,
0001
0010
1000
0010
0001
1000
0100
0000
,
1001
0110
1001
0110
,
0002
0000
1003
0010
0001
0010
1000
0000
,
1010
0011
1010
0011
,
0100
0001
1000
0001
0100
0010
1000
0000
,
0002
0010
1000
0103
,
2020
0000
0030
3002
,
0013
0000
0001
0000
0100
0100
0000
0001
,
0000
0000
1000
0000
0100
0000
0000
0000
1001
0000
0000
0001
0100
0000
0000
0000
,
0010
0000
1000
0000
0001
0001
0000
0010
,
0000
0000
0001
0000
1000
0000
0000
1000
0010
0000
0000
1000
0010
0000
0100
0000
,
0001
0000
1000
0000
0010
0010
0000
1000
,
0000
0000
0001
0000
0010
0000
0000
0000
0110
0000
0000
0001
1000
0000
0000
0000
,
0001
0000
0010
0000
1000
1000
0000
0100
,
0000
1000
0001
0000
0011
0000
1100
0000
,
0010
0000
0010
0000
1000
0001
1000
0100
,
0010
0001
1000
0000
0010
1000
0001
0000
,
0100
0000
0100
0000
0001
0010
0001
1000
,
0000
0000
0010
0000
1000
0000
0000
1000
0001
0000
0000
1000
0001
0000
0100
0000
,
0001
0000
0001
0000
0010
0001
1000
0010
,
1000
0100
0001
0000
0010
0001
0100
0000
,
1000
0000
1000
0000
0010
0100
0000
0001
,
0000
1000
0001
0000
1100
0000
0101
0000
,
1001
0000
0000
0000
0010
0000
0000
0000
1000
0000
0000
0001
0000
0000
1000
0000
,
0100
0000
0000
0100
0000
0000
0100
0000
1000
0000
0000
0001
1000
0000
0100
0000
,
0010
0000
0000
0010
0000
0000
0010
0000
0000
0000
0001
0000
1000
0000
0001
0000
,
0100
0000
0000
0100
0000
0000
0100
0000
0010
0000
0000
1000
0001
0000
0000
0001
,
1000
0000
0000
0100
0000
0000
1000
0000
0001
0000
0010
0000
0001
0000
1000
0000
,
0100
0000
0000
0100
0000
0000
0100
0000
0010
0000
0000
0001
1000
0000
0001
0000
,
0100
0020
0000
2030
0000
3002
0000
1003
,
0100
0000
0000
0100
0000
0000
0200
0000
0000
0000
0000
0000
0000
0000
0000
0000
,
0301
1000
0001
1000
,
0010
1000
0001
1000
0010
0100
0000
0000
,
0001
0100
0001
0100
,
0020
0000
1030
0001
2000
0000
3100
0000
,
0001
0010
0001
0010
,
0100
1000
0001
1000
0100
0010
0000
0000
,
0002
0100
0010
1003
,
0020
0000
0000
0030
;
