#TITLE:蒼い衝動 ~for EXTREME~;
#ARTIST:NAOKI feat.YUKI;
#TITLETRANSLIT:BLUE IMPULSE ~for EXTREME~;
#BANNER:BLUE IMPULSE ~for EXTREME~.png;
#BACKGROUND:BLUE IMPULSE ~for EXTREME~-bg.png;
#JACKET:BLUE IMPULSE ~for EXTREME~-jacket.png;
#MUSIC:BLUE IMPULSE ~for EXTREME~.ogg;
#SAMPLESTART:44.284;
#SAMPLELENGTH:20;
#DISPLAYBPM:145;
#BPMS:0=145.161,4=145.01;
#BGCHANGES:;

//---------------dance-single - ----------------
#NOTES:
     dance-single:
     :
     Beginner:
     2:
     :
0000
0000
0000
0000
,
0000
0000
0000
0000
,
0000
0000
0000
0000
,
0000
0000
0000
0000
,
0000
0000
0000
0000
,
1000
0000
1000
0000
,
0001
0000
0001
0000
,
0100
0000
0100
0000
,
0010
0000
0010
0000
,
0001
0000
0000
0000
,
1000
0000
0000
0000
,
0010
0000
0010
0000
,
0010
0000
0010
0000
,
0100
0000
0100
0000
,
0100
0000
0100
0000
,
0010
0000
0001
0000
,
0010
0000
0001
0000
,
0100
0000
1000
0000
,
0100
0000
1000
0000
,
0100
0000
0100
0000
,
0100
0000
0010
0000
,
1000
0000
0001
0000
,
0001
0000
1000
0000
,
0010
0000
0010
0000
,
0010
0000
0100
0000
,
0001
0000
1000
0000
,
1000
0000
1001
0000
,
0100
0000
0100
0000
,
0100
0000
0010
0000
,
0010
0000
0010
0000
,
0010
0000
0100
0000
,
1000
0000
1000
0000
,
0001
0000
0001
0000
,
0100
0000
0010
0000
,
0100
0000
0010
0000
,
0001
0000
1000
0000
,
1000
0000
0001
0000
,
0001
0000
1000
0000
,
1000
0000
0001
0000
,
0001
0000
0001
0000
,
1000
0000
1000
0000
,
0100
0000
0100
0000
,
0010
0000
0010
0000
,
1000
0000
1000
0000
,
0001
0000
0001
0000
,
0010
0000
0100
0000
,
0010
0000
0100
0000
,
0001
0000
0001
0000
,
1000
0000
1000
0000
,
0010
0000
0010
0000
,
0100
0000
0100
0000
,
1000
0000
1000
0000
,
0001
0000
0001
0000
,
0100
0000
0010
0000
,
0100
0000
0010
0000
,
0001
0000
1000
0000
,
1001
0000
0000
0000
,
0000
0000
0000
0000
;

//---------------dance-single - ----------------
#NOTES:
     dance-single:
     :
     Easy:
     4:
     :
0000
0000
0000
0000
,
0000
0000
0000
0000
,
0000
0000
0000
0000
,
0000
0000
0000
0000
,
0000
0000
0000
0000
,
1000
0000
1000
1001
,
0001
0000
0001
1001
,
0100
0000
0100
0110
,
0010
0000
0010
0110
,
0002
0000
0000
0003
,
2000
0000
0000
3000
,
0010
0001
0010
0000
,
0010
1000
0010
0000
,
0100
0001
0100
0000
,
0100
1000
0100
0000
,
0010
0000
0001
0000
,
0010
0000
0001
0000
,
0100
0100
0010
0010
,
1000
0000
0001
0000
,
0100
0000
0100
0000
,
0100
0000
0010
0000
,
1000
0000
0001
0000
,
0001
0000
1000
0000
,
0010
0000
0010
0000
,
0010
0000
0100
0000
,
0001
1000
0000
0001
,
1000
0000
1001
0000
,
0100
0000
0100
0000
,
0100
0000
0010
0110
,
0010
0000
0010
0000
,
0010
0000
0100
0110
,
1000
0100
1000
0000
,
0001
0010
0001
0000
,
0100
0000
0010
0000
,
0100
0000
0010
0110
,
0002
0000
1000
0003
,
2000
0000
0001
3000
,
0002
0000
1000
0003
,
2000
0000
0001
3000
,
0001
0000
0001
1000
,
1000
0000
1000
0001
,
0100
0000
0100
0010
,
0010
0000
0010
0100
,
1000
0100
1000
0000
,
0001
0100
0001
0000
,
0010
0000
0100
0000
,
0010
0000
0100
0010
,
0001
0000
0001
1000
,
1000
0000
1000
0001
,
0010
0000
0010
0100
,
0100
0000
0100
0010
,
1000
0010
1000
0000
,
0001
0010
0001
0000
,
0100
0000
0010
0000
,
0100
0000
0010
0100
,
0001
0001
1000
1000
,
1001
0000
0000
0000
,
0000
0000
0000
0000
;

//---------------dance-single - ----------------
#NOTES:
     dance-single:
     :
     Medium:
     6:
     :
0000
0000
0000
0000
,
0000
0000
0000
0000
,
0000
0000
0000
0000
,
0000
0000
0000
0000
,
0000
0000
0000
0000
,
1000
0000
0100
0000
0010
0001
0010
0000
,
0001
0010
0100
1100
,
0001
0000
0100
0000
0010
1000
0010
0000
,
1000
0010
0100
0101
,
0020
0000
0000
0030
,
2000
3000
0002
0003
,
0100
1000
0100
1010
,
0100
0001
0100
0011
,
1000
0100
1000
0011
,
0001
0100
0001
1010
,
1000
0000
1000
0000
0001
0100
0001
0000
,
0001
0000
0001
0000
1000
0100
1000
0000
,
0100
0100
0010
0010
,
0001
1000
0001
0000
1000
0001
1000
0000
,
0100
0000
1001
0000
0010
1000
0010
0000
,
0100
0000
0100
0000
0001
0100
0001
0000
,
1000
0000
0100
0000
0010
0001
0010
0000
,
0001
0100
0010
1000
,
0100
0000
1001
0000
0010
0001
0010
0000
,
0100
0000
0100
0000
1000
0100
1000
0000
,
0010
0010
0100
0100
,
0210
0000
0010
0310
,
1000
0100
1000
0000
0001
0000
0001
0000
,
0100
0100
0010
0010
,
0001
0100
0001
0000
1000
0000
1000
0000
,
0100
0100
0010
1001
,
0010
1000
0010
0000
1000
0010
1000
0000
,
0001
0100
0010
1001
,
1000
0100
0001
0010
,
0001
0100
1000
0110
,
0002
0000
0100
0103
,
2000
0000
0100
3100
,
0002
0103
2000
3100
,
0001
0010
1000
0110
,
1000
0100
1000
0000
0001
0000
0010
0000
,
0100
0100
0010
0010
,
0001
0100
0001
0000
1000
0000
0010
0000
,
0100
0100
0010
1001
,
0010
1000
0010
0000
1000
0010
1000
0000
,
0001
0100
0001
0000
0100
0000
1001
0000
,
0010
0010
1000
1000
,
0001
0001
0100
0110
,
1000
0010
1000
0000
0001
0000
0100
0000
,
0010
0010
0100
0100
,
0001
0010
0001
0000
1000
0000
0100
0000
,
0010
0010
0100
1001
,
0100
1000
0100
0000
1000
0100
1000
0000
,
0001
0010
0001
0000
0010
0000
1001
0000
,
0100
0100
1000
1000
,
0001
0001
0010
0110
,
0000
1000
0000
0100
0000
0010
0000
0001
,
2002
0000
0000
3003
,
0000
0000
0000
0000
;

//---------------dance-single - ----------------
#NOTES:
     dance-single:
     :
     Hard:
     9:
     :
0000
0000
0000
0000
,
0000
0000
0000
0000
,
0000
0000
0000
0000
,
0000
0000
0000
0000
,
0000
0000
0000
0000
,
0100
1000
0100
0001
0000
0010
0001
0000
,
1000
0100
1000
0000
0101
0000
1001
0000
,
0100
0001
0100
1000
0000
0010
1000
0000
,
0001
0000
0100
0000
0001
1000
0000
0000
0100
0000
0100
0000
0010
0000
0010
0000
,
0002
0000
0000
0000
,
2003
0000
3200
0301
,
1000
0000
0100
0000
1000
0000
0000
0000
0001
0000
0000
0001
0000
0000
0001
0000
,
1000
0000
0100
0000
1000
0000
0000
0000
0010
0000
0000
0010
0000
0000
0010
0000
,
0100
0000
0001
0100
0001
0000
0010
1000
,
0010
0000
0001
0100
0001
0010
0001
0000
,
1000
0000
1100
0000
0010
0001
0010
0000
,
0001
0000
0100
0010
1000
0100
0010
0000
,
0001
0000
0101
0000
0010
1000
0100
1000
,
0001
0000
0000
0011
0000
0000
0011
0000
1000
0000
0000
1100
0000
0000
1100
0000
,
0010
0000
0001
0100
1000
0000
1000
0100
,
0001
0000
0001
0010
0100
0000
1000
0100
,
0001
0000
1000
1000
0000
0100
0010
0000
,
0001
0100
0001
0000
1000
0100
0010
0001
,
0100
0000
0001
0010
0100
0000
1000
0001
,
0010
0000
0001
1000
0010
0000
0100
0001
,
0010
0000
0000
0001
0000
0000
0001
0000
1000
0000
0000
0100
0000
0000
0100
0000
,
0010
0000
1100
0011
,
1000
0100
1000
0010
0000
0001
0000
0001
,
0000
0100
0100
0000
0101
0000
1001
0000
,
0100
1000
0100
0001
0000
1000
0000
1000
,
0000
0010
0010
0000
1010
0000
1001
0000
,
0001
0100
0001
0010
0000
1000
0010
1000
,
0000
0100
0100
0000
1100
0000
1001
0001
,
0010
0100
0010
0001
0000
0001
0100
0010
,
0000
1000
1000
0000
0011
0000
1001
0000
,
1010
0000
0000
0001
0000
0000
0001
0000
0000
0000
0010
0000
0000
0010
0000
0000
,
0011
0000
0000
1000
0000
0000
1000
0000
0000
0000
0010
0000
0000
0010
0000
0000
,
1010
0000
0000
0100
0000
0000
0100
0000
0011
0000
0000
0100
0000
0000
0100
0000
,
1010
0000
0000
0100
0000
0000
0100
0000
0000
0000
0110
0000
0000
1001
0000
0000
,
0010
0001
0010
1000
0000
0001
0000
0001
,
0000
0100
0100
0000
0101
0000
1001
0000
,
0010
1000
0010
0001
0000
1000
0000
1000
,
0000
0001
0001
0000
0011
0000
1001
0000
,
1000
0100
0001
0100
1000
0001
0000
0001
,
0000
0100
0100
0010
1000
0000
1001
0000
,
0100
0010
0000
1000
0100
1000
0000
0001
,
0100
0000
0010
0000
0000
0010
0000
0000
1000
0000
0000
0001
0000
0000
0001
0000
,
1000
0100
0010
0100
0000
0001
0100
1000
,
0000
0100
0100
0010
1100
0000
1001
0000
,
0001
0100
0010
0100
0001
0001
1000
1000
,
0000
0010
0010
0100
0100
0000
0101
0000
,
1000
0000
0100
0000
1000
0000
0000
0001
0000
0000
0001
0000
1000
0000
1000
0000
,
0000
0010
0100
0010
1000
0000
0110
0000
,
0010
0001
0010
0100
0000
1000
0100
1000
,
0000
0001
0100
0000
0010
1000
0010
0001
,
0010
1000
0000
1000
0000
0001
0000
0001
,
0220
0000
0000
0330
,
0000
0000
0000
0000
;

//---------------dance-single - ----------------
#NOTES:
     dance-single:
     :
     Challenge:
     13:
     :
0000
0000
0000
0000
,
0000
0000
0000
0000
,
0000
0000
0000
0000
,
0000
0000
0000
0000
,
0000
0000
0000
0000
,
1000
0010
0001
0100
0010
1000
0100
0001
,
0010
0001
0100
0010
1000
0001
0100
1000
,
0010
1000
0100
0010
0001
0100
0002
0000
,
0013
0000
0001
0000
1000
0010
0000
0010
0100
0000
0001
1000
0001
0000
0100
0000
,
0010
0000
1000
0000
0100
0000
0020
0000
0000
0000
0001
0000
0000
0001
0000
0000
,
0032
0000
0100
0000
0000
0100
0000
0000
1003
0000
0010
0000
1000
0000
0001
0000
,
0010
0000
1000
0000
0100
0000
0010
0001
0010
0000
0000
0001
0000
0000
0100
0000
,
0010
1000
0001
1000
0100
0001
0100
0010
,
0100
0000
1000
0000
0001
0000
0100
0010
0100
0000
0001
0000
0010
0000
0100
0000
,
1000
0000
0010
0000
0100
0001
0000
0100
0010
0000
1000
0000
0001
0000
1000
0000
,
0100
0000
0010
0000
0001
0000
0100
0010
0100
0000
0000
0001
0000
0000
1000
0000
,
0010
0000
1000
0000
0100
0000
1000
0010
1000
0000
0001
0000
0010
0000
0100
0000
,
0001
0000
0100
0000
1000
0000
0010
0100
0010
0000
1000
0000
0001
0000
0100
0000
,
0020
0000
0000
2030
0000
0000
3001
0000
2000
0000
0000
3020
0000
0000
0130
0000
,
0001
0000
0010
0000
0001
0000
0100
0000
0010
0000
1000
0100
1000
0000
0010
0000
,
0100
0000
0001
0000
0100
0000
0010
0000
1000
0000
0100
0000
1000
0001
1000
0000
,
0010
0000
0001
0000
0010
0000
0100
0000
0001
0000
1000
0000
0100
0010
0100
0000
,
1000
0010
1000
0001
0010
0100
0001
0100
,
0010
0000
0100
0000
1000
0000
0001
0100
0001
0000
0010
0000
0001
0000
1000
0100
,
1000
0000
0010
0000
1000
0000
0001
0000
0010
0000
0100
0000
0010
0001
0010
0000
,
0100
1000
0000
1000
0001
0000
0100
0000
0010
0000
0100
0001
0000
0001
1000
0000
,
2010
0000
0000
0001
0000
0000
0100
0000
3100
0000
0000
0000
1000
0000
0001
0000
,
1001
0010
0100
0001
0010
0100
1000
0002
,
0000
0000
0100
0000
0200
0000
0000
0000
0000
0000
0000
0000
0303
0000
1000
0001
,
1000
0100
0010
0001
0100
0001
1000
0010
,
0100
0000
0001
0000
0010
0000
0001
0000
1000
0000
0100
0000
0010
0000
0001
1000
,
0001
0010
1000
0010
0100
0010
1000
0010
,
0001
0000
0100
0000
1000
0000
0100
0000
0010
0000
1000
0000
1000
0000
0001
0100
,
0001
0010
0001
1000
0100
0010
0001
1000
,
0010
0000
1000
0000
0100
0000
0010
0000
0001
0000
1000
0000
0100
0010
0100
0000
,
2100
0000
0000
0001
0000
0000
0100
0000
0100
0000
0000
0001
0000
0000
0010
0000
,
3020
0000
0000
1000
0000
0000
0100
0000
0130
0000
0010
0000
1000
0000
0001
0000
,
0010
0001
0010
0100
1000
0010
1000
0001
,
0100
0000
0010
0000
0100
0000
0001
0000
1000
0000
0002
0000
0000
0023
0000
0000
,
0130
0010
0001
0100
0010
1000
0001
2000
,
0000
0000
0100
0000
0200
0000
0000
0000
3000
0000
0000
0000
0310
0001
0010
0000
,
0001
0000
0100
0000
0010
0000
1000
0100
1000
0000
0001
0000
1000
0000
0020
0000
,
0000
0100
0230
0000
0301
0000
0110
0001
,
1000
0010
1000
0100
0001
0100
0010
0001
,
0100
0000
0010
0000
1000
0000
0010
0000
0100
0000
0001
1000
0001
0000
0010
0000
,
0100
0000
1000
0000
0010
0000
1000
0001
1000
0000
0100
0000
0010
0000
0001
0000
,
0100
0000
0010
0000
0100
0000
0001
0000
0010
0000
0100
1000
0000
0100
1000
0000
,
0001
0100
0010
0001
0010
1000
0100
0010
,
0001
0000
0100
0000
0010
1000
0000
0010
0100
0000
0001
1000
0000
0001
0100
0000
,
0010
0000
1000
0000
0001
0000
0010
0001
0100
0000
0010
0000
1000
0000
0001
0000
,
1000
0000
0100
0000
0010
0100
0000
0010
0001
0000
1000
0000
0100
1000
0100
1000
,
0010
0100
0001
0010
1000
0001
1000
0100
,
0010
0000
0001
0000
1000
0010
0100
0000
0001
0000
0010
0000
0001
0000
1000
0000
,
0100
0100
0010
0001
1000
0010
1000
0001
,
0100
0000
0010
0000
1000
0001
1000
0000
0011
0000
0000
0000
0101
0000
0000
0000
,
0010
1000
0010
0001
0010
1000
0010
0110
,
2002
0000
0000
0000
,
0003
0000
0000
0000
,
3000
0000
0000
0000
;

//---------------dance-double - ----------------
#NOTES:
     dance-double:
     :
     Easy:
     4:
     :
00000000
00000000
00000000
00000000
,
00000000
00000000
00000000
00000000
,
00000000
00000000
00000000
00000000
,
00000000
00000000
00000000
00000000
,
00000000
00000000
00000000
00000000
,
00100000
00000000
10000000
00000000
,
00100000
00000000
00010000
00001000
,
00000010
00000000
00000001
00000000
,
00000010
00000000
00001000
00010000
,
00002000
00000000
00000000
00003000
,
00020000
00030000
00001000
00001000
,
00010000
00000000
00100000
00000000
,
01000000
00000000
00100000
00000000
,
10000000
00000000
01000000
00000000
,
00010000
00000000
00001000
00000000
,
00000100
00000000
00000010
00000000
,
00000100
00000000
00000001
00000000
,
00000010
00000000
00001000
00000000
,
00010000
00000000
00011000
00000000
,
00010000
01000000
00010000
00000000
,
00001000
00000000
00001000
00000000
,
00001000
00000100
00001000
00000000
,
00010000
00000000
00010000
00000000
,
00001000
00000000
00000010
00000000
,
00000001
00000000
00000010
00000000
,
00001000
00001000
00000000
00010000
,
00010000
00000000
00011000
00000000
,
00010000
00100000
00010000
00100000
,
10000000
00000000
01000000
00010000
,
00001000
00000010
00001000
00000010
,
00000001
00000000
00000100
00001000
,
00010000
00000000
01000000
00000000
,
10000000
00000000
01000000
00000000
,
00010000
00000000
00001000
00000000
,
00000100
00000000
00001000
00000000
,
00020000
00000000
00001000
00030000
,
00020000
00000000
00000100
00030000
,
00020000
00000000
00000010
00030000
,
00020000
00000000
00001000
00031000
,
00010000
00100000
00000000
00100000
,
10000000
01000000
00000000
00100000
,
00010000
00001000
00000000
00000100
,
00000001
00000000
00000100
00000010
,
00001000
00000010
00000000
00000010
,
00000001
00000100
00000000
00000010
,
00001000
00010000
00000000
01000000
,
10000000
00000000
01000000
00100000
,
00010000
01000000
00000000
01000000
,
10000000
00100000
00000000
01000000
,
00010000
00001000
00000000
00000010
,
00000001
00000000
00000010
00000100
,
00001000
00000100
00000000
00000100
,
00000001
00000010
00000000
00000100
,
00001000
00010000
00000000
00100000
,
10000000
00000000
00100000
01000000
,
00001000
00000000
00010000
00000000
,
00022000
00000000
00000000
00033000
,
00000000
00000000
00000000
00000000
;

//---------------dance-double - ----------------
#NOTES:
     dance-double:
     :
     Medium:
     6:
     :
00000000
00000000
00000000
00000000
,
00000000
00000000
00000000
00000000
,
00000000
00000000
00000000
00000000
,
00000000
00000000
00000000
00000000
,
00000000
00000000
00000000
00000000
,
00100000
00000000
10000000
00000000
01000000
00010000
00001000
00000000
,
00010000
00000000
00100000
00000000
10000000
00100000
00010000
00000000
,
00001000
00000000
00000010
00000000
00001000
00010000
00001000
00000000
,
00001000
00000010
00000001
00001001
,
00000200
00000000
00000000
00000300
,
00020000
00030000
00002000
00003000
,
00010000
00000000
00100000
00000000
10000000
00100000
10000000
00000000
,
00100000
00010000
00001000
00010000
,
00001000
00000000
00000010
00000000
00000001
00000010
00000001
00000000
,
00000010
00001000
00010000
00001000
,
00010000
01000000
10000000
00100000
,
00010000
00000000
00001000
00000000
00000100
00000010
00001000
00000000
,
00000100
00000001
00000010
00001000
,
00010000
00000000
00100000
00000000
00010000
00001000
00010000
00000000
,
00001000
00000010
00001000
00000000
00000010
00000000
00000001
00000000
,
00000010
00001000
00000010
00000000
00001000
00000000
00010000
00000000
,
00010000
01000000
00010000
00000000
01000000
00000000
10000000
00000000
,
01000000
00010000
01000000
00000000
00010000
00000000
00001000
00000000
,
00001000
00000010
00001000
00000000
00010000
00000000
01000000
00000000
,
00010000
00001000
00000010
00000001
,
00000100
00000101
00000010
00010010
,
00001000
00000000
00011000
00010000
,
00001000
00000010
00001000
00010000
,
01000000
00000000
00010000
00000000
00001000
00000010
00001000
00000000
,
00000010
00000011
00000001
00000100
,
00001000
00011000
00010000
00011000
,
00010000
01000000
00010000
00001000
,
00000010
00000000
00001000
00000000
00010000
01000000
00010000
00000000
,
01000000
11000000
10000000
00100000
,
00010000
00011000
00001000
00011000
,
00002000
00000000
00000010
00003010
,
00000020
00000000
00000001
00000031
,
00000002
00000103
00000200
00001300
,
00002000
00013000
00001000
00011000
,
00010000
00100000
00010000
00000000
00100000
00000000
10000000
00000000
,
01000000
10000000
00100000
00010000
,
00001000
00000010
00001000
00000000
00000010
00000000
00000001
00000000
,
00000100
00000001
00000010
00001000
,
00010000
00110000
00100000
10100000
,
10000000
11000000
01000000
01010000
,
00010000
00001000
00000100
00000001
,
00000100
00001000
00010000
00011000
,
00001000
00000100
00001000
00000000
00000100
00000000
00000001
00000000
,
00000010
00000001
00000100
00001000
,
00010000
01000000
00010000
00000000
01000000
00000000
10000000
00000000
,
00100000
10000000
01000000
00010000
,
00001000
00001100
00000100
00000101
,
00000001
00000011
00000010
00001010
,
00001000
00010000
00100000
10000000
,
00100000
00010000
00001000
00000100
,
00000001
00000100
00001000
00010000
,
00022000
00000000
00000000
00033000
,
00000000
00000000
00000000
00000000
;

//---------------dance-double - ----------------
#NOTES:
     dance-double:
     :
     Hard:
     11:
     :
00000000
00000000
00000000
00000000
,
00000000
00000000
00000000
00000000
,
00000000
00000000
00000000
00000000
,
00000000
00000000
00000000
00000000
,
00000000
00000000
00000000
00000000
,
00100000
10000000
01000000
10000000
00000000
00010000
00100000
00000000
,
10000000
01000000
00010000
00000000
00001000
00000000
00000100
00000000
,
00000001
00000010
00000001
00000100
00000000
00000010
00001000
00000000
,
00000001
00000000
00000100
00000000
00000000
00001000
00000000
00000000
00010000
00000000
00001000
00000000
00000100
00000000
00001000
00000000
,
00020000
00000000
00000000
00000000
,
02030000
00000000
23000000
30000000
,
01000000
00000000
10000000
00000000
01000000
00000000
00000000
00000000
00100000
00000000
00000000
00010000
00000000
00000000
01000000
00000000
,
00100000
00000000
10000000
00000000
01000000
00000000
00000000
00000000
00010000
00000000
00000000
00001000
00000000
00000000
00000010
00000000
,
00000100
00000000
00000010
00000001
00000100
00000000
00000001
00000100
,
00001000
00000000
00000010
00001000
00000010
00000100
00001000
00000000
,
00010000
00000000
01000000
00000000
00010000
10000000
01000000
00000000
,
10000000
00000000
00010000
00100000
00010000
01000000
00010000
00000000
,
10000000
00000000
00010000
00000000
00001000
00010000
00001000
00000010
,
00000100
00000000
00000000
00000001
00000000
00000000
00000100
00000000
00000001
00000000
00000000
00001000
00000000
00000000
00000001
00000000
,
00000100
00000000
00000001
00000100
00001000
00000000
00010000
01000000
,
00100000
00000000
00010000
10000000
00010000
00000000
10000000
00100000
,
01000000
00000000
00010000
00100000
00000000
01000000
10000000
00000000
,
00100000
10000000
01000000
00000000
00100000
00010000
00100000
00001000
,
00010000
00000000
00000010
00001000
00000010
00000000
00000100
00000001
,
00000100
00000000
00000010
00000100
00000001
00000000
00000100
00000000
,
00001000
00000000
00000000
00010000
00000000
00000000
00100000
00000000
10000000
00000000
00000000
00010000
00000000
00000000
01000000
00000000
,
20000000
00000000
00000000
00000000
31000000
00000000
01000000
00010000
,
10000000
01000000
10000000
01000000
00000000
10000000
00000000
00010000
,
00000000
10000000
01000000
00000000
00010000
00000000
00011000
00000000
,
00000100
00001000
00000100
00001000
00000000
00000001
00000000
00001000
,
00000000
00000001
00000100
00000000
00001000
00000000
00011000
00000000
,
00100000
00010000
10000000
01000000
00000000
10000000
00000000
11000000
,
00000000
10000000
00010000
00000000
10000000
00000000
10100000
00000000
,
10000000
01000000
00010000
01000000
00000000
00010000
00001000
00000010
,
00000000
00000001
00001000
00000000
00000100
00000000
00001100
00000000
,
00000010
00000000
00000000
00000001
00000000
00000000
00000100
00000000
00000000
00000000
00001000
00000000
00000000
00010000
00000000
00000000
,
00100000
00000000
00000000
10000000
00000000
00000000
01000000
00000000
00000000
00000000
00010000
00000000
00000000
00001000
00000000
00000000
,
00000010
00000000
00000000
00000001
00000000
00000000
00000100
00000000
00000010
00000000
00000000
00001000
00000000
00000000
00000100
00000000
,
00000001
00000000
00000000
00000100
00000000
00000000
00001000
00000000
00000000
00000000
00000010
00000000
00000000
00010010
00000000
00000000
,
00001000
00010000
00001000
00010000
00000000
01000000
00000000
10000000
,
00000000
00010000
00100000
00000000
01000000
00000000
01100000
00000000
,
00010000
00001000
00010000
00001000
00000000
00000100
00000000
00000001
,
00000000
00001000
00000010
00000000
00001000
00000000
00001100
00000000
,
00010000
00000100
00010000
00000010
00010000
00001000
00000000
01000000
,
00000000
00100000
10000000
00100000
01000000
00000000
00010000
10000000
,
00010000
10000000
00000000
00010000
10000000
01000000
00000000
00010000
,
00001000
00000000
00010000
00000000
00000000
01000000
00000000
00000000
00010000
00000000
00000000
00001000
00000000
00000000
00000100
00000000
,
00000001
00000100
00000001
00000100
00000000
00000010
00000100
00000010
,
00000000
00000100
00000001
00000100
00001000
00000000
00010000
01000000
,
10000000
00000000
00010000
00100000
00010000
10000000
01000000
10000000
,
00000000
01000000
10000000
01000000
00010000
00000000
00001000
00000100
,
00000010
00000000
00000100
00000000
00000010
00000000
00000000
00001000
00000000
00000000
00000001
00000000
00000100
00000000
00001000
00000000
,
00000000
00010000
00100000
01000000
00010000
00000000
10000000
00100000
,
10000000
01000000
00100000
00010000
00000000
10000000
01000000
10000000
,
00000000
10000000
00010000
00000000
10000000
01000000
00010000
00001000
,
00010000
00001000
00000000
00000100
00000000
00000001
00000000
00001000
,
00000000
00000000
00000000
00000000
;
