#TITLE:BLACK ROSES;
#ARTIST:Mutsuhiko Izumi;
#BANNER:BLACK ROSES-bn.png;
#BACKGROUND:BLACK ROSES-bg.png;
#JACKET:BLACK ROSES-jacket.png;
#MUSIC:BLACK ROSES.ogg;
#OFFSET:-0.075;
#SAMPLESTART:31.265;
#SAMPLELENGTH:20;
#DISPLAYBPM:200;
#BPMS:0=200;
#BGCHANGES:;

//---------------dance-single - ----------------
#NOTES:
     dance-single:
     :
     Beginner:
     6:
     :
0000
0000
0000
0000
,
0000
0000
0000
0000
,
0000
0000
0000
0000
,
0000
0000
0000
0000
,
0002
0000
0003
0000
,
2000
0000
3000
0000
,
0020
0000
0030
0100
,
0200
0000
0000
0300
,
0000
0001
0001
0001
,
0001
0001
0001
0000
,
0010
0000
0000
0001
,
0001
0000
1000
0000
,
0100
0000
1000
1000
,
0000
0000
0001
0000
,
0100
0000
0100
0000
,
0001
0000
1000
0000
,
0010
0000
1000
0000
,
0001
0001
0000
1000
,
2000
0000
3000
0010
,
0010
0000
0100
0000
,
0002
0000
0003
1000
,
1000
0000
0001
0000
,
0010
0000
0010
0000
,
0001
0000
1000
0000
,
0020
0000
0000
0030
,
1000
0001
0000
0000
,
1000
0100
1000
0100
,
2000
0000
3000
0001
,
1000
0000
0001
0000
,
0010
0000
0010
0000
,
0001
0100
0001
0100
,
0002
0000
0003
1000
,
1000
0000
0010
0000
,
0100
0000
0001
0000
,
0020
0000
0000
0000
,
0000
0000
0000
0030
,
0001
0001
0000
1000
,
0010
0000
0100
0000
,
0001
0001
0000
0010
,
0100
0000
1000
0000
,
0010
0010
0000
0000
,
0110
0000
1001
0000
,
0001
0000
1000
0010
,
1000
0100
0010
0001
,
0100
0010
0100
0010
,
2000
0000
3000
0000
,
0001
0001
1000
0002
,
0003
0010
0001
0000
,
0100
0000
0010
0000
,
1000
1000
0000
0100
,
0010
0000
0001
0000
,
0100
0000
1000
0000
,
0010
0000
1000
0000
,
0100
0000
0001
0000
,
0010
0010
0100
0100
,
1000
0001
1000
0001
,
1000
0010
0100
0001
,
0010
0010
0010
0000
,
0002
0000
0003
0000
,
1000
0000
0010
0000
,
0200
0000
0300
0000
,
0010
0000
1000
0000
,
0110
0000
0110
0000
,
1001
0000
1001
0000
,
0001
0000
0010
0001
,
1000
1000
0000
0010
,
2000
0000
3000
0001
,
1000
0000
0100
0000
,
0020
0000
0030
0001
,
0100
0000
0010
0000
,
0110
0000
0110
0000
,
1001
0000
1001
0000
,
0020
0000
0000
0030
,
1000
0001
0000
0000
,
0010
0001
0010
0001
,
0020
0000
0030
0100
,
0010
0000
0001
0000
,
1000
0000
0100
0000
,
1000
0010
1000
0010
,
2000
0000
3000
0001
,
1000
0000
0100
0000
,
0010
0000
0001
0000
,
0200
0000
0000
0000
,
0000
0000
0000
0300
,
0010
0010
0000
1000
,
0001
0000
0010
0000
,
0001
0100
0000
0010
,
0010
0000
1000
0000
,
0100
0010
0000
0100
,
1000
0000
0001
0000
,
1000
0010
0001
0100
,
2000
0000
0000
3000
,
0002
0000
0003
0100
,
0010
0000
1000
0000
;

//---------------dance-single - ----------------
#NOTES:
     dance-single:
     :
     Easy:
     9:
     :
0000
0000
0000
0000
,
0000
0000
0000
0000
,
0000
0000
0000
0000
,
0000
0000
0000
0000
,
0002
0100
0100
0103
,
2000
0100
0100
3100
,
0020
0000
0000
0000
0030
1000
0001
1000
,
0002
0100
0010
1003
,
0000
1000
0001
0000
0010
0000
0001
1000
,
0100
0011
1010
0000
,
0002
0000
0000
0000
0000
0013
0001
1000
,
0200
0000
0000
0320
0000
0000
0000
0000
,
0032
0000
0000
0000
0000
1003
0001
1000
,
0200
0000
0300
1000
0002
0000
0003
0000
,
0200
0000
0000
0320
0000
0000
2030
0000
,
3002
0000
0000
2003
0000
0000
3200
0000
,
0310
0001
0000
0100
0000
0001
1000
0001
,
1000
0000
0000
0101
0000
0000
0001
1000
,
0200
0000
0000
0000
0000
0310
0001
1000
,
0002
0000
0003
0010
0200
0000
0300
1000
,
0020
0000
0000
0000
0000
0130
0001
1000
,
0002
0000
0003
1000
0020
0000
0030
0100
,
0020
0000
0000
2030
0000
0000
3002
0000
,
0023
0000
0000
0032
0000
0000
0203
0000
,
0302
0023
0230
2300
,
3020
0000
0130
0010
0200
0000
0300
0000
,
0000
1000
0000
0010
0000
0100
0000
0001
,
0000
0010
0000
0001
0000
0100
0000
1000
,
0000
0001
0000
0010
0000
0001
0000
1000
,
0000
0100
0000
0010
0001
1000
0001
1000
,
0100
0010
0000
0100
0000
1000
0000
0010
,
0000
0100
0000
0001
0000
0010
0000
0001
,
0000
0010
0000
1000
0000
0100
0000
0001
,
0000
1000
0000
0010
0100
0001
0100
0001
,
1000
0000
0100
0000
0000
1000
0000
0001
,
0010
0000
0000
0001
0000
0000
0100
0000
,
1100
0000
1000
0000
0000
0010
0000
0001
,
1000
0000
0000
0100
0000
0000
0010
0000
,
0110
0000
0001
0000
0000
1000
0000
0100
,
0010
0000
0000
0001
0000
0000
0100
0000
,
1001
0000
0010
0000
0000
0100
0000
0000
,
1000
1000
0001
0001
,
0100
0000
0010
0000
1000
0001
1000
0000
,
0100
0000
0010
0000
0001
0100
1000
0000
,
0010
0000
1000
0000
0001
0000
0010
0001
,
0200
0000
0000
0000
0000
0320
0000
1030
,
0001
1000
0010
0000
0100
0000
0001
2000
,
0000
0000
3200
0000
0000
0310
0100
1000
,
0001
0000
1000
0001
0000
0100
0010
1000
,
0002
0000
0000
2003
0000
3010
0000
0100
,
0002
0000
0000
0000
0013
0100
0010
0100
,
0020
0000
0000
0000
0130
1000
0100
1000
,
0200
0000
0000
0000
1300
0001
1000
0001
,
2000
0000
0000
0000
0000
3001
1000
0001
,
0020
0032
0203
2300
,
3020
0032
0203
2300
,
3020
0000
0032
0000
0103
0010
0100
0010
,
1000
1100
0011
0000
,
0001
0001
0001
0001
,
1000
1000
1000
1000
,
0010
0010
0010
0010
,
0100
0100
0100
0100
,
0002
0000
0000
0023
0000
0000
0230
0000
,
2300
0000
0000
3020
0000
0000
0230
0000
,
0301
1000
0000
0100
0000
0010
0001
0010
,
0001
0000
0000
1001
0000
0000
0010
1000
,
0100
0000
0100
0000
0100
0000
0100
0010
,
0002
0000
0003
1000
0002
0000
0003
0100
,
0010
0000
0010
0000
0010
0000
0010
1000
,
0200
0000
0300
1000
0002
0000
0003
0100
,
0020
0000
0000
2030
0000
0000
3002
0000
,
0023
0000
0000
0032
0000
0000
0203
0000
,
0302
0023
0230
2300
,
3020
0000
0130
0010
0200
0000
0300
0000
,
0000
0001
0000
0010
0000
0001
0000
0100
,
0000
0010
0000
1000
0000
0100
0000
1000
,
0020
0000
0030
1000
0200
0000
0300
0010
,
0002
0000
0003
0000
1000
0001
0100
0010
,
0000
1000
0000
0100
0000
0010
0000
0001
,
0000
0100
0000
0010
0000
1000
0000
0001
,
2000
3100
0120
0031
,
0201
0310
1020
1030
,
0001
0000
1000
0000
0000
0010
0000
1000
,
0001
0000
0000
0010
0000
0000
0100
0000
,
1000
0000
0010
0000
0000
0100
0000
0001
,
0010
0000
0000
0001
0000
0000
1000
0000
,
0100
0000
0010
0000
0000
0001
0000
1000
,
0001
0000
0000
1000
0000
0000
0100
0000
,
0010
0000
0001
0000
0000
0100
0000
0010
,
1000
0000
0000
0001
0000
0000
1000
0000
,
0010
0000
0100
0001
0000
1000
0001
0200
,
0000
0000
0010
0310
,
1000
0000
0000
0001
0000
1000
0100
0010
,
0002
0000
0000
2000
0000
0000
3003
0000
;

//---------------dance-single - ----------------
#NOTES:
     dance-single:
     :
     Medium:
     13:
     :
0000
0000
0000
0000
,
0000
0000
0000
0000
,
0000
0000
0000
0000
,
0000
0000
0000
0000
,
0001
0000
0001
0000
0001
0010
0100
0010
,
1000
0000
1000
0000
1000
0100
0010
0100
,
0001
0000
0001
0000
0001
0010
0100
0010
,
0001
0100
0001
0100
0001
0100
0001
0100
,
0000
0010
1000
0010
1000
0100
0010
0001
,
0100
0011
1010
0000
,
0002
0000
1000
0000
1003
0010
1000
0001
,
0200
0000
0310
1000
0100
0010
0001
0000
,
2000
0000
0010
0000
3010
0100
0001
1000
,
0200
0000
0310
0001
2000
0000
3010
0100
,
0020
0000
1030
0002
1000
0000
0103
0010
,
1000
0100
1000
0020
0001
0000
0130
0000
,
0010
1000
0000
1100
0000
0001
1000
0100
,
0010
0000
0001
1000
0000
0100
0010
0100
,
0002
0000
0010
0000
1003
0001
1000
0100
,
0020
0000
0031
1000
0002
0000
0103
0010
,
2000
0000
0100
0000
3001
1000
0010
0100
,
0002
0000
1003
0010
2000
0000
3100
0010
,
0001
0000
0000
1000
0010
0000
0100
0000
0000
0001
0010
0000
0100
0000
1000
0000
,
0010
0000
0000
0100
0001
0000
1000
0000
0000
0100
1000
0000
0001
0000
0000
0000
,
0010
0001
0100
0001
0010
0100
1000
0010
,
0100
0000
0001
1000
0202
0000
0300
0000
,
1003
0010
1000
0001
0010
0100
1000
0001
,
0100
0010
0000
0010
0000
1000
0100
0001
,
0010
0000
0001
0100
0010
0000
1000
0100
,
0010
0001
0000
0001
1000
0010
1000
0100
,
0010
0001
0100
0001
1000
0100
0010
0100
,
1000
0001
0000
0001
0000
0100
0010
1000
,
0200
0000
0310
0001
2000
0000
3010
1000
,
0200
0000
0310
0100
2000
0000
3010
0001
,
0100
0010
0100
0010
0000
1000
0001
1000
,
0001
0000
0010
0001
0000
1000
0100
0000
,
1000
0010
1000
0010
0000
0100
0001
0100
,
0001
0000
0010
0001
0000
0100
1000
0000
,
0001
0010
0001
0010
0000
0100
1000
0100
,
1000
0000
0010
1000
0000
0100
0001
0000
,
0010
0001
0100
1000
0000
0010
0100
0001
,
1000
0000
0000
0001
0000
0000
0100
0000
0001
0000
0000
1000
0000
0000
0100
0000
,
0010
0001
0000
0100
0010
1000
0010
0100
,
0001
0010
1000
0010
0100
0010
1000
0010
,
0001
0100
0010
0100
1000
0100
0001
0010
,
1000
0000
0001
0000
1000
0000
0001
0000
1000
0000
1001
0000
0000
0000
0010
0100
,
0010
1000
0100
0010
0001
0100
0001
2000
,
0000
3010
0100
0001
0010
1000
0010
0100
,
0010
0001
0100
0010
0000
1000
0100
0001
,
0010
0000
0000
0100
0000
0000
0110
0000
0000
0000
0001
0000
0000
1000
0000
0000
,
2200
0000
0300
0001
3001
1000
0010
0100
,
0202
0000
0300
0000
1003
0010
0100
0001
,
0022
0000
0003
0100
0130
0010
0001
1000
,
2020
0000
3000
0000
0130
0010
1000
0001
,
0010
0001
0000
0000
0010
0100
0000
0000
0010
0001
0000
0000
0010
0100
0000
0000
,
0010
1000
0000
0000
0010
0100
0000
0000
0010
1000
0000
0000
0010
0100
0000
0000
,
1000
1000
0010
0010
0100
0100
0001
0001
,
0010
0000
1001
0000
0110
0000
1000
0100
,
0002
0000
0000
0000
0000
0013
0001
0100
,
2000
0000
0000
0002
0000
0000
3003
0000
,
0200
0000
0000
0000
0000
0301
0010
0100
,
2000
0000
3000
0002
0200
0000
0303
0000
,
0101
0000
0000
1010
0000
0000
1100
0000
,
0011
0000
0000
1001
0000
0000
0110
0000
,
1000
1000
0000
0001
0000
0010
0001
0100
,
1000
0000
0010
0100
0000
0001
1000
0001
,
0020
0000
1000
0000
0130
0010
0001
0100
,
0002
0000
1003
0100
2000
0000
3010
0100
,
0002
0000
1000
0000
0013
0001
1000
0100
,
0020
0000
0031
0100
2000
0000
3001
1000
,
0010
0000
0000
1000
0100
0000
0001
0000
0000
0010
0001
0000
1000
0000
0100
0000
,
1000
0000
0000
0010
1000
0000
0001
0000
0000
0100
0010
0000
1000
0000
0000
0000
,
0001
0100
0010
1000
0100
0010
0001
1000
,
0010
0000
0100
0001
0000
1000
0100
1000
,
0010
0100
1000
0100
0010
0001
0010
1000
,
0200
0000
0000
0000
0000
0310
0001
1000
,
0002
0000
0013
0100
2000
0000
3010
1000
,
0002
0000
0100
0000
1003
0010
1000
0100
,
0010
1000
0010
0001
0010
1000
0010
0100
,
2000
0000
0000
0000
0000
3001
1000
0010
,
0200
0000
0301
0010
2000
0000
3100
0010
,
0002
0000
1003
0001
0020
0000
0130
1000
,
0010
0100
0010
0100
0000
0001
1000
0001
,
1000
0000
0100
0010
0000
0001
1000
0000
,
0010
1000
0010
1000
0000
0100
0001
0100
,
0001
0000
0010
0001
0000
0100
1000
0000
,
0001
0010
0001
0010
0000
0100
1000
0100
,
1000
0000
0010
1000
0000
0100
0001
0000
,
1000
0010
0100
0001
0000
1000
0100
0010
,
0001
0000
0100
0010
0000
1000
0001
0000
,
0010
0001
0010
0100
1000
0010
1000
0002
,
0000
0003
0110
1001
,
1010
0000
1000
0101
0000
0010
0100
0001
,
0011
0000
1000
1100
0000
0000
0000
0000
;

//---------------dance-single - ----------------
#NOTES:
     dance-single:
     :
     Hard:
     17:
     :
0000
0000
0000
0000
,
0000
0000
0000
0000
,
0000
0000
0000
0000
,
0000
0000
0000
0000
,
0001
0000
0000
0001
0010
0000
0000
0001
0100
0000
0010
0000
1000
0000
0001
0000
,
0100
0000
0000
0010
1000
0000
0000
0010
1000
0000
0001
0000
0010
0000
0100
0000
,
1000
0000
0000
0010
1000
0000
0000
0001
0100
0000
0010
0000
0010
0000
0100
0000
,
0001
0010
0001
1000
0100
0010
0001
1000
,
0000
0100
0100
1000
0001
1000
0010
0100
,
0001
0000
0000
0000
0011
0000
0000
0000
1010
0000
0000
0000
0100
1000
0000
0000
,
0001
1000
0000
0000
0010
0000
0000
0000
1000
0000
0100
0000
0010
0000
0001
0000
,
0100
0000
0010
1000
0100
0010
0001
1000
,
0010
0000
0100
0000
0001
1000
0010
0100
,
0010
0000
1000
0100
0001
0000
0010
0100
,
1000
0000
0010
1000
0100
0010
0001
1000
,
0010
0000
0100
0001
0100
0000
0010
0000
1000
0001
1000
0000
0100
0000
0010
0000
,
0001
0000
0001
0000
0000
0000
0101
0000
0000
0000
0010
1000
0010
0000
0100
0000
,
0001
0000
1100
0110
0000
0001
1000
0100
,
0010
0000
0000
0001
0100
0000
0000
0010
1000
0000
0100
0000
1000
0000
0001
0000
,
0200
0000
0000
0000
0310
0000
1000
0100
2000
0000
0000
0000
3001
0000
0010
0001
,
0010
0000
0000
0100
0010
0000
0000
0001
1000
0000
0010
0000
1000
0000
0001
0000
,
0200
0000
0000
0000
0301
0000
0010
0100
0020
0000
0000
0000
0031
1000
0001
1000
,
0001
0000
0100
0010
0100
0000
0001
0000
1000
0010
1000
0000
0001
0100
0001
0000
,
0010
0000
0100
1000
0100
0000
0010
0000
0001
1000
0001
0000
1000
0010
1000
0000
,
0001
0010
0001
0010
0100
1000
0100
1000
0010
0100
0010
0100
0001
1000
0001
1000
,
0100
0000
0000
0000
1001
0000
0010
0000
1000
0100
1000
0000
0001
0100
0001
0000
,
0010
0001
1000
0100
0001
0100
1000
0010
,
0100
0001
0010
1000
0010
0100
1000
0001
,
0100
0000
0010
0000
1000
0100
0010
0100
1000
0000
0001
0000
0100
0001
0010
0001
,
0100
0000
0010
0000
1000
0000
0010
0000
0100
0001
1000
0010
1000
0001
0100
0001
,
1000
0010
0100
1000
0100
0001
0010
0001
,
1000
0100
0001
0100
0010
1000
0010
0001
,
0100
0000
0010
0000
1000
0000
0100
0010
0001
0000
1000
0000
0100
0000
0010
0001
,
0100
0000
0010
0000
1000
0000
0001
1000
0100
0000
0010
0001
0010
0100
1000
0000
,
0010
0010
1000
0001
0000
1000
1000
0100
,
0020
0001
0031
0200
0010
0310
1000
0001
,
1000
1000
0001
0100
0000
0010
0010
1000
,
0100
0000
0010
0001
0010
0000
0100
0000
1000
0010
1000
0000
0100
0000
0010
0001
,
0010
0100
0100
0010
0010
0001
1000
0100
,
1000
0000
0010
0100
0010
0000
1000
0000
0001
0100
0001
0000
0010
0000
0100
1000
,
0100
0000
0010
0001
0100
0000
0010
1000
0100
0000
1000
0001
0010
0001
1000
0000
,
1100
0000
0000
0110
0000
0000
0011
0000
0101
0000
0000
1001
0000
0000
1010
0000
,
0100
0000
1000
0000
0010
0000
0100
0000
1000
0100
0001
0000
0010
0000
0001
1000
,
0010
0000
0100
0001
0100
0000
0010
1000
0010
0100
0001
1000
0100
0010
0001
0000
,
0100
0000
1000
0010
1000
0001
0100
0000
0001
0010
0100
1000
0100
0010
0001
0000
,
0200
0000
0001
0000
0001
0000
1000
0000
1300
0000
0100
0000
0010
1000
0001
0010
,
0100
1000
0100
0010
0001
1000
0001
0000
0100
0010
1000
0001
0010
0000
0200
0000
,
0000
0000
1000
0000
1300
0001
0010
0100
0010
0000
0001
0100
1000
0100
0001
0000
,
0010
0000
0001
1000
0001
0000
1000
0100
1000
0000
0010
0100
0001
0000
0010
0100
,
1000
0001
0000
0001
0000
0001
1000
0000
0000
0000
0010
0000
0100
0010
0000
0100
,
0010
0000
1000
0000
0100
0000
0010
0000
0001
0100
0001
0100
0010
1000
0100
0010
,
0001
0000
0010
0000
0001
0000
0100
0000
1000
0010
1000
0001
1000
0100
0010
0001
,
0100
0000
0010
0000
1000
0001
1000
0000
0010
0100
0010
1000
0100
0010
0001
0100
,
0001
0000
1000
0000
0100
0000
0010
0000
0001
0100
0001
1000
0100
0010
1000
0010
,
0001
0100
0010
0000
1000
0100
0010
0000
0001
0100
0010
0000
1000
0100
0010
0000
,
0001
1000
0010
0000
1000
0001
0100
0000
0001
1000
0010
0000
1000
0001
0100
0000
,
0110
0110
1010
1010
1001
0101
0011
0110
,
1100
0000
0000
0000
0011
0000
0000
0000
1010
0000
0000
0000
1000
0001
1000
0000
,
0200
0000
0010
0000
0310
0001
1000
0001
,
0200
0000
0000
0020
0000
0000
0330
0000
,
2000
0000
0001
0000
3001
0010
0100
1000
,
0020
0000
0030
1000
0002
0000
0003
0000
,
0011
0000
0000
1100
0000
0000
0101
0000
,
1010
0000
0000
0110
0000
0000
1001
0000
,
1100
0000
1100
0000
0000
0000
0101
0000
0000
0000
0001
0010
0100
0000
1000
0000
,
0010
0000
1000
0001
1000
0000
0010
0000
0000
0000
0100
0000
0001
0000
1000
0000
,
0100
0000
0000
0010
0001
0000
0000
1000
0010
0000
0100
0000
0001
0000
1000
0000
,
0100
0000
1000
0010
1000
0000
0100
0010
0001
0000
1000
0100
0001
0000
0010
0001
,
0100
0000
0000
0010
1000
0000
0000
0001
0100
0000
0001
0010
0100
1000
0010
0000
,
0100
0000
0001
0010
0001
0000
1000
0100
0010
0000
0001
1000
0010
0000
1000
0100
,
1000
0000
0010
0100
0001
0000
0010
0000
0100
1000
0001
0000
0010
0001
0010
0100
,
1000
0000
0010
1000
0001
0000
0100
0000
0001
0010
0100
0000
1000
0001
1000
0000
,
0010
1000
0010
1000
0100
0010
0100
0010
0001
0100
0001
0100
0001
1000
0001
1000
,
0010
0000
0000
0000
0110
0000
1001
0000
0000
0000
1000
0100
0000
0010
0001
0000
,
0100
1000
0100
0001
0010
1000
0010
0001
,
0100
0010
0100
1000
0001
0010
0001
1000
,
0100
0000
0010
0000
0001
0000
1000
0100
1000
0000
0001
0000
0010
0000
0001
0100
,
1000
0000
0010
0000
0100
0000
0001
0000
0010
0100
0010
0100
1000
0001
1000
0001
,
0100
0010
0001
0010
1000
0100
1000
0001
,
0010
0100
0001
0100
1000
0010
1000
0001
,
0200
0000
0010
0000
0310
0000
1000
0001
0020
0000
0100
0000
0130
0000
1000
0001
,
0010
0001
0010
0001
0010
0100
0010
0100
1000
0001
1000
0001
1000
0100
1000
0100
,
0010
0010
0010
0001
1000
0100
1000
0001
,
0100
0000
0010
1000
0010
0000
0100
0000
0001
1000
0001
0000
0010
0000
0100
0000
,
1000
0001
0001
0100
0100
0010
1000
0001
,
0010
0000
0001
0000
0100
0000
1000
0000
0010
0100
0001
0000
1000
0100
0010
0001
,
0100
0010
0010
1000
1000
0100
0001
0010
,
0100
0000
1000
0001
1000
0000
0010
0000
0100
0001
0100
0000
0010
0000
1000
0001
,
0010
0001
0001
1000
1000
0100
1000
0001
,
0010
0000
0001
0100
1000
0000
0010
0000
1000
0100
0001
0000
0020
0000
0000
0000
,
0031
0100
0010
0100
1000
0100
0001
0000
0010
1000
0010
0100
0010
0001
0200
0000
,
0000
0000
0001
0301
,
1000
0100
0010
0100
1000
0000
0001
0010
0100
0010
0001
0000
1000
0000
0001
0000
,
0011
0110
1100
1100
0000
0000
0000
0000
;
