#TITLE:BIG-BANG STARS;
#SUBTITLE:;
#ARTIST:co-ping;
#TITLETRANSLIT:;
#SUBTITLETRANSLIT:;
#ARTISTTRANSLIT:;
#GENRE:;
#CREDIT:;
#BANNER:BIG-BANG STARS-bn.png;
#BACKGROUND:BIG-BANG STARS-bg.png;
#LYRICSPATH:;
#CDTITLE:;
#MUSIC:BIG-BANG STARS.ogg;
#OFFSET:0.000000;
#SAMPLESTART:60.955997;
#SAMPLELENGTH:20.000000;
#SELECTABLE:YES;
#DISPLAYBPM:125.000000;
#BPMS:0.000000=124.999992
;
#STOPS:
;
#BGCHANGES:;
#KEYSOUNDS:;
#ATTACKS:;

//---------------dance-single - ----------------
#NOTES:
     dance-single:
     :
     Challenge:
     15:
     0.819748,0.788777,0.423690,0.423690,0.985539,623.000000,577.000000,46.000000,46.000000,0.000000,0.000000,0.819748,0.788777,0.423690,0.423690,0.985539,623.000000,577.000000,46.000000,46.000000,0.000000,0.000000:
0000
0000
0000
0000
,
0000
0000
0000
0000
,
2002
3000
0020
0030
,
0020
0000
0000
0000
0030
0000
0000
0000
0013
0000
1000
0100
1000
0001
0000
0001
,
0100
0000
0010
0000
0110
0000
0001
1000
0001
0000
0010
0000
0100
1000
0000
1000
,
0001
0000
1000
0000
1100
0000
0010
0100
0010
0000
1000
0001
0000
0100
0000
0010
,
0100
0000
0001
0000
0010
0100
0010
0100
0010
0000
0001
1000
0000
1000
0100
0000
,
1000
0000
0001
0000
0010
0100
0000
0100
1000
0001
1000
0000
0010
0100
0000
0001
,
1000
0000
0010
0000
1010
0000
0001
0100
0001
0100
0001
0000
1000
0010
1000
0010
,
1000
0000
0100
0000
0011
0000
0001
1000
0001
1000
0001
0000
0010
0100
0000
0010
,
0100
1000
1001
0001
0010
0100
1100
0010
,
1000
0001
0101
0100
0010
1000
1010
0100
,
0001
0010
0001
0010
0100
1000
0100
1000
0010
0100
0010
0100
0002
0000
0010
0000
,
0013
0000
0001
1000
0100
0000
0020
0000
0031
0000
2000
0000
3010
0000
0200
0000
,
0302
0000
2003
0000
3100
0000
0020
0000
0031
1000
0001
0000
0011
0000
0100
1000
,
0001
0000
0100
0010
1000
0000
0110
0000
0110
0000
0110
0000
1001
0000
0100
0001
,
0100
0001
1000
0100
1000
0100
0010
0001
0010
0100
1000
0001
0200
0000
0010
0000
,
0310
0000
1000
0001
0100
0000
0020
0000
1030
0000
0002
0000
0013
0000
0200
0000
,
2300
0000
3002
0000
0103
0000
0020
0000
1030
0001
1000
0000
1100
0000
0001
1000
,
0010
0000
1000
0100
0010
0000
0110
0000
0110
0000
0110
0000
1001
0000
0001
0010
,
0100
0000
1000
0010
0100
0000
0001
1000
0000
0001
1000
0000
1010
0000
0100
0000
,
0010
1000
0010
1000
0001
0000
0011
0000
0011
0000
0011
0000
1100
0000
0001
0100
,
0010
0000
1000
0000
0100
0000
0010
0001
0000
0010
0001
0000
0101
0000
1000
0010
,
1000
0000
0100
0010
0001
0000
1100
0000
1100
0000
1100
0000
0011
0000
1000
0001
,
1000
0000
0010
0000
0100
0000
0001
0010
0000
0001
0010
0000
1001
0000
0100
0001
,
0010
0000
0001
1000
0100
0000
0110
0000
0110
0000
0110
0000
1001
0000
0010
1000
,
0001
0000
0100
0000
0010
0000
1000
0100
0000
0010
0001
0000
0101
0000
1000
0010
,
1000
0000
0100
0010
0001
0000
0011
0000
0110
0000
1100
0000
1001
0000
0100
0010
,
1000
0100
0010
0001
1000
0100
0010
0001
1000
0100
0010
0001
0100
0000
0010
0000
,
2000
0001
0000
3001
0000
1000
0010
0000
0100
0010
0000
0000
1010
0000
0001
0000
,
1000
0010
0000
0100
0001
0000
0010
0000
0100
1000
0000
0000
0110
0000
1001
0000
,
1000
0010
0000
0010
0100
0000
0001
0000
1000
0100
0000
0001
0100
0000
1000
0001
,
1000
0100
0010
0001
1000
0100
0010
0001
1000
0100
0010
0001
0100
0010
1000
0010
,
0100
0001
0020
0000
0000
0130
1000
0001
1000
0100
0010
0000
0001
1000
0010
1000
,
0100
0010
0002
0000
0000
0013
0001
1000
0010
0100
0010
0000
1000
0100
0010
0001
,
0010
0100
2000
0000
0000
3010
1000
0001
0010
0001
0100
0000
0010
0100
0000
0010
,
0000
1000
0001
1000
0000
1000
0000
0100
0000
0010
0001
0000
1001
0000
0000
0000
,
0010
1000
0000
0000
0010
1000
0000
0100
0000
0010
0001
0000
1000
0001
0000
0100
,
0001
0010
0100
1000
0001
0010
0100
1000
0001
0010
0100
1000
0001
0010
0100
1000
,
0010
0000
0100
0000
0010
1000
0000
0100
0000
0010
0001
0000
1000
0001
0000
0100
,
0010
0000
0010
0000
0010
0000
0000
0000
1000
0001
0000
0001
0100
0000
0000
0000
,
0001
0010
0100
1000
0001
0010
0100
1000
0001
0010
0100
1000
0020
0000
0000
0000
,
0230
0001
0000
0301
0000
0000
0010
0100
1000
0000
0110
0000
0001
2000
0000
3020
,
0000
0230
0000
0320
0000
1030
0100
1000
0002
0000
0203
0000
0310
0000
1000
0000
,
0100
0010
0001
0100
0010
1000
0001
0010
0100
1000
0001
1000
0020
0000
0100
0000
,
0130
0000
0002
0000
2003
0000
0000
3200
0000
0000
0320
0000
0032
0000
1000
0000
,
1003
0000
0010
0100
0010
1000
0001
1000
0100
0010
0001
0000
1000
0020
0000
0230
,
0000
0302
0000
0203
0000
0310
1000
0001
2000
0000
3020
0000
0130
0000
0010
1000
,
0001
0010
0001
0010
0100
1000
0100
1000
0010
0100
0001
2000
0100
0000
0100
0000
,
3100
1000
0010
0100
0002
0000
0023
0000
0031
0100
0020
0000
1030
0100
0010
0001
,
0100
0010
0100
0010
1000
0100
0010
0001
1000
0001
1000
0001
0010
0000
0100
1000
,
0100
1000
0000
0001
0100
0000
0010
0000
1000
0010
0100
0010
1000
0001
0100
0000
,
0001
0010
0100
0000
1100
0000
0010
0000
1000
0001
0000
0100
0010
1000
0001
0000
,
1000
0100
1000
0000
0010
0100
0010
0000
1000
0001
0000
0010
0001
0100
0010
0000
,
1000
0001
0000
0000
1000
0100
0010
0001
0010
0100
1000
0100
0010
0001
0010
0100
,
1000
0100
0010
0001
1001
0000
0000
0000
0000
0000
0000
0000
0000
0000
0000
0000
;

//---------------dance-single - ----------------
#NOTES:
     dance-single:
     :
     Hard:
     13:
     0.651324,0.661555,0.644745,0.350005,0.488164,495.000000,425.000000,70.000000,38.000000,0.000000,0.000000,0.651324,0.661555,0.644745,0.350005,0.488164,495.000000,425.000000,70.000000,38.000000,0.000000,0.000000:
0000
0000
0000
0000
,
0000
0000
0000
0000
,
2002
0000
0000
0000
,
3000
0000
0100
0000
0000
0000
0100
0000
0000
0000
1003
0001
1000
0001
0000
0100
,
0010
0000
1000
0000
0100
0000
1000
0001
1000
0000
0010
0000
0100
0001
0000
0000
,
0010
0000
0001
0000
1000
0000
0010
0100
0010
0000
1000
0001
1000
0001
0000
0100
,
0010
0000
1000
0000
1100
0000
0000
0010
0001
0000
0100
0000
0001
1000
0000
0000
,
0010
0000
0100
0000
0101
0000
0000
0001
1000
0000
0100
0000
1000
0001
0000
0000
,
1000
0000
0010
0000
1010
0000
0000
1000
0100
0000
0010
0000
0001
0100
0000
0000
,
0001
0000
0010
0000
0011
0000
0000
0100
1000
0000
0010
0000
1000
0100
0000
0000
,
1000
0100
1100
0000
0001
0100
0101
0000
,
0100
0010
1010
0000
1000
0001
0011
0000
,
0100
0010
0100
0000
0010
0100
0010
0000
0100
0010
0100
0010
0200
0000
0001
0000
,
0301
0000
0000
1000
0100
0000
0220
0000
0330
0000
2002
0000
3003
0000
1000
0000
,
0010
0000
0200
0000
0000
0000
0301
0000
1000
0100
1000
0000
0010
0000
0100
0001
,
0100
0000
0000
0000
0000
0000
0110
0000
0110
0000
0110
0000
1001
0000
0001
0010
,
0001
0000
1000
0010
1000
0000
0001
0100
0001
0000
1000
0100
2000
0000
0010
0000
,
3010
0000
0000
0100
0001
0000
0022
0000
0033
0000
2200
0000
3300
0000
1000
0000
,
0001
0000
0200
0000
0000
0000
0310
0000
1000
0001
1000
0000
0100
0000
0010
0001
,
0010
0000
0000
0110
0110
0110
1001
0100
,
0010
0000
0000
0000
1010
0000
0000
0101
0000
0000
1100
0000
0101
0000
0010
0000
,
0100
1000
0100
0110
0110
0110
1001
0010
,
0100
0000
0001
0000
0011
0000
0000
0110
0000
0000
1100
0000
0101
0000
1000
0000
,
0001
0010
0100
1100
1100
1100
0011
1000
,
0001
0000
0100
0000
0101
0000
0000
1001
0000
0000
1100
0000
0011
0000
0100
0000
,
0010
0000
1000
0000
0001
0000
0101
0000
0101
0000
0101
0000
1010
0000
1000
0001
,
1000
0000
0010
0000
0110
0000
0000
0101
0000
0000
0011
0000
1010
0000
0001
0000
,
1000
0000
0010
0000
0100
0000
0101
0000
0101
0000
0101
0000
1010
0000
1000
0100
,
1000
0000
0001
0100
0001
0000
0010
0000
0100
0000
1000
0000
1001
0000
0001
0000
,
1000
0100
0000
0100
0000
0000
0010
0000
0001
1000
0000
0000
0101
0000
0000
0000
,
1000
0001
0000
1000
0001
0000
0010
0000
0100
1000
0000
0000
1100
0000
0000
0000
,
0010
0100
0000
0100
0001
0000
1000
0000
0001
0010
0001
0000
0100
0000
0001
0010
,
0001
0000
1000
0010
1000
0000
0100
0000
0010
0000
0001
0000
0020
0000
0000
0031
,
0000
0000
0012
0000
0000
1003
0000
0001
0000
1000
0100
0000
2000
0000
0000
3010
,
0000
0000
1020
0000
0000
0130
0000
0001
0000
1000
0001
0000
0020
0000
0000
0130
,
0000
0000
0210
0000
0000
1300
0000
0001
0000
1000
0010
0000
0100
0010
0000
0100
,
0000
0000
1000
0001
0000
0010
0000
0001
0000
1000
0100
0000
1001
0000
0000
0000
,
1100
0001
0010
0001
1000
0100
0010
0100
,
1000
0000
0001
0010
0001
0000
1000
0010
1000
0000
0100
0000
0010
0000
0001
0000
,
0100
0001
0010
0001
1000
0100
0010
0000
,
0002
0000
2003
0000
3002
0000
0003
0000
0100
0010
0000
1010
0000
0000
0000
0000
,
0001
0000
0100
0010
0100
0000
0001
1000
0001
0000
0010
0000
0200
0000
0000
0000
,
1300
0000
0001
0000
0100
0000
0010
0000
1000
0000
0001
0000
1000
0001
0000
0100
,
0000
0010
0000
1000
0000
1000
0100
0010
0001
0000
0001
0000
0010
0000
0000
0010
,
0001
1000
0001
0100
0010
1000
0200
0000
,
0310
0000
0001
0000
0100
0000
0000
1002
0000
0000
2003
0000
3020
0000
0100
0000
,
0130
0000
0010
0000
1000
0000
0001
0000
1000
0200
0000
0000
1300
0010
0000
0100
,
0000
0001
0000
0100
0000
0100
0010
1000
0001
0000
0001
0000
0100
0000
0000
0100
,
0001
0000
0010
0000
1000
0000
0010
0000
0001
0000
0100
0020
0000
0000
1000
0000
,
0000
1030
0001
1000
0010
0000
0102
0000
0000
1003
0200
0000
0310
0002
0000
0000
,
1003
0020
0000
0000
0130
0002
0000
0000
1003
0200
0000
0000
0310
0000
0001
1000
,
0001
1000
0000
0000
0120
0000
0000
0000
0130
0000
0001
0000
1000
0100
0010
0000
,
0010
0001
0000
0000
2100
0000
0000
0000
3001
1000
0000
1000
0100
0000
0010
0000
,
0010
0001
0000
0000
0011
0000
0001
0000
0100
0000
0010
0000
1010
0000
1000
0000
,
0001
0000
0100
0000
0110
0000
0001
0010
0001
0000
1000
0010
1000
0000
0100
0000
,
0010
0001
1001
0000
0000
0000
0000
0000
;

//---------------dance-single - ----------------
#NOTES:
     dance-single:
     :
     Medium:
     11:
     0.498691,0.508888,0.460532,0.478954,0.119738,379.000000,329.000000,50.000000,52.000000,0.000000,0.000000,0.498691,0.508888,0.460532,0.478954,0.119738,379.000000,329.000000,50.000000,52.000000,0.000000,0.000000:
0000
0000
0000
0000
,
0000
0000
0000
0000
,
2002
0000
0000
0000
,
0000
0000
0000
0000
0000
0000
0000
0000
3000
0000
1003
0001
1000
0001
0000
0000
,
0100
0000
0010
0000
1000
0000
0000
1000
0100
0000
0010
0000
0001
0000
0000
0000
,
0100
0000
0001
0000
0010
0000
0000
0010
0001
0000
1000
0000
0100
0000
0000
0000
,
1000
0000
0001
0000
0011
0000
0000
0001
1000
0000
0010
0000
1000
0000
0100
0000
,
1000
0000
0010
0000
1010
0000
0000
1000
0001
0000
0100
0000
0010
0000
0100
0000
,
0001
0000
0100
0000
0101
0000
0000
0010
0100
0000
1000
0000
0001
0000
1000
0000
,
0100
0000
1000
0000
1100
0000
0000
0001
1000
0000
0010
0000
0100
0000
0001
0000
,
0010
0011
1000
1010
,
0001
0100
0101
0000
0010
1000
1100
0000
,
0100
0010
1000
0001
0100
0010
0210
0000
,
0001
0000
1300
0200
0000
0320
0000
1030
,
0001
0000
0200
0000
0000
0000
0301
0000
1000
0010
1000
0000
0100
0000
2000
0000
,
3000
0000
0000
0110
0100
0010
1001
0010
,
1000
0001
1000
0100
0010
0001
0021
0000
,
1000
0000
0130
0020
0000
0032
0000
0103
,
0010
0000
2000
0000
0000
0000
3001
0000
0100
0010
0100
0000
0001
0000
0020
0000
,
0030
0000
0000
0101
0001
0100
1001
0200
,
0310
0000
0000
0000
1000
0000
0000
1000
0000
0000
1000
0000
1100
0000
0000
0000
,
0002
0000
1003
1010
0010
0100
0110
0002
,
1003
0000
0000
0000
0010
0000
0000
0010
0000
0000
0010
0000
0120
0000
0000
0000
,
2030
0000
3001
0011
0001
0100
0110
0020
,
1030
0000
0000
0000
0001
0000
0000
0001
0000
0000
0001
0000
0101
0000
0000
0000
,
0020
0000
0130
0110
0001
1000
1100
0020
,
0031
0000
0000
0000
0100
0000
0000
0100
0000
0000
0100
0000
0120
0000
0000
0000
,
2030
0000
3100
1100
1000
0001
1001
0001
,
1000
0010
1000
0100
0010
0001
0201
0000
,
0310
0000
0100
0000
0010
0000
1000
0000
0001
0100
0000
0000
1020
0000
0000
0000
,
0130
0000
0001
0000
0010
0000
0100
0000
1000
0001
0000
0000
0012
0000
0000
0000
,
1003
0000
0001
0000
1000
0000
0100
0000
0010
0001
0000
0000
0100
0000
0010
0000
,
1000
0001
0100
0010
1000
0001
1001
0000
,
0010
0000
0120
0000
0000
0230
0000
0000
0310
0000
1000
0000
1100
0000
0000
0000
,
0001
0000
0012
0000
0000
0023
0000
0000
0031
0000
0100
0000
0101
0000
0000
0000
,
1000
0000
2010
0000
0000
3020
0000
0000
1030
0000
0001
0000
0100
0000
0010
0000
,
1000
0001
0000
0010
0001
0100
1001
0000
,
0110
0000
0010
1000
0100
0010
0001
0000
,
1000
0001
0010
0100
1000
0001
0010
0100
,
0010
0000
0001
0100
0010
1000
0100
0000
,
0002
0000
2003
0000
3002
0000
0003
0000
0100
0010
0000
0100
0000
0000
0000
0000
,
1000
0010
1000
0100
1000
0001
0020
0000
,
0032
2000
0000
0000
3003
0010
1000
0001
,
0010
0100
1000
0010
0100
0001
0000
0000
,
0011
1100
0101
2020
,
0030
0000
0001
0000
3002
0000
0000
0203
0000
0000
0320
0000
2000
0030
0000
0000
,
0001
0000
0000
0000
0100
0000
0000
0000
3001
2000
0000
0000
3010
0000
1000
0000
,
0001
0010
0100
1000
0001
0100
0000
0000
,
1010
0101
0011
2100
,
3001
0000
0100
0000
0020
0000
2030
0000
0000
3001
1000
0000
0020
0000
0000
0000
,
0230
0000
0320
0000
0230
0000
0302
1000
,
1003
0000
1100
0000
0010
1000
0001
1000
,
0100
0000
0011
0000
0100
0001
0010
0100
,
1000
0000
1010
0000
0001
1000
0100
0010
,
0001
0000
0100
0010
1000
0001
0100
0010
,
1000
0001
1001
0000
0000
0000
0000
0000
;

//---------------dance-single - ----------------
#NOTES:
     dance-single:
     :
     Easy:
     8:
     0.326320,0.356222,0.386847,0.571060,0.000000,248.000000,206.000000,42.000000,62.000000,0.000000,0.000000,0.326320,0.356222,0.386847,0.571060,0.000000,248.000000,206.000000,42.000000,62.000000,0.000000,0.000000:
0000
0000
0000
0000
,
0000
0000
0000
0000
,
2002
0000
0000
0000
,
0000
0000
0000
0000
3003
1000
0001
0000
,
0010
0110
1000
0001
,
0100
1001
0010
1000
,
0100
1100
0010
1000
,
0001
0011
1000
0001
,
0100
0101
0010
1000
,
0001
1010
0100
0010
,
0000
1100
0000
0011
,
0000
0101
0000
1010
,
0220
0000
0330
2002
,
0000
0000
3000
2000
0003
3020
0000
0230
,
0000
0302
0000
1003
0001
1000
0100
0000
,
1100
0000
0000
0010
0001
0010
0001
0000
,
0102
2003
3100
0220
,
0000
0000
0030
2000
0300
3002
0000
0203
,
0000
0320
0000
1030
0100
1000
0001
0000
,
0011
0000
0000
0100
0010
1000
0001
0000
,
1010
0010
0010
1001
,
0100
0000
0000
0001
1000
0001
1000
0000
,
0000
0010
0100
0110
,
1000
0000
0000
0010
1000
0010
1000
0000
,
0000
0001
1000
0101
,
0100
0000
0000
0010
0100
0010
0100
0000
,
0000
0001
0001
1010
,
0010
0000
0000
1000
0100
1000
0002
0000
,
0023
0230
2300
3010
,
1100
0000
0000
1000
0001
0000
0100
0000
,
0011
0000
0000
0001
1000
0000
0010
0000
,
1000
0000
0001
1000
0100
0000
2000
0000
,
3200
0320
0032
0103
,
0000
0000
0001
1000
0001
0000
0011
0000
,
0000
0000
1000
0100
1000
0000
0101
0000
,
0000
0000
0010
0100
0010
0000
1000
0001
,
0010
0000
0001
1000
0100
0000
1001
0000
,
1010
0010
1000
0001
,
2000
3200
0320
0032
,
0103
0001
1000
0010
,
1100
0000
0110
0000
0001
1000
0001
0000
,
0002
0023
0230
2300
,
3020
0200
0000
0000
0330
0000
0001
1000
,
0002
0023
0230
0300
,
2100
3002
0203
0320
,
1030
0210
0301
0022
,
0000
0000
0030
0000
1003
0000
0001
1000
,
0020
2030
3200
0300
,
1020
0230
0302
2003
,
0000
3001
0200
0010
0000
0310
1000
0000
,
1001
0000
0001
0000
0101
0000
0000
0100
,
0010
1010
0101
0001
,
1000
1100
0011
0100
,
0010
0220
0330
2002
,
3003
2000
3200
0320
,
0032
0103
0000
0000
;

//---------------dance-single - ----------------
#NOTES:
     dance-single:
     :
     Beginner:
     3:
     0.163160,0.229000,0.267109,0.064475,0.000000,124.000000,95.000000,29.000000,7.000000,0.000000,0.000000,0.163160,0.229000,0.267109,0.064475,0.000000,124.000000,95.000000,29.000000,7.000000,0.000000,0.000000:
// measure 0
0000
0000
0000
0000
,  // measure 1
0000
0000
0000
0000
,  // measure 2
1001
0000
0000
0000
,  // measure 3
0000
0000
0000
0000
,  // measure 4
0000
0010
0000
0000
,  // measure 5
0000
1000
0000
0000
,  // measure 6
0000
0001
0000
0000
,  // measure 7
0000
0100
0000
0000
,  // measure 8
0000
0110
0000
0000
,  // measure 9
0000
1001
0000
0000
,  // measure 10
0000
1000
0000
0100
,  // measure 11
0000
0010
0000
0001
,  // measure 12
0000
0110
0000
1001
,  // measure 13
0000
0000
0100
0000
,  // measure 14
0010
0000
1000
1000
,  // measure 15
0000
0000
0001
0001
,  // measure 16
0000
0100
0000
0110
,  // measure 17
0000
0000
0010
0000
,  // measure 18
1000
0000
0100
0100
,  // measure 19
0000
0000
0010
0010
,  // measure 20
0000
0110
0000
1001
,  // measure 21
0000
0000
1000
1000
,  // measure 22
0000
1001
0000
0110
,  // measure 23
0000
0000
0010
0010
,  // measure 24
0000
0110
0000
1001
,  // measure 25
0000
0000
0001
0001
,  // measure 26
0000
1001
0000
0110
,  // measure 27
0000
0000
0100
0200
,  // measure 28
0000
0000
0300
0000
,  // measure 29
0010
0000
0010
0000
,  // measure 30
1000
0000
1000
0000
,  // measure 31
0001
0000
0001
0002
,  // measure 32
0000
0003
0000
1001
,  // measure 33
0000
0010
0000
0110
,  // measure 34
0000
0100
0000
0110
,  // measure 35
0000
0001
0000
1001
,  // measure 36
0000
1000
0000
1001
,  // measure 37
1001
0000
0000
0000
,  // measure 38
0020
0000
0030
0000
,  // measure 39
0110
0000
0000
0000
,  // measure 40
0110
0000
0000
0000
,  // measure 41
2000
0000
0000
0000
,  // measure 42
0000
3000
0000
0001
,  // measure 43
0001
0001
0001
0000
,  // measure 44
0100
0100
0100
0100
,  // measure 45
0000
0010
0000
0200
,  // measure 46
0000
0300
0000
0010
,  // measure 47
0010
0010
0010
0000
,  // measure 48
1000
1000
1000
1000
,  // measure 49
0000
0110
0000
0100
,  // measure 50
0100
0100
0100
0000
,  // measure 51
0000
0110
0000
0001
,  // measure 52
0000
1001
0000
0100
,  // measure 53
0000
1001
0000
0110
,  // measure 54
0000
0220
0000
0330
,  // measure 55
0000
1001
0000
0000
;
