#TITLE:BEGINNING-OF-LIFE;
#ARTIST:QUADRA;
#BANNER:BEGINNING-OF-LIFE.png;
#BACKGROUND:BEGINNING-OF-LIFE-bg.png;
#JACKET:BEGINNING-OF-LIFE-jacket.png;
#MUSIC:BEGINNING-OF-LIFE.ogg;
#SAMPLESTART:19.636;
#SAMPLELENGTH:20;
#DISPLAYBPM:110;
#BPMS:0=110;
#BGCHANGES:;

//---------------dance-single - ----------------
#NOTES:
     dance-single:
     :
     Beginner:
     2:
     :
0000
0000
0000
0000
,
0000
0000
0000
0000
,
0000
0000
0000
0000
,
0000
0000
0000
0000
,
0000
0000
0000
0000
,
0020
0000
0000
0030
,
0000
0100
0000
0000
,
0000
0002
0000
0000
,
0003
0000
1000
1000
,
2000
0000
3000
0000
,
0020
0000
0030
0000
,
0200
0000
0000
0300
,
0000
0100
0000
0000
,
0002
0000
0003
0000
,
0020
0000
0030
0000
,
0200
0000
0000
0300
,
0000
0100
0000
1000
,
1000
0000
0000
0001
,
0001
0000
0000
0100
,
0000
0001
0000
1000
,
1000
0000
0000
0010
,
0010
0000
0000
0100
,
0100
0000
0000
0100
,
0000
0001
0000
0100
,
0000
0000
0010
0010
,
0000
1001
0000
0000
,
0000
0020
0000
0030
,
0000
1001
0000
0000
,
0000
0000
1000
0000
,
0000
1001
0000
0000
,
0001
0000
0010
0000
,
0001
0000
1000
0000
,
0010
0000
1000
0000
,
0100
0000
0010
0000
,
0100
0000
1000
0000
,
0000
1001
0000
0000
,
0002
0000
0000
0000
,
0000
0000
0003
0000
;

//---------------dance-single - ----------------
#NOTES:
     dance-single:
     :
     Easy:
     5:
     :
0000
0000
0000
0000
,
0000
0000
0000
0000
,
0000
0000
0000
0000
,
0000
0000
0000
0000
,
0000
0000
0000
0000
,
0010
0000
0010
0000
,
1000
0000
1000
0000
,
0001
0000
0001
0000
,
0010
0000
0001
1000
,
1001
0100
0010
0100
,
0001
0000
1000
0000
,
1000
0000
0001
0000
,
0010
0000
0010
0000
,
0001
0000
0001
0000
,
1000
0000
1000
0000
,
0001
0000
0001
0000
,
1000
0000
0001
0000
,
1001
0000
0010
0000
,
0001
0000
1000
0000
,
0001
0000
0010
0100
,
1000
0000
0001
1000
,
0100
0000
0010
1000
,
0001
0000
0010
0001
,
1000
0000
0010
0001
,
0000
0000
0000
0000
0010
0010
0010
0000
,
1001
0010
0000
0000
,
0001
0000
1000
0000
,
0010
0000
0100
0000
,
0010
0000
0100
0000
,
0001
0010
0100
1000
,
1000
0100
0010
0001
,
0110
1001
0110
1001
,
0010
0100
0001
1000
,
0001
1000
0100
0010
,
1001
0110
0001
1000
,
0010
0010
0000
0000
;

//---------------dance-single - ----------------
#NOTES:
     dance-single:
     :
     Medium:
     7:
     :
0000
0000
0000
0000
,
0000
0000
0000
0000
,
0000
0000
0000
0000
,
0000
0000
0000
0000
,
0000
0000
0000
0000
,
0010
1000
0010
0001
,
0010
0001
0010
1000
,
0100
0001
0100
1000
,
0100
0000
1000
0000
0100
0100
0001
0000
,
1001
0000
0100
0000
0010
1000
0100
0000
,
0010
1000
0010
0001
,
0100
1000
0100
0001
,
0010
1000
0010
0001
,
1000
0100
0001
0100
,
1000
0100
0001
0100
,
0110
1000
0100
0100
,
0110
0001
0100
0100
,
1001
0010
0100
1000
,
1001
0010
0100
0001
,
1000
0000
0001
0000
0001
0001
1000
0000
,
0001
0000
1000
0000
1000
1000
0001
0000
,
1000
0000
0100
0000
0001
0001
0100
0000
,
1000
0000
0100
0000
0001
0001
0100
0000
,
1000
0000
0001
0000
0001
0100
1000
0000
,
1000
0000
0010
0010
0010
0000
1001
0000
,
0010
1000
0100
0000
0010
0000
0100
0000
,
0010
0100
0010
0100
,
0001
0010
1000
0010
,
1000
0010
0001
0010
,
1001
0100
0110
1001
,
0010
0110
1001
0100
,
0110
1001
0010
0110
,
1001
0100
0110
1001
,
0010
0110
1001
0100
,
0110
1001
0010
0110
,
1001
0110
0000
0000
;

//---------------dance-single - ----------------
#NOTES:
     dance-single:
     :
     Hard:
     9:
     :
0000
0000
0000
0000
,
0000
0000
0000
0000
,
0000
0000
0000
0000
,
0000
0000
0000
0000
,
0000
0000
0000
0000
,
0010
0000
1000
0000
0010
0010
0001
0000
,
0010
0000
0001
0000
0010
0010
1000
0000
,
0100
0000
0001
0000
0100
0100
1000
0000
,
0100
0000
1000
0000
0100
0100
0001
0000
,
1001
0000
0100
0000
0010
0010
0100
0000
,
0010
0010
1000
0000
0010
0010
0001
0000
,
0100
0100
1000
0000
0100
0100
0001
0000
,
0010
0010
1000
0000
0010
0010
0001
0000
,
1000
1000
0100
0000
0001
0001
0100
0000
,
1000
1000
0100
0000
0001
0001
0100
0000
,
0110
0000
1000
0000
0100
0001
0100
0000
,
0110
0000
0001
0000
0100
1000
0100
0000
,
1001
0000
0010
0000
0100
0100
1000
0000
,
1001
0000
0010
0000
0100
0100
0001
0000
,
1000
1000
0001
0000
0001
0001
1000
0000
,
0001
0001
1000
0000
1000
1000
0001
0000
,
1000
1000
0100
0000
0001
0001
0100
0000
,
1000
1000
0100
0000
0001
0001
0100
0000
,
1000
0100
0001
0000
0001
0100
1000
0000
,
1000
0100
0001
0000
0001
0100
1000
0000
,
0010
1000
0100
0000
0010
0001
0100
0000
,
0010
0001
0100
0000
0010
1000
0100
0000
,
0001
0100
0010
0000
1000
0100
0010
0000
,
1000
0100
0010
0000
0001
0100
0010
0000
,
0000
1001
0100
0000
0110
0001
0000
1001
,
0010
0000
0110
1000
0000
1001
0100
0000
,
0110
0001
0000
1001
0010
0000
0110
1000
,
0000
1001
0100
0000
0110
0001
0000
1001
,
0010
0000
0110
1000
0000
1001
0100
0000
,
0110
0001
0000
1001
0100
0000
0110
1001
;

//---------------dance-single - ----------------
#NOTES:
     dance-single:
     :
     Challenge:
     13:
     :
0000
0000
0000
0000
,
0000
0000
0000
0000
,
0000
0000
0000
0000
,
0000
0000
0000
0000
,
0000
0000
0000
0000
,
0010
0000
0001
0000
0100
0000
0010
1000
0000
0001
1000
0001
0100
0000
0010
0000
,
1000
0000
1100
0000
0101
0000
0000
0001
0010
0100
1000
0010
0100
0000
0001
0000
,
0010
0000
0001
0000
1000
0000
0100
0010
0000
0100
1000
0001
1000
0000
0010
0000
,
0100
0000
0010
0000
1000
0000
0001
0100
0010
0100
0001
0000
1001
0000
0000
0000
,
0110
0000
0010
0000
1000
0000
0100
0010
0000
0010
0001
0000
1000
0000
0001
0000
,
0100
0000
0010
0000
1000
0000
0100
0010
0000
0001
0100
0001
1000
0000
0010
0000
,
0100
0000
0001
0000
0010
0000
0001
1000
0001
0000
0100
0000
0010
1000
0010
0000
,
0100
0000
0101
0000
1100
0000
0000
0001
1000
0010
1000
0010
0100
0000
0001
0000
,
0010
0000
0001
0000
0100
0000
0010
1000
0010
0000
0100
0000
0001
1000
0001
0000
,
0010
0000
0100
0000
1000
0000
0010
0100
0001
0000
1000
0000
0001
0000
0010
0100
,
0010
0000
0001
0000
1000
0000
0010
0100
0000
0100
0001
0000
1000
0100
1000
0000
,
0010
0000
0101
0000
1100
0000
0001
0000
1000
0000
0110
0000
0010
1000
0000
0000
,
1001
0000
0010
0000
1000
0000
0100
0010
0001
0000
0011
0000
1000
0001
0000
0100
,
0010
0000
1000
0000
0001
0000
0010
0100
1000
0000
1100
0000
0101
0000
0001
0000
,
0010
0000
0001
0000
1000
0000
0001
0100
0010
0000
1010
0000
1000
0100
1000
0000
,
0001
0000
0010
0000
0001
0000
0100
0010
1000
0000
1010
0000
0100
1000
0000
0001
,
0010
0000
0001
0000
1000
0000
0010
0100
0010
0000
0101
0000
1000
0100
0000
0000
,
0010
0000
0001
0000
1000
0000
0100
1000
0010
0000
0101
0000
1100
0000
0000
0000
,
0001
0000
0010
0000
1000
0000
0100
0010
0001
0000
0101
0000
1100
0000
0010
0000
,
1000
0000
0001
0000
0100
0000
0010
1000
0001
0000
0001
0000
0001
0100
0000
0010
,
1000
0100
1000
0000
1001
0000
0010
0100
0001
0000
1000
0000
0100
0010
0001
0000
,
0100
0000
0010
0000
1000
0000
0001
0010
0001
0000
0100
0000
0010
1000
0000
1000
,
0100
0000
0010
0000
1001
0000
0001
0100
0001
0000
1000
0000
0010
1000
0100
0000
,
1000
0000
0010
0000
0100
0000
0001
1000
0010
0100
0001
0000
1000
0100
0010
0000
,
0001
0000
0101
0000
1001
0000
0010
0000
1010
0000
0110
0000
0100
0001
1000
0000
,
1100
0000
0010
0000
0101
0000
0011
0000
1000
0000
1010
0000
0010
0100
0001
0000
,
0011
0000
1100
0000
1001
0000
0110
0000
1001
0000
0010
0000
1000
0001
0100
0000
,
0010
0000
0101
0000
1010
0000
1000
0001
1000
0000
0001
0010
0100
0010
0001
0000
,
1010
0000
0100
0000
1001
0000
0011
0000
1000
0000
0110
0000
0010
1000
0001
0000
,
1100
0000
0011
0000
0100
0000
0010
1000
0001
0000
0100
0000
0010
1000
0001
0000
,
0100
0000
0010
0000
1001
0000
0010
0000
1000
0000
0001
0000
1000
0010
0100
0000
,
0002
0000
0000
0000
,
0000
0000
0003
0000
;

//---------------dance-double - ----------------
#NOTES:
     dance-double:
     :
     Easy:
     6:
     :
00000000
00000000
00000000
00000000
,
00000000
00000000
00000000
00000000
,
00000000
00000000
00000000
00000000
,
00000000
00000000
00000000
00000000
,
00000000
00000000
00000000
00000000
,
00100000
00000000
00010000
00000000
,
00001000
00000000
00000100
00000000
,
00010000
00000000
00001000
00000000
,
00000010
00000000
00000000
00000000
00001000
00001000
00010000
00000000
,
00001000
00000000
00010000
00000000
00001000
00001000
00010000
00000000
,
00001000
00000000
00000001
00000000
,
00010000
00000000
10000000
00000000
,
00100000
00000000
00010000
00000000
,
00001000
00000000
00000100
00000000
,
00001000
00000000
00010000
00000000
,
00010000
00000000
00001000
00000000
,
00001000
00000000
00010000
00000000
,
00011000
00000000
00100000
00000000
,
00011000
00000000
00000010
00000000
,
00010000
00000000
00000000
00000000
00100000
00100000
00010000
00000000
,
00001000
00000000
00000010
00000010
00000000
00000000
00001000
00000000
,
00010000
00000000
00000000
00000000
00100000
00100000
01000000
00000000
,
00001000
00000000
00000000
00000000
00000010
00000010
00000100
00000000
,
00010000
00000000
00000000
00000000
00100000
00100000
00010000
00000000
,
00000000
00000000
00000000
00000000
00010000
00001000
00010000
00000000
,
00011000
00011000
00000000
00000000
,
00001000
00000000
00010000
00000000
,
00100000
00000000
01000000
00000000
,
00000010
00000000
00000100
00000000
,
00000001
00000010
00000100
00001000
,
00010000
00100000
01000000
10000000
,
01100000
10010000
01100000
00010000
,
00001001
00000110
00001001
00000100
,
00001000
00010000
00001000
00010000
,
00011000
00100000
00010000
00001000
,
00010000
00011000
00000000
00000000
;

//---------------dance-double - ----------------
#NOTES:
     dance-double:
     :
     Medium:
     9:
     :
00000000
00000000
00000000
00000000
,
00000000
00000000
00000000
00000000
,
00000000
00000000
00000000
00000000
,
00000000
00000000
00000000
00000000
,
00000000
00000000
00000000
00000000
,
00100000
00000000
00010000
00000000
00100000
00010000
00001000
00000000
,
00000010
00000000
00000001
00000000
00000010
00001000
00010000
00000000
,
01000000
00000000
00010000
00000000
00000100
00010000
00001000
00000000
,
00000100
00000000
00010000
00000000
01000000
00010000
00001000
00000000
,
00011000
00000000
00000100
00000000
00000010
00001000
00000100
00000000
,
00000010
00000010
00001000
00000000
00100000
00100000
00010000
00000000
,
01000000
00010000
00011000
00000000
00000100
00001000
00011000
00000000
,
00100000
00100000
00011000
00000000
00000010
00000010
00011000
00000000
,
00010000
01000000
00010000
00000000
00001000
00000100
00001000
00000000
,
00100000
00010000
00001000
00000000
00000010
00001000
00010000
00000000
,
00100000
00000000
10000000
00000000
01000000
00010000
00000100
00000000
,
00000010
00000000
00000001
00000000
00000100
00001000
00010000
00000000
,
01000000
00000000
00100000
00000000
01000000
01000000
00010000
00000000
,
00011000
00000000
00000010
00000000
00000100
00000100
00001000
00000000
,
00001000
00001000
00011000
00000000
00010000
00010000
01000000
00000000
,
00010000
00010000
00001000
00000000
00001000
00001000
00000100
00000000
,
00001000
00001000
01000000
00000000
00010000
00010000
00000100
00000000
,
00001000
00001000
00000100
00000000
00000001
00000001
00000100
00000000
,
00001000
00010000
00010000
00000000
00010000
00000100
00001000
00000000
,
00001000
01000000
00010000
00000000
00010000
00000100
00001000
00000000
,
00000010
00001000
00010000
00000000
00100000
00010000
00000100
00000000
,
00000010
00000001
00000100
00000000
00001000
00010000
01000000
00000000
,
00010000
00000100
00000010
00000000
00001000
01000000
00100000
00000000
,
00001000
00000100
00000010
00000000
00000001
00000100
00010000
00000000
,
00000000
10010000
01000000
00000000
01100000
00010000
00000000
00001000
,
00000010
00000000
00000110
00001000
00000000
00010000
01000000
00000000
,
01100000
00010000
00000000
00001000
00011000
00000000
00100000
10000000
,
00000000
10010000
01000000
00000000
01100000
00010000
00000000
10010000
,
00100000
00000000
01100000
10000000
00000000
10010000
00010000
00000000
,
00000100
00000001
00000000
00001001
00000100
00000000
00000110
00001001
;

//---------------dance-double - ----------------
#NOTES:
     dance-double:
     :
     Hard:
     11:
     :
00000000
00000000
00000000
00000000
,
00000000
00000000
00000000
00000000
,
00000000
00000000
00000000
00000000
,
00000000
00000000
00000000
00000000
,
00000000
00000000
00000000
00000000
,
00000010
00000000
00000100
00000000
00000001
00000000
00000000
00000100
00000000
00000000
00000010
00001000
00000010
00000000
00000000
00000000
,
00000100
00000000
00000101
00000000
00010100
00000000
00000000
00000000
00001000
00010000
00001000
00000000
01000000
00000000
00100000
00000000
,
10000000
00000000
01000000
00000000
00100000
00000000
00000000
00010000
00000000
00000000
10000000
00100000
10000000
00000000
00000000
00000000
,
01000000
00100000
00010000
01000000
00001000
00011000
00011000
00000000
,
00000012
00000000
00000100
00000000
00000103
00000000
00000000
00000010
00001000
00000000
00000100
00000000
00001000
00000000
00000001
00000000
,
00000100
00000000
00000010
00000000
00010010
00000000
00000000
00000100
00001000
00000000
00000010
00000000
00010000
00000000
01000000
00000000
,
10000000
00000000
00010000
00000000
00110000
00000000
00000000
00010000
01000000
00000000
00100000
00000000
01100000
00000000
00000000
00000000
,
10000000
00000000
11000000
00000000
01010000
00000000
00000000
00100000
01000000
00000000
00010000
00000000
00100000
00001000
00100000
00000000
,
01000000
00000000
10000000
00000000
00100000
00000000
00000000
01000000
00010000
00000000
00001000
00000000
00000100
00000000
00000001
00000000
,
00000010
00000000
00000100
00000000
00001100
00000000
00000000
00000001
00001000
00000000
00000010
00000000
00001001
00000000
00000000
00000000
,
00000100
00000000
00000010
00000000
00001000
00000000
00000001
00000100
00000001
00000000
00001000
00000000
00100000
00000000
01000000
00000000
,
00010000
00000000
00110000
00000000
11000000
00000000
00000000
00100000
01000000
00000000
01001000
00000000
00000000
00101000
00000000
00000000
,
00021000
00000000
00000000
00000000
01030000
00000000
10000000
00010000
10000000
00000000
10100000
00000000
00000000
00010000
00000000
00001000
,
00000010
00000000
00000000
00000000
00000110
00000000
00000001
00000100
00000001
00000000
00001100
00000000
00000101
00000000
00001000
00000000
,
00000100
00000000
00000010
00000000
00000001
00000000
00001000
00000010
00001000
00000000
00001100
00000000
00000000
00010100
00000000
00000000
,
00010000
00000000
00001000
00000000
01000000
00000000
00100000
10000000
00100000
00000000
01001000
00000000
00000000
00010000
00000000
00001000
,
01000000
00000000
00100000
00000000
10000000
00000000
01000000
10000000
01000000
00000000
10010000
00000000
00000000
00110000
00000000
00000000
,
00001000
00000000
00010000
00000000
00000010
00000000
00000100
00000001
00000100
00000000
00000101
00000000
00001100
00000000
00000010
00000000
,
00001000
00000000
00010000
00000000
00001000
00000000
00000100
00010000
00000100
00000000
00001100
00000000
00000101
00000000
00000001
00000000
,
00000010
00000000
00000100
00000000
00010000
00000000
00001000
01000000
00002000
00000000
00203000
00000000
00310000
10000000
00000000
01000000
,
00100000
00000000
00000000
00000000
00011000
00000000
00010000
00000000
00001000
00000000
01000000
00000000
00100000
10000000
00100000
00000000
,
01000000
00000000
00010000
00000000
00100000
00000000
01000000
10000000
01000000
00000000
00100000
00000000
00001000
00010000
00001000
00000000
,
01000000
00000000
00001000
00000000
00011000
00000000
00000000
00010000
00000100
00000000
00000010
00000000
00000001
00001000
00000001
00000000
,
00000100
00000000
00000010
00000000
00001000
00000000
00000001
00000000
00000010
00000001
00000010
00000000
00000100
00000000
00001000
00000000
,
00000001
00000110
00001001
00000010
00001010
00010100
00001000
01001000
,
01100000
00100000
10100000
01010000
00100000
00101000
01010000
10000000
,
11000000
00110000
01000000
10010000
01100000
00100000
01010000
00110000
,
00001000
01001000
00011000
00010000
00010010
00001010
00000100
00000011
,
00001001
00000010
00001010
00001100
00000001
00000011
00001100
00000010
,
00000110
00010010
00001000
00101000
00010100
00000100
00000110
00000011
,
00001000
00000000
00000001
00000000
00000110
00000000
00000010
00000000
00001000
00000000
00000100
00000000
00010000
00001000
00010000
00000000
,
02200000
00000000
00000000
00000000
,
00300000
00000000
03000000
00000000
;

//---------------dance-double - ----------------
#NOTES:
     dance-double:
     :
     Challenge:
     13:
     :
00000000
00000000
00000000
00000000
,
00000000
00000000
00000000
00000000
,
00000000
00000000
00000000
00000000
,
00000000
00000000
00000000
00000000
,
00000000
00000000
00000000
00000000
,
00000100
00000000
00001000
00000000
00000010
00000000
00000100
00000001
00000100
00000000
00000010
00001000
00000010
00000000
00000100
00000000
,
00000001
00000000
00000011
00000000
00010010
00000000
00000000
00000000
00001000
00010000
00001000
00010000
01000000
00000000
00100000
00000000
,
10000000
00000000
00010000
00000000
00100000
00000000
00010000
01000000
00010000
00000000
10000000
01000000
10000000
00000000
00100000
00000000
,
01000000
00000000
00010000
00000000
00100000
00000000
00010000
10000000
00100000
10000000
00010000
00000000
00110000
00000000
00000000
00000000
,
00021000
00000000
00000000
00000000
00030010
00000000
00001000
00000001
00001000
00000000
00000010
00000000
00000100
00000001
00000100
00000000
,
00000010
00000000
00001000
00000000
00000001
00000000
00000010
00000100
00001000
00000000
00000010
00000100
00000001
00000000
00001000
00000000
,
00000100
00000000
00000010
00000000
00000100
00000000
00001000
00000001
00001000
00000000
00000010
00000000
00010000
00001000
00010000
00000000
,
01000000
00000000
11000000
00000000
01001000
00000000
00000000
00100000
10000000
00000000
00010000
00000000
10000000
01000000
00100000
00000000
,
00001000
00000000
01000000
00000000
00100000
00000000
10000000
00010000
10000000
00000000
01000000
00000000
00100000
00001000
00100000
00000000
,
00010000
00000000
00000100
00000000
00000001
00000000
00000010
00000100
00000010
00000000
00000001
00000000
00001000
00000000
00000010
00000000
,
00000100
00000000
00000010
00000000
00001000
00000000
00000100
00000010
00000001
00000000
00000100
00000000
00000001
00000000
00001000
00000000
,
00000100
00000000
00001100
00000000
00010100
00000000
00010000
00001000
00010000
00000000
00011000
00000000
00001000
01000000
00000000
00010000
,
00100000
00000000
00000000
00000000
01100000
00000000
10000000
00010000
10000000
00000000
01001000
00000000
01000000
00100000
00000000
00100000
,
00010000
00000000
00000010
00000000
00001000
00000000
00000100
00000010
00000001
00000000
00000011
00000000
00010010
00000000
00000100
00000000
,
00001000
00000000
00000001
00000000
00000010
00000000
00000001
00000100
00001000
00000000
00101000
00000000
00100000
01000000
00000000
00000000
,
10000000
00000000
00010000
00000000
00100000
00000000
00010000
01000000
10000000
00000000
10010000
00000000
00100000
01000000
00000000
01000000
,
00001000
00000000
00010000
00000000
00110000
00000000
10000000
01000000
10000000
00000000
10100000
00000000
01000000
00001000
00000000
00000000
,
00010000
00000000
00000010
00000000
00010000
00000000
00000100
00001000
00000001
00000000
00000101
00000000
00010100
00000000
00000010
00000000
,
00001000
00000000
00000001
00000000
00000010
00000000
00000001
00000100
00001000
00000000
00011000
00000000
10010000
00000000
00100000
10000000
,
01000000
00000000
00100000
00000000
00010000
00000000
01000000
00000000
01100000
00000000
01100000
00000000
10000000
00010000
00000000
10000000
,
01000000
00000000
00100000
00000000
00011000
00000000
00010000
00000100
00010000
00000000
00001000
00000000
01000000
00010000
10000000
00000000
,
00100000
00000000
01000000
00000000
00010000
00000000
10000000
00100000
10000000
00000000
01000000
00000000
00100000
00010000
10000000
00000000
,
00100000
00000000
01000000
00000000
00011000
00000000
00001000
00100000
00001000
00000000
00000100
00000000
00000001
00000010
00000001
00000000
,
00000100
00000010
00001000
00000000
00000001
00000000
00000010
00000100
00001000
00000001
00000100
00000000
00000010
00001000
00000001
00000000
,
00000100
00000000
00001010
00000000
00000101
00000000
00000001
00000010
00001000
00000000
00001100
00000000
00000100
00001000
00010000
00000000
,
00110000
00000000
10000000
00000000
10010000
00000000
01100000
00000000
00100000
00000000
01001000
00000000
00010000
00001000
01000000
00000000
,
01100000
00000000
01010000
00000000
00011000
00000000
00010010
00000000
00000110
00000000
00000001
00000000
00001000
00000010
00000100
00000000
,
00000001
00000000
00000011
00000000
00010100
00000000
00010000
00000010
00001000
00000000
00001001
00000000
00000010
00000100
00000001
00000000
,
00000101
00000000
00001000
00010000
01000000
00000000
11000000
00000000
00100000
00000000
01001000
00000000
00100000
00001000
01000000
00000000
,
01010000
00000000
10100000
00000000
10000000
00000000
10010000
00000000
00101000
00000000
01000000
00000000
00100000
10000000
00010000
00000000
,
01000000
00000000
00001000
00000000
00011000
00000000
00010000
00000000
00000010
00000000
00000010
00000000
00001000
00000001
00000100
00000000
,
00000020
00000000
00000000
00000000
,
00000000
00000000
00000030
00000000
;
