#TITLE:Antipode;
#ARTIST:satie;
#BANNER:Antipode-bn.png;
#BACKGROUND:Antipode-bg.png;
#JACKET:Antipode-jacket.png;
#MUSIC:Antipode.ogg;
#SAMPLESTART:90.667;
#SAMPLELENGTH:20;
#DISPLAYBPM:90:180;
#BPMS:0=180,64=90,80=180;
#STOPS:251.5=1.333;
#BGCHANGES:;

//---------------dance-single - ----------------
#NOTES:
     dance-single:
     :
     Beginner:
     4:
     :
0000
0000
0000
0000
,
0000
0000
0000
0000
,
0000
0000
0000
0000
,
0000
0000
0000
0000
,
0000
0000
0000
0000
,
0000
0000
0000
0000
,
0000
0000
0000
0000
,
0000
0000
0000
0000
,
0010
0000
1000
0000
,
0001
0000
0100
0000
,
0010
0000
0100
0000
,
0001
0000
1000
0000
,
0100
0000
0010
0000
,
0001
0000
1000
0000
,
0010
0000
1000
0000
,
0001
0000
0100
0000
,
0010
0000
1000
0000
,
0010
0000
0001
0000
,
0100
0000
0001
0000
,
0100
0000
1000
0000
,
0010
0000
0010
0000
,
1000
0000
0001
0000
,
0010
0000
0010
0000
,
0100
0000
0010
0000
,
0001
0000
0001
0000
,
1000
0000
0010
0000
,
1000
0000
0100
0000
,
1000
0000
0001
0000
,
0010
0000
1001
0000
,
0000
0000
1001
0000
,
0000
0000
1001
0000
,
0000
0000
1001
0000
,
0000
0000
0110
0000
,
0000
0000
0110
0000
,
0000
0000
0110
0000
,
0000
0000
0110
0000
,
0000
1000
0000
1000
,
0000
0001
0000
0001
,
0000
0100
0000
0100
,
0000
0010
0000
0010
,
0000
1000
0000
0100
,
0000
0010
0000
0001
,
0000
0100
0000
0010
,
0000
1000
0000
0001
,
0000
0000
0000
0000
,
0020
0000
0000
0030
,
0000
0000
0000
0000
,
0002
0000
0000
0003
,
0000
0000
0000
0000
,
0200
0000
0000
0300
,
0000
0000
0000
0000
,
2000
0000
0000
3000
,
0010
0000
0100
0000
,
0001
0000
1000
0000
,
0001
0000
0010
0000
,
0100
0000
1000
0000
,
0010
0000
1000
0000
,
0001
0000
0100
0000
,
0001
0000
0010
0000
,
0100
0000
1000
0000
,
1001
0000
0000
0000
,
0000
0000
0000
0000
,
0110
0000
0000
0000
,
1000
0000
1000
0000
,
0001
0000
0001
0000
,
0200
0000
0300
1000
,
1000
0000
0010
0000
,
0100
0000
0001
0000
,
0100
0000
0001
0000
,
1000
0000
0010
0000
,
1000
1000
1000
0000
,
0001
0000
0010
0000
,
0001
0000
0100
0000
,
0020
0000
0030
1000
,
1000
0000
0001
0000
,
0100
0000
0010
0000
,
1000
0000
0100
0000
,
1000
0000
0001
0000
,
0100
0000
0010
0000
,
1001
0000
0000
0001
,
0001
0000
0000
1000
,
1000
0000
0000
0010
,
0010
0000
1001
0000
,
0110
0000
0000
0010
,
0010
0000
0000
0100
,
0200
0000
0300
0001
,
0002
0000
0000
0003
,
0110
0000
1001
0000
,
0000
0000
0000
0000
,
0000
0000
0110
0000
,
0000
0000
0000
0000
,
0010
0000
0000
0000
,
0000
0000
0000
0000
,
0000
0000
0010
0000
;

//---------------dance-single - ----------------
#NOTES:
     dance-single:
     :
     Easy:
     7:
     :
0000
0000
0000
0000
,
0000
0000
0000
0000
,
0000
0000
0000
0000
,
0000
0000
0000
0000
,
0000
0000
0000
0000
,
0000
0000
0000
0000
,
0000
0000
0000
0000
,
0000
0000
0000
0000
,
0010
0000
0000
0000
0100
0010
0001
0000
,
1000
0000
0001
1000
,
0200
0300
0010
1000
,
0200
0000
0300
0000
1000
0001
0000
0000
,
0010
0000
0001
1000
0000
0001
0000
0020
,
0000
0000
0030
0000
0200
0000
0300
1000
,
0002
0000
0000
0003
,
2000
0000
3000
0010
0200
0000
0300
0000
,
0002
0000
1003
0100
,
2000
0000
3010
0100
,
0020
0000
1030
0001
,
0200
0000
0301
0010
,
0001
0010
0001
0100
,
1000
0010
0200
0300
,
0010
0100
0010
1000
,
0100
0010
0001
1000
,
1000
0001
0010
0001
,
0100
0010
1000
0100
,
1000
0010
0001
0100
,
0001
0010
0100
1000
,
0010
0100
1001
0100
,
0000
0010
1001
0010
,
0000
1000
0110
1000
,
0000
0001
0110
0001
,
0000
0010
0110
0010
,
0000
0001
1001
0001
,
0000
0100
0110
0100
,
0000
1000
1001
1000
,
0010
1000
0010
0100
,
0001
0010
0001
0100
,
0010
1000
0100
1000
,
0010
0100
0001
0010
,
0001
1000
0010
1000
,
0100
0010
0001
0100
,
0110
0000
0000
1001
0000
0000
0110
0000
,
0000
1001
0000
0000
0010
0000
1000
0000
,
0200
0000
0000
0000
0000
0000
0000
0000
0000
0300
0000
1000
,
0002
0000
0000
0003
,
0020
0000
0000
0000
0000
0000
0000
0000
0000
0030
0000
0001
,
2000
0000
0000
3000
,
0020
0000
0000
0000
0000
0000
0230
0000
0000
0300
0000
0001
,
2000
0000
0000
3020
,
0230
0000
0000
0000
0000
0000
0000
0000
0000
0300
0000
0001
,
2000
0000
0000
3000
,
0010
0000
0000
1000
0000
0000
0100
0000
0000
0000
0000
1000
,
0002
0100
0010
0103
,
1000
0000
0000
0001
0000
0000
0100
0000
0000
0000
0000
0010
,
2000
0100
0010
3001
,
0100
0000
0000
0010
0000
0000
1000
0000
0000
0000
0000
0010
,
0200
0001
1000
0301
,
0010
0000
0000
0001
0000
0000
1000
0000
0000
0000
0000
0010
,
0200
0010
0001
0301
,
2002
0003
0010
3100
,
0001
0000
0000
0010
0000
0000
0001
0000
,
1000
0000
0001
0000
1000
0000
0010
0100
,
1001
0000
0000
0002
0000
0000
0023
0000
,
0032
0000
0000
2003
0000
0000
3200
0000
,
2300
0010
0000
3010
,
0200
0000
0300
0001
2000
0000
3000
0000
,
0001
0000
0000
0010
0000
0000
0100
0000
,
1000
0000
0000
0001
0000
0000
1000
0010
,
0100
0000
0000
0001
0000
1000
0001
0000
,
0020
0032
0203
2300
,
3020
0000
0000
0032
0000
0000
0203
0000
,
0320
0000
0000
2030
0000
0000
3200
0000
,
2300
0001
0010
3001
,
0200
0000
0300
0001
0020
0000
0030
0000
,
0002
0000
0000
1003
0000
0010
0100
0000
,
0020
0000
0000
2030
0000
0000
3100
0010
,
0001
0000
0000
1000
0000
0100
0010
0000
,
0100
0000
1000
0001
0000
0000
0010
0000
,
0220
0000
0000
0000
0030
0310
0002
2000
,
0000
0000
0000
0000
0003
3010
0200
0002
,
0000
0000
0000
0000
0303
1000
0001
0200
,
0000
0000
0000
0320
0000
0000
1030
0001
,
0010
0000
0001
0000
0100
0000
0001
0010
,
0100
0000
1000
0000
0010
0000
1000
0100
,
0002
0000
0000
0000
0000
0013
0100
2000
,
0000
0000
0000
0000
3001
0100
0010
1000
,
0100
0100
0220
0000
,
0030
0000
0000
0310
0000
0000
0000
0000
,
0000
0000
0002
0000
,
0000
0000
0000
2003
0000
0000
0000
0000
,
3010
0000
0000
0000
2000
0000
0000
3002
,
0000
0000
0000
0203
0000
0000
0000
0000
,
0000
0000
0320
0000
,
0000
0000
0000
0000
,
0000
0000
0000
0000
,
0030
0000
0000
0000
;

//---------------dance-single - ----------------
#NOTES:
     dance-single:
     :
     Medium:
     10:
     :
0000
0000
0000
0000
,
0000
0000
0000
0000
,
0000
0000
0000
0000
,
0000
0000
0000
0000
,
0000
0000
0000
0000
,
0000
0000
0000
0000
,
0000
0000
0000
0000
,
0000
0000
0000
0000
,
0010
0000
1000
0000
0100
0010
0001
0000
,
2000
0000
3002
0000
,
0013
0000
0001
0000
1000
0010
0100
0000
,
0002
0000
2003
0000
,
3100
0000
1000
0000
0010
0100
0001
0000
,
0020
0000
0000
0000
0230
0000
0000
1300
,
0001
0000
0010
0000
0001
0100
1000
0000
,
0020
0000
0000
1030
0002
0000
0000
0000
,
0103
0020
0000
0000
1030
0100
1000
0001
,
0010
0200
0000
0000
1300
0001
1000
0100
,
0010
0002
0000
0000
0013
0100
1000
0010
,
1000
0002
0000
0000
0000
0103
0010
1000
,
0001
0100
0010
0000
1000
0100
0010
0000
,
0001
1000
0100
1000
0002
0000
0000
0000
,
0013
0001
1000
0000
0010
1000
0100
0000
,
1000
0010
0100
0010
1000
0000
0200
0000
,
0310
0100
0010
0000
0001
1000
0100
0000
,
0010
0100
1000
0001
0100
0010
1000
0000
,
0001
0010
0001
0000
1000
0010
1000
0000
,
0001
0000
0100
0010
1000
0001
0010
0000
,
0001
0000
0100
0010
0000
0000
1000
0010
,
0000
0000
0100
0001
0000
0000
0010
0100
,
0000
0000
1000
0001
0000
0000
1000
0100
,
0000
0000
0010
0001
0000
0000
0100
0010
,
0000
0000
1000
0001
0000
0000
0010
0100
,
0000
0000
0010
0001
0000
0001
1000
0100
,
0000
0000
1000
0010
0000
0000
0100
0001
,
0000
0000
0010
0100
0000
0100
0010
0001
,
1000
0000
0010
0100
0001
0000
0010
0001
,
1000
0000
0010
0100
0000
0100
0001
0010
,
0100
0000
1000
0010
1000
0000
0100
0010
,
0001
0000
1000
0001
0000
0100
0010
1000
,
0001
0000
0010
0001
1000
0000
0001
0100
,
0010
0000
1000
0100
0000
1000
0001
0100
,
0010
0000
1000
0001
0000
0000
0010
0100
,
0000
1000
0100
0010
0000
0001
1000
0001
,
0200
0000
0000
0000
0000
0000
0000
0000
0000
0300
0000
0001
,
2000
0000
0020
3000
,
0230
0000
0000
0000
0000
0000
0000
0000
0000
0300
0000
0001
,
1000
0000
0100
0000
1000
0000
0001
0000
0100
0000
0001
0000
,
0020
0000
0230
0000
,
2300
0000
0000
3002
,
0200
0000
0000
0000
0000
0000
0003
0000
0000
0300
0000
0001
,
2000
0000
0010
3000
,
0110
0000
0000
0001
0000
1000
0100
0000
0000
0000
0000
0010
,
0001
0000
0010
0001
0000
0000
1001
0000
0000
0000
0000
0000
,
0110
0000
0000
0100
0000
0001
1000
0000
0000
0000
0000
0010
,
1000
0000
0010
1000
0000
0010
1000
0000
0000
1001
0000
0000
,
0110
0000
0000
0001
0000
1000
0100
0000
0000
1000
0000
0001
,
0100
0000
0010
1000
0000
0000
0100
0000
0010
0001
0000
0000
,
1001
0000
0000
0010
0000
1000
0100
0000
0000
0010
0000
0001
,
0100
0000
0100
0010
0000
0010
1000
0000
1000
0001
0000
0000
,
0202
0000
0303
0000
1000
0100
0010
0001
,
0100
0000
0010
1000
0000
0010
1000
0000
,
0001
0100
0001
0100
0010
1000
0010
1000
,
1001
0000
0010
0001
0000
1000
0100
0000
,
1000
0000
0010
0100
0000
0001
0100
0000
,
0020
0000
1030
0000
0010
0100
0001
0000
,
2000
0000
3001
1000
0200
0010
0300
0001
,
0100
0010
1000
0001
0000
0100
0010
0000
,
1000
0000
0001
0100
0000
0001
0010
0100
,
1000
0000
0010
0001
0000
0100
0010
0000
,
1000
0001
1000
0001
0000
0100
0010
0000
,
1010
0000
0010
1000
0100
0000
0001
0000
,
0011
0000
0100
0010
1000
0000
0001
0000
,
0200
0000
0010
0000
0000
0301
1000
0000
,
0020
0000
1030
0001
0200
0000
0300
0000
,
0002
0000
0013
0001
0100
0010
1000
0000
,
0020
0000
0000
2030
0000
0000
3100
0010
,
0001
0000
0100
0010
0000
1000
0001
0000
,
0020
0000
0000
0230
0000
0000
1300
0000
,
2020
0000
0030
0001
0000
3001
1000
0010
,
0100
0000
0001
0000
0100
0010
1000
0001
,
0010
0000
0001
0100
0000
0010
1000
0001
,
0010
0000
0001
0100
0010
0000
1000
0200
,
0001
0000
0010
0000
0301
0000
1000
0020
,
0100
0000
0001
0000
1030
0000
0010
0100
,
0001
0000
0000
0001
0000
0000
0001
0000
1000
0000
0000
1000
0000
0000
1000
0000
,
0010
0000
0000
0010
0000
0000
0010
0000
1000
0000
0100
0000
1000
0000
0001
0000
,
0100
0010
0100
0010
2000
0000
0000
0001
,
0000
0000
0000
0200
0000
0000
0000
0000
,
0000
0000
3300
0000
0020
0000
0000
0032
,
0000
0000
0000
2003
0000
0000
0000
0000
,
3010
0000
0000
0000
2000
0000
0000
0100
,
0000
0000
0000
0020
0000
0000
0000
0000
,
0000
3030
2200
0000
,
0000
0000
0000
0000
,
0000
0000
0000
0000
,
3300
0000
0000
0000
;

//---------------dance-single - ----------------
#NOTES:
     dance-single:
     :
     Hard:
     13:
     :
0000
0000
0000
0000
,
0000
0000
0000
0000
,
0000
0000
0000
0000
,
0000
0000
0000
0000
,
0000
0000
0000
0000
,
0000
0000
0000
0000
,
0000
0000
0000
0000
,
0000
0000
0000
0000
,
0010
0000
0100
0000
1000
0001
0100
0000
,
0010
0000
0000
1000
0000
0000
0000
0000
0001
0000
0010
0000
0100
0000
0000
0000
,
1000
0000
0001
0000
0100
0010
1000
0000
,
0001
0000
0000
0010
0000
0000
0001
0000
0100
0000
0010
0000
1000
0000
0000
0000
,
0100
0000
1000
0001
0000
0100
0000
0010
,
1000
0000
0000
0001
0000
0000
1000
0000
0001
0000
0100
0000
0010
0000
1000
0100
,
1000
0000
0001
0000
0100
0010
0100
0000
,
0001
0000
0010
0000
0100
0000
1000
0001
1000
0000
0010
0000
0100
0000
0001
0000
,
0020
0200
0030
0000
1300
0010
0100
0010
,
1000
0000
0001
0200
0000
0000
0000
0000
0310
0000
0100
0000
0001
0000
1000
0000
,
0100
0010
0000
0000
0001
0100
0001
0100
,
0010
0000
1000
0002
0000
0000
0000
0000
0000
1003
0100
0010
0001
0010
0100
1000
,
0001
0000
0100
0000
0010
0000
0100
0000
1000
0000
0100
0000
0001
0000
1000
0010
,
1000
0100
0001
0100
2000
0000
0000
0000
,
3010
0000
1000
0000
0100
0000
0001
0000
0100
0000
0010
0000
0100
0000
1000
0001
,
1000
0010
0001
0010
1000
0100
0010
0001
,
0100
0000
1000
0000
0100
0000
0001
0000
0010
0000
1000
0000
0010
0000
0100
0010
,
0100
1000
0010
0001
0010
0100
0010
1000
,
0001
0000
0100
0000
1000
0000
0100
0000
0001
0000
0010
0000
0100
1000
0100
1000
,
0100
0000
0000
0000
0010
0000
0001
0000
1000
0000
0001
0000
0100
0010
0100
0010
,
0100
0000
0001
0100
1001
0000
0010
1000
,
0100
0000
0010
0001
1000
0001
0100
0010
,
1000
0000
0100
0010
0110
0000
0001
1000
,
0010
0000
1000
0100
0010
0100
0010
0001
,
0100
0000
0001
1000
0101
0000
0010
0100
,
0001
0000
0010
0001
1000
0010
1000
0001
,
0100
0000
0010
1000
1100
0000
0001
0010
,
0100
0000
1000
0010
0000
0100
0010
1000
,
0001
0000
0100
0010
1000
0000
1000
0100
,
0001
0000
0010
0001
0100
0000
0100
0010
,
1000
0000
0100
1000
0001
0000
0010
0001
,
0100
0000
0000
0000
0001
0000
0010
0000
1000
0000
0000
0000
0001
0010
0001
0000
,
0100
0000
0010
1000
0100
0000
0001
0010
,
1000
0000
0000
0000
0001
0000
0100
0000
0000
0000
0010
1000
0010
0000
0100
0000
,
1001
0000
0010
0110
0000
0001
0100
1000
,
0010
1000
0100
0010
0000
0001
1000
0001
,
0200
0000
0000
0000
0000
0000
0000
0000
0000
0000
0000
0000
0300
0000
0001
0100
,
0002
0000
2000
3000
,
0023
0000
0000
0000
0000
0000
0000
0000
0000
0000
0000
0000
0030
0000
0100
1000
,
0100
0000
0010
0000
0001
0000
1000
0000
0001
0000
0100
0000
,
0020
0000
0000
0000
0000
0000
0000
0000
2000
0000
0000
0000
3030
0000
0001
0100
,
0002
0000
0000
0000
0000
0000
0013
0000
0000
0001
0000
0100
,
0020
0000
0000
0000
0000
0000
0000
0000
2000
0000
0000
0000
3030
0000
0001
0100
,
0001
0000
0000
0000
0000
1000
0010
0000
0000
0100
0000
0000
,
0110
0000
0000
0000
0000
0000
0000
0000
0000
0000
0000
0000
0001
0000
0000
0000
0000
0000
0000
0000
0001
0000
0000
0000
0010
0000
0000
0000
0000
0000
0000
0000
0000
0000
0000
0000
0000
0000
0000
0000
0000
0000
0001
0000
0000
1000
0000
0000
,
0001
0000
0100
0010
0000
0000
1010
0000
0001
0000
0100
0000
,
0020
0000
0000
1030
0000
0000
0110
0000
0000
0001
0000
0100
,
0010
0000
1000
0000
0001
0000
0010
0000
0001
0000
1000
0000
,
0020
0000
0000
0000
0000
0130
0001
0000
0000
1000
0000
0001
,
0100
0000
0010
1000
0000
0000
1100
0000
0000
0101
0000
0000
,
2020
0000
0000
3000
0000
0130
0010
0000
0000
1000
0000
0001
,
1000
0000
1000
0100
0000
0100
1000
0010
0100
0001
0000
0000
,
0011
1000
0100
0000
1000
0010
0100
0001
,
0010
0000
0000
0000
0001
0000
0001
0000
0000
0000
1000
0000
0010
0100
0010
0100
,
0010
0000
1000
0000
1000
0000
0001
0100
0001
0000
1000
0000
0010
0000
0101
0000
,
1001
0000
0010
0001
0000
0010
0100
0000
,
1000
1000
0010
0100
0000
0001
1000
0000
,
0010
1000
0100
0010
0001
0100
1000
0000
,
0001
0000
0010
0000
0001
0000
0100
0000
0100
0000
0110
0000
0000
0010
1000
0000
,
0100
0010
0001
1000
0000
0001
0100
0000
,
0010
0000
1000
0000
0001
0000
0100
0000
0000
0000
0001
0000
1000
0100
1000
0100
,
1000
0000
0010
1000
0100
0010
0001
0000
,
0100
0001
1000
0200
0000
0010
0320
0000
,
0031
0100
0010
1000
0100
0010
0001
0000
,
1000
0010
1000
0002
0000
0013
0200
0000
,
1300
0010
0100
0010
1000
0000
0101
0000
,
2100
0000
0000
0000
3001
0000
0100
0010
0100
0000
0001
0000
0000
1000
0000
0000
,
0110
0000
1000
0010
0000
2000
0100
0000
,
3001
0000
0010
0000
0001
0000
1000
0000
0010
0000
0000
0000
0100
0001
0100
0001
,
0100
0010
1000
0001
0010
0100
1000
0000
,
1010
0000
0001
0100
0020
0000
2030
0000
,
3001
0000
0100
0000
0010
0000
1000
0000
0000
0000
0001
0010
0001
0000
1000
0000
,
0100
0000
0010
0000
0001
0000
0100
0000
0000
0000
0010
1000
0010
0000
0100
0000
,
0001
0000
1000
0000
0001
0000
0100
0000
0000
0000
0010
1000
0010
0000
0100
0000
,
0001
0010
0100
0001
0100
1000
0010
1000
,
0001
0100
0010
1000
0100
0000
1000
0001
,
0010
0000
0001
0000
0100
0000
0010
0000
0100
0000
0001
1000
0001
0000
0100
0000
,
0010
0000
0000
0010
0000
0000
1000
0000
0010
0000
1000
0001
1000
0000
0100
0000
,
0010
0000
0001
0000
0100
0010
0100
0000
0001
0000
1000
0100
1000
0000
0000
0000
,
0010
0000
0100
0001
0100
0001
0100
0000
1001
0000
0000
0000
1000
0000
0010
0000
,
0000
0000
0100
0002
0000
0000
0000
0000
,
0000
0000
0000
0000
0013
0000
0001
1000
,
0000
0000
0010
0200
0000
0000
0000
0000
,
0310
0000
0000
0000
1000
0100
1000
0001
,
0000
0000
0100
0020
0000
0000
0000
0000
,
0000
0030
2200
0000
,
0000
0000
0000
0000
,
0000
0000
0000
0000
,
3300
0000
0000
0000
;
