#TITLE:Another Saturday Night;
#SUBTITLE:;
#ARTIST:Cat Stevens;
#TITLETRANSLIT:;
#SUBTITLETRANSLIT:;
#ARTISTTRANSLIT:;
#GENRE:;
#CREDIT:;
#BANNER:Another Saturday Night-bn.png;
#BACKGROUND:Another Saturday Night-bg.png;
#LYRICSPATH:;
#CDTITLE:;
#MUSIC:Another Saturday Night.ogg;
#OFFSET:0.000000;
#SAMPLESTART:13.161000;
#SAMPLELENGTH:20.000000;
#SELECTABLE:YES;
#DISPLAYBPM:137.000000:143.000000;
#BPMS:0.000000=140.000000
,16.000000=138.000000
,20.000000=138.500000
,24.000000=137.000000
,32.000000=138.240005
,48.000000=139.000000
,52.000000=142.000000
,60.000000=141.000000
,64.000000=140.300003
,70.000000=139.500000
,80.000000=139.000000
,92.000000=141.000000
,104.000000=140.389999
,110.000000=139.800003
,128.000000=140.089996
,140.000000=139.000000
,144.000000=140.199997
,152.000000=142.000000
,158.000000=141.000000
,168.000000=140.000000
,172.000000=137.539993
,174.000000=142.000000
,176.000000=140.100006
,180.000000=139.134995
,184.000000=143.000000
,190.000000=141.199997
,196.000000=140.339996
,202.000000=139.875000
,220.000000=142.199997
,228.000000=141.649994
;
#STOPS:
;
#BGCHANGES:;
#KEYSOUNDS:;
#ATTACKS:;

//---------------dance-single - ----------------
#NOTES:
     dance-single:
     :
     Beginner:
     3:
     0.137128,0.201578,0.057594,0.000000,0.000000,100.000000,94.000000,6.000000,0.000000,0.000000,0.000000,0.137128,0.201578,0.057594,0.000000,0.000000,100.000000,94.000000,6.000000,0.000000,0.000000,0.000000:
// measure 0
0000
0000
0000
0000
,  // measure 1
0000
0000
0000
0000
,  // measure 2
0000
0000
0000
0000
,  // measure 3
0000
0000
0000
0000
,  // measure 4
0010
0000
0000
0000
,  // measure 5
0100
0000
0000
0000
,  // measure 6
0001
0000
1000
0000
,  // measure 7
1001
0000
0000
0000
,  // measure 8
1000
0000
0001
0000
,  // measure 9
0100
0000
0010
0000
,  // measure 10
0000
0000
0010
0000
,  // measure 11
1000
0000
0000
0000
,  // measure 12
0001
0000
0010
0000
,  // measure 13
0100
0000
1000
0000
,  // measure 14
0000
0000
0001
0000
,  // measure 15
0100
0000
0000
0000
,  // measure 16
1001
0000
0000
0000
,  // measure 17
0100
0100
0000
0000
,  // measure 18
1000
0000
0001
0000
,  // measure 19
1000
0000
0000
0000
,  // measure 20
0010
0000
0010
0000
,  // measure 21
0100
0000
0001
0000
,  // measure 22
1000
0000
0001
0000
,  // measure 23
0010
0000
0000
0000
,  // measure 24
0100
0000
0100
0000
,  // measure 25
0001
0000
1000
0000
,  // measure 26
0000
0000
0010
0000
,  // measure 27
1000
0000
0000
0000
,  // measure 28
0010
0000
0010
0000
,  // measure 29
0100
0000
0001
0000
,  // measure 30
0000
0000
0001
0000
,  // measure 31
1000
0000
0000
0000
,  // measure 32
0110
0000
0000
0000
,  // measure 33
0001
0001
0000
0000
,  // measure 34
1000
0000
1000
0000
,  // measure 35
1000
0000
0000
0000
,  // measure 36
0010
0000
0010
0000
,  // measure 37
0100
0000
0100
0000
,  // measure 38
0010
0000
0100
0000
,  // measure 39
0001
0000
0000
0000
,  // measure 40
1000
0000
0001
0000
,  // measure 41
0100
0000
0010
0000
,  // measure 42
0000
0000
0010
0000
,  // measure 43
0100
0000
0000
0000
,  // measure 44
0001
0000
0001
0000
,  // measure 45
1000
0000
1000
0000
,  // measure 46
0000
0000
0100
0000
,  // measure 47
0010
0000
0000
0000
,  // measure 48
0110
0000
1000
0000
,  // measure 49
0001
0001
0001
0000
,  // measure 50
0100
0000
0010
0000
,  // measure 51
1000
1000
1000
0000
,  // measure 52
0110
0000
0010
0000
,  // measure 53
0100
0100
0100
0000
,  // measure 54
0000
0000
0001
0000
,  // measure 55
0001
0000
1000
0000
,  // measure 56
1000
0000
0010
0000
,  // measure 57
0010
0000
0100
0000
,  // measure 58
0100
0000
0001
0000
,  // measure 59
0010
0000
1000
0000
,  // measure 60
1001
0000
0000
0000
;

//---------------dance-single - ----------------
#NOTES:
     dance-single:
     :
     Easy:
     6:
     0.301681,0.374359,0.268771,0.153583,0.000000,220.000000,192.000000,28.000000,16.000000,0.000000,0.000000,0.301681,0.374359,0.268771,0.153583,0.000000,220.000000,192.000000,28.000000,16.000000,0.000000,0.000000:
0000
0000
0000
0000
,
0000
0000
0000
0000
,
0000
0000
0000
0000
,
0000
0000
0000
0000
,
0010
0100
0001
0001
,
0010
0100
1000
1000
,
0001
1000
0010
0100
,
0110
2002
0000
3003
,
0001
1000
0010
1000
,
0001
0010
0100
0100
,
0000
0001
0100
1000
,
0010
0100
0010
0000
,
1000
0100
0001
1000
,
0001
0100
0010
0010
,
0000
1000
0100
0010
,
0001
2002
0000
3003
,
0110
0000
0010
0100
,
0001
0100
0010
0000
,
1000
0100
0002
0003
,
0020
0130
0000
1000
,
0001
0101
1100
0000
,
1000
1100
0101
0000
,
0010
0100
0001
1000
,
0100
0010
1000
0001
,
1000
0001
0010
0001
,
1000
0010
0100
0100
,
0000
0001
0010
0100
,
0001
1000
0100
0000
,
0010
1000
0010
0100
,
1000
0100
0001
0001
,
0000
0010
0001
0100
,
1000
0220
0000
0330
,
1001
0000
0010
1000
,
0100
1000
0010
0000
,
0200
0300
0002
1003
,
0010
1100
0010
0101
,
1000
1001
0101
0000
,
0001
1100
0010
0110
,
0020
2030
3002
0203
,
0301
0010
0100
1000
,
0010
0100
0001
0100
,
0001
0010
1000
1000
,
0000
0100
1000
0010
,
0100
0001
1000
0000
,
0010
1000
0001
0010
,
0001
1000
0100
0100
,
0000
1000
0010
0100
,
0001
2200
3300
0101
,
1001
0100
0010
1000
,
0001
0001
1000
1000
,
0110
0100
0001
0010
,
1000
0100
0001
0001
,
0101
0100
0010
1000
,
0001
0001
0010
0100
,
0000
1100
0001
0000
,
1001
0100
0001
0000
,
0110
1000
0010
0000
,
0110
0100
0010
0000
,
0101
0001
0010
0000
,
1100
0100
1000
0000
,
1001
0000
0000
0000
;

//---------------dance-single - ----------------
#NOTES:
     dance-single:
     :
     Medium:
     10:
     0.485433,0.517264,0.393557,0.297568,0.000000,354.000000,313.000000,41.000000,31.000000,0.000000,0.000000,0.485433,0.517264,0.393557,0.297568,0.000000,354.000000,313.000000,41.000000,31.000000,0.000000,0.000000:
0000
0000
0000
0000
,
0000
0000
0000
0000
,
0000
0000
0000
0000
,
0000
0000
0000
0000
,
0020
1000
0000
0001
0000
1000
0030
0001
,
0200
0001
0000
1000
0000
0001
0300
1000
,
0100
2000
0000
3010
0100
0002
0000
1003
,
0000
0001
2002
0000
0003
0100
3100
0100
,
0001
1000
0001
1000
0000
0010
0100
0001
,
0000
0101
0000
0100
0020
0000
0230
0000
,
0300
0100
0100
0010
1000
0001
0010
0001
,
1000
1000
0000
1100
0000
0000
0000
0100
,
0001
2000
0000
3020
0000
0130
0010
0200
,
0000
0302
0000
1003
0001
0000
0011
0000
,
0000
0010
0010
0100
0001
1000
0000
1010
,
0000
0100
0220
0000
0000
0000
0330
0000
,
1001
0000
0000
0100
0001
0010
0001
0010
,
0100
1000
1000
0000
0000
0000
0000
0001
,
0100
0010
0100
0001
2000
0000
3000
0001
,
0100
0000
0110
0000
0000
0010
0001
1000
,
0001
0001
0100
0010
1000
1000
0000
0010
,
0100
0100
0001
1000
0010
0010
0000
1000
,
0001
0001
0100
0010
1000
1000
0000
1100
,
0000
0000
0220
0000
0300
0100
0130
0100
,
0001
0010
0001
1000
0000
1000
0100
0010
,
0000
0011
0000
0010
0002
0000
2003
0000
,
3000
1000
1000
0010
0100
0010
0100
0001
,
0010
0010
0000
0110
0000
0000
0000
0100
,
0001
2000
0000
3200
0000
0310
0001
0020
,
0000
0032
0000
0103
0010
0000
1010
0000
,
0000
1000
1000
0010
0100
0001
0000
0011
,
0000
0010
2002
0000
0000
0000
3003
0000
,
0101
0000
0000
0010
1000
0100
1000
0010
,
0100
0001
0001
0000
0000
1000
1000
0001
,
0100
0110
0000
0010
1000
0001
0000
1001
,
0100
0000
0000
0000
0000
0001
1000
0010
,
0100
0100
0010
1000
0001
0001
0000
0100
,
0010
0010
0100
0001
1000
1000
0001
0100
,
0002
0000
2003
0000
3001
0100
0000
0110
,
0000
1100
0000
0101
0000
0100
0100
0100
,
0010
0100
0010
1000
0000
1000
0001
0100
,
0000
0110
0000
0100
0001
0000
1001
0000
,
0000
0010
0010
0100
0001
1000
0100
1000
,
0001
0001
0000
1100
0000
0000
0000
0100
,
1000
0001
0000
0101
0000
0100
0010
2000
,
0000
3002
0000
1003
0100
0000
0011
0000
,
0000
0001
0001
0100
0010
0010
0000
1100
,
0000
0001
0022
0000
0030
0100
0103
0100
,
0001
0010
0100
1000
0000
0010
1000
1100
,
0000
1010
0000
1001
0001
0100
1000
0000
,
0010
1000
1000
1000
0001
0001
0100
0100
,
0010
0010
0100
0110
0000
0001
0001
1000
,
0010
0100
0001
1000
0000
1000
0001
1100
,
0000
0011
0000
0110
0010
0001
1000
0000
,
0001
1000
1000
0010
0100
0100
0000
0110
,
0000
0100
0100
0001
1000
1000
0000
0101
,
0000
1000
1000
0001
0010
0010
0000
1100
,
0000
0100
0100
0001
0010
0010
0000
0011
,
0000
0010
0010
1000
0001
0001
0000
1010
,
0000
0001
0001
0100
1000
1000
0000
1001
;

//---------------dance-single - ----------------
#NOTES:
     dance-single:
     :
     Hard:
     13:
     0.630789,0.632211,0.460750,0.038396,0.153583,460.000000,412.000000,48.000000,4.000000,0.000000,0.000000,0.630789,0.632211,0.460750,0.038396,0.153583,460.000000,412.000000,48.000000,4.000000,0.000000,0.000000:
0000
0000
0000
0000
,
0000
0000
0000
0000
,
0000
0000
0000
0000
,
0000
0000
0000
0000
,
0010
0000
1000
0001
0100
0000
0010
0000
0000
0000
0001
0000
0000
0000
0100
0000
,
0001
0000
1000
0010
0100
0000
0010
0000
0000
0000
1000
0000
0000
0000
0001
0000
,
0010
0000
0001
1000
0001
0000
0100
0000
0010
0000
1000
0000
0010
0000
0100
0000
,
0001
1000
2002
0000
0003
0100
3100
0100
,
1000
0001
0100
0010
0000
0010
1000
1100
,
0000
0101
0000
1001
0010
0100
0010
0000
,
1000
0001
0001
0001
0100
0100
0010
0010
,
1000
1000
0001
1100
0000
0100
0100
0010
,
1000
0100
0010
0001
0000
0001
0100
0110
,
0000
1010
0000
0101
1000
0100
1000
0000
,
0100
0010
0010
0010
1000
1000
0001
0001
,
0100
0010
1000
0100
0010
0001
1000
0000
,
1001
0000
0100
0010
0010
1000
1000
0001
,
0100
0100
0101
0000
1000
0001
1000
0010
,
0100
0100
0100
0001
1000
1000
0010
0100
,
0001
1000
0100
0000
1010
0000
0001
0001
,
1000
0100
1000
0000
0010
0000
0010
0000
0001
0100
0001
0000
0000
0000
0110
0000
,
1000
0000
1000
0000
0010
0000
0010
0000
0100
0001
1000
0000
0000
0000
1100
0000
,
0001
0001
0100
0100
0010
0010
1000
1000
,
0100
0000
1010
0000
0011
0100
0100
0100
,
0001
0010
0100
1000
0000
1000
0001
1010
,
0000
1100
0000
0011
1000
0010
0100
0000
,
0001
1000
1000
1000
0010
0010
0100
0100
,
0010
0010
0001
0110
0000
1000
1000
0001
,
0010
0001
0100
1000
0000
1000
0010
0101
,
0000
1100
0000
0110
0001
0100
1000
0000
,
0010
1000
1000
1000
0001
0001
0100
0100
,
0010
0000
1000
0000
0100
0000
0000
0100
0010
0000
0001
0000
1000
0000
0000
0000
,
0110
0000
0100
0001
0001
1000
1000
0010
,
0100
0100
0011
0000
0001
1000
1000
1000
,
1010
0110
0000
0100
0010
1000
0001
0010
,
0001
0000
0001
0000
0001
0100
1000
0000
1000
0000
1000
0100
,
0001
0010
0100
0000
1000
0000
1000
0000
0010
1000
0001
0000
0000
0000
1001
0000
,
0010
0000
0010
0000
0100
0000
0100
0000
0001
0010
1000
0000
0001
0000
0001
0000
,
0101
0100
1100
0000
1010
0100
0001
0011
,
0100
1001
0000
0220
0030
0001
0301
0001
,
1000
0100
0001
0010
0000
0010
0100
1001
,
0000
0000
0000
0101
0000
0000
0000
0000
0000
0011
0000
0000
0100
0000
0000
0001
0000
0000
0010
0000
0001
0000
0100
0000
,
0001
1000
1000
1000
0100
0100
0010
0010
,
0001
0000
0001
0000
0010
1000
0000
1000
0100
0000
0100
0000
0010
0001
0000
0001
,
1000
0001
0010
0100
0000
0100
1000
0011
,
0000
1100
0000
0110
1000
0100
0001
0000
,
0010
0010
1000
1000
0001
0001
0100
0100
,
0001
0000
1000
0000
0001
0000
1001
0000
0000
0000
0000
0000
0100
0000
0000
0100
0000
0000
0100
0000
0000
0100
0000
0000
,
0001
0010
0100
1000
0010
0100
0001
1000
,
0100
0000
0001
0000
1000
0000
0010
0000
0100
0010
1000
0000
0101
0000
0000
0000
,
0010
1000
1000
1000
0100
0100
0010
0010
,
0001
0100
0000
0100
0010
0000
1000
0000
0001
0010
0001
0010
0001
0010
0001
0010
,
0001
0100
0010
1000
0100
0010
1000
0001
,
1000
0000
0100
0000
0001
0000
0010
0000
0100
0010
0001
0000
1010
0000
0000
0000
,
0100
0001
0001
0001
0001
1000
1000
0110
,
0000
1000
1000
1000
1000
0100
0100
1010
,
0000
0001
0001
0001
0001
0010
0010
1100
,
0000
0100
0100
0100
0100
0010
0010
0101
,
0000
0010
0010
0010
0010
1000
1000
0011
,
0000
0100
0100
0100
0100
0001
0001
1001
;
