#VERSION:0.83;
#TITLE:Anisakais -somatic mutation type "Forza"-;
#SUBTITLE:;
#ARTIST:SUZAKU;
#TITLETRANSLIT:;
#SUBTITLETRANSLIT:;
#ARTISTTRANSLIT:;
#GENRE:;
#ORIGIN:;
#CREDIT:;
#BANNER:Anisakis -somatic mutation type Forza--bn.png;
#BACKGROUND:Anisakis -somatic mutation type Forza--bg.png;
#PREVIEWVID:;
#JACKET:Anisakis -somatic mutation type Forza--jacket.png;
#CDIMAGE:;
#DISCIMAGE:;
#LYRICSPATH:;
#CDTITLE:;
#MUSIC:Anisakis -somatic mutation type Forza-.ogg;
#OFFSET:0.000000;
#SAMPLESTART:32.432434;
#SAMPLELENGTH:20.000000;
#SELECTABLE:YES;
#DISPLAYBPM:185.000000;
#BPMS:0.000=185.000;
#STOPS:32.000=2.270,
161.000=4.865,
166.000=0.973,
179.000=0.973,
190.000=0.324,
193.000=0.324,
196.000=0.324,
199.000=0.324,
232.000=0.973,
233.000=0.973,
361.667=0.325;
#DELAYS:;
#WARPS:;
#TIMESIGNATURES:0.000=4=4;
#TICKCOUNTS:0.000=4;
#COMBOS:0.000=1;
#SPEEDS:0.000=1.000=0.000=0;
#SCROLLS:0.000=1.000;
#FAKES:;
#LABELS:0.000=Song Start;
#BGCHANGES:;
#KEYSOUNDS:;
#ATTACKS:
;

//---------------dance-single - X Scale 13----------------
#NOTEDATA:;
#CHARTNAME:;
#STEPSTYPE:dance-single;
#DESCRIPTION:X Scale 13;
#CHARTSTYLE:;
#DIFFICULTY:Hard;
#METER:13;
#RADARVALUES:0.569495,0.762540,0.661959,0.294204,0.117682,542.000000,452.000000,90.000000,40.000000,0.000000,0.000000,0.000000,0.000000,0.000000,0.569495,0.762540,0.661959,0.294204,0.117682,542.000000,452.000000,90.000000,40.000000,0.000000,0.000000,0.000000,0.000000,0.000000;
#CREDIT:;
#DISPLAYBPM:185.000000;
#NOTES:
0000
0000
0000
0000
,
0000
0000
0000
0000
,
0000
0000
0000
0000
,
0000
0000
0000
0000
,
0000
0000
0000
0000
,
0000
0000
0000
0000
,
0000
0000
0000
0000
,
0000
0000
0000
0000
,
1001
0000
1001
0000
1000
0100
0001
0000
,
1000
0010
0001
0000
0100
0001
0010
0001
,
0100
0000
0110
0000
0010
1000
0100
0000
,
0010
0001
0100
0000
0010
1000
0001
1000
,
0010
0000
1100
0000
0001
0100
0010
0000
,
1000
0100
0010
0000
1000
0001
0100
0001
,
1000
0000
0011
0000
0001
0100
1000
0000
,
0010
0100
0110
0220
0000
0000
0330
0000
,
1001
0000
0010
1000
0100
0010
0001
0000
,
1000
0001
0200
0000
0300
0000
0202
0000
,
0303
0000
0001
1000
0010
0100
0001
0000
,
0010
0100
2000
0000
3000
0000
2200
0000
,
3300
0000
1000
0010
0100
0010
0001
0010
,
0100
0000
0001
0010
0100
0010
1000
0010
,
0100
0000
0001
0001
0100
0000
1000
1000
,
0100
2002
0000
0000
,
3003
0000
1000
0100
0001
1000
0010
0001
,
1000
0100
0001
0100
1000
0000
1100
0000
,
0101
0000
0010
1000
0100
0010
0001
0100
,
0010
1000
0100
0010
0001
0000
0100
0010
,
1000
0000
0001
0010
1000
0001
0100
1000
,
0001
0010
1000
0010
0001
0000
0011
0000
,
1010
0000
0010
0100
0010
0100
0001
1000
,
0001
0000
1001
2002
0000
0000
3003
0000
,
0110
0000
1000
0100
0010
0001
0100
0010
,
1000
0001
0200
0010
0310
0000
0101
0000
,
1010
0000
0100
0010
0001
1000
0010
1000
,
0001
0100
0002
1000
1003
0000
1100
0000
,
0011
0000
0010
1000
0100
1000
0100
0001
,
0010
0001
2000
0010
3010
0000
1001
0000
,
0110
0000
0001
0010
0001
0010
1000
0010
,
1000
0010
0001
0100
0001
0100
1000
0100
,
1000
0100
1001
0000
0001
0100
1000
0100
,
0001
0000
0011
0000
0101
0000
1000
0010
,
0001
0010
1000
0000
1100
0000
1001
0000
,
1001
0000
0220
0000
0330
0000
0010
1000
,
0001
1000
0010
0000
1010
0000
1100
0000
,
0011
1010
0101
1100
,
1000
0010
0100
0010
2000
0000
3000
0000
,
0110
1001
0110
1100
,
0101
1100
0011
1010
,
0011
0011
0110
1100
,
1020
0130
0110
0110
,
0201
0310
1001
1001
,
1000
0000
1000
0010
0000
0000
0001
0000
0001
0010
0000
0000
,
0100
0000
0100
0010
0000
0010
1000
0000
1000
0001
0000
0000
,
2002
0000
0000
0000
,
0000
0000
0000
3003
,
1100
0101
1100
0101
,
1000
0001
1000
0001
1000
0001
1000
0001
1000
0001
1000
0001
,
1000
0000
1001
0000
0001
0010
0100
1000
,
0001
0000
0100
0000
0010
0000
1000
0000
0001
0000
0000
0001
1000
0000
0000
1000
,
0001
0100
0100
0000
1000
0100
0010
0001
,
1000
0000
0010
0000
0100
0000
0001
0000
0100
0000
0000
0100
0010
0000
0000
0010
,
0100
0001
0001
0000
1000
0010
0001
0010
,
1000
0000
0101
0000
0001
0010
1000
0010
,
0001
1010
1100
0011
,
0110
0000
1001
0000
1000
0100
0010
0001
,
0010
0100
1000
0000
0010
0100
0001
0100
,
0010
0000
1000
0000
0001
0000
1000
0000
0100
0000
0000
0100
1000
0000
0000
1000
,
0100
0010
0010
0000
0001
1000
0100
0010
,
1000
0000
0100
0000
0001
0000
0010
0000
0001
0000
0000
0001
0010
0000
0000
0010
,
0100
1000
1000
0000
0001
0100
1000
0100
,
0001
0000
1100
0000
1000
0100
0001
0100
,
1000
0011
0110
1010
,
0110
0000
0101
0000
1000
0001
1000
0001
,
0100
0010
0100
0010
0220
0000
0000
0000
,
0000
0330
2020
0000
,
3000
0130
2002
0000
,
0000
3003
0022
0030
,
0100
1003
2002
0000
,
0000
3003
2200
0000
,
0000
3300
0202
0000
,
0000
0303
0220
0000
,
0000
0000
0000
0000
0330
0000
0000
0000
0010
0000
1000
0000
0100
0000
0000
1000
,
0001
0000
0100
0000
0001
0000
0010
0000
0001
0000
0100
0000
1000
0000
0000
0001
,
1000
0000
0010
0000
0100
0000
0010
0000
1000
0000
0100
0000
0010
0000
0000
0010
,
0001
0100
0001
1000
1010
0000
0101
0000
,
0011
0000
1100
0000
1000
0100
0001
0100
,
1000
0010
0100
0000
0001
0010
1000
0010
,
0001
0100
0010
0000
1001
0000
0110
0000
,
1001
0000
0000
0110
0000
0000
1000
0100
1000
0001
0100
0001
,
1000
0100
1000
0001
0100
0001
2002
0000
0000
0000
0000
0000
,
0000
0000
0000
0000
,
0000
0000
0000
0000
,
0000
0000
0000
0000
,
0000
3003
0000
0000
;

//---------------dance-single - X Scale 9----------------
#NOTEDATA:;
#CHARTNAME:;
#STEPSTYPE:dance-single;
#DESCRIPTION:X Scale 9;
#CHARTSTYLE:;
#DIFFICULTY:Medium;
#METER:9;
#RADARVALUES:0.443408,0.625552,0.456016,0.492792,0.000000,422.000000,360.000000,62.000000,67.000000,0.000000,0.000000,0.000000,0.000000,0.000000,0.443408,0.625552,0.456016,0.492792,0.000000,422.000000,360.000000,62.000000,67.000000,0.000000,0.000000,0.000000,0.000000,0.000000;
#CREDIT:;
#DISPLAYBPM:185.000000;
#NOTES:
// measure 0
0000
0000
0000
0000
,  // measure 1
0000
0000
0000
0000
,  // measure 2
0000
0000
0000
0000
,  // measure 3
0000
0000
0000
0000
,  // measure 4
0000
0000
0000
0000
,  // measure 5
0000
0000
0000
0000
,  // measure 6
0000
0000
0000
0000
,  // measure 7
0000
0000
0000
0000
,  // measure 8
1001
1001
0100
0010
,  // measure 9
0001
0000
0100
0000
1000
0000
0001
1000
,  // measure 10
0100
0110
0010
1000
,  // measure 11
0100
0000
0001
0000
1000
0000
0010
0100
,  // measure 12
0001
0011
0100
0010
,  // measure 13
0100
0000
1000
0000
0001
0000
0010
0001
,  // measure 14
1000
1100
0001
0101
,  // measure 15
1000
0000
0020
0200
0000
0000
0330
0000
,  // measure 16
0110
0000
1000
0000
1000
0100
0010
0000
,  // measure 17
0010
0001
0200
0000
0300
0000
0202
0000
,  // measure 18
0303
0000
0001
0000
0001
0100
0010
0000
,  // measure 19
0010
0100
2000
0000
3000
0000
2200
0000
,  // measure 20
3300
0000
1001
0000
0100
0000
0001
0010
,  // measure 21
1000
0000
0110
0000
1000
0000
0100
0010
,  // measure 22
0001
0011
1000
1010
,  // measure 23
0001
2002
0000
0000
,  // measure 24
3003
0000
1000
0100
1000
0000
0001
0100
,  // measure 25
0001
0000
0010
0100
0010
0000
1010
0000
,  // measure 26
0011
0000
1000
0001
0010
0000
0001
1000
,  // measure 27
0100
0020
0130
0110
,  // measure 28
1001
0000
0001
0010
0001
0000
1000
0010
,  // measure 29
1000
0000
0100
0010
0100
0000
1100
0000
,  // measure 30
0101
0000
0001
1000
0001
0000
0100
0010
,  // measure 31
0100
0000
0002
2000
0000
0000
3003
0000
,  // measure 32
1001
0000
0001
1000
0001
0000
0010
1000
,  // measure 33
0010
0000
0100
1000
0100
0000
1100
0000
,  // measure 34
0011
0000
0100
0010
1000
0000
0100
0010
,  // measure 35
0001
2000
3001
1001
,  // measure 36
0110
0000
0100
0001
0100
0000
0010
0001
,  // measure 37
0010
0000
1000
0001
1000
0000
0101
0000
,  // measure 38
1010
0000
0010
1000
0100
0000
0010
0001
,  // measure 39
0100
0000
0001
1000
0001
1000
0001
1000
,  // measure 40
0001
0000
1001
0000
0001
0000
0100
0010
,  // measure 41
0100
0001
1100
0010
,  // measure 42
1000
0001
1000
0000
0010
0000
0200
0000
,  // measure 43
0301
0220
0330
0010
,  // measure 44
1000
0100
1000
0000
0010
0000
0101
0000
,  // measure 45
2000
3200
0320
0032
,  // measure 46
0103
0010
0100
0010
0200
0000
0300
0000
,  // measure 47
0002
1003
1001
2000
,  // measure 48
3001
1001
0020
0130
,  // measure 49
0110
0200
0310
0110
,  // measure 50
2000
3100
1100
0101
,  // measure 51
0020
0130
0101
1100
,  // measure 52
0002
0023
0230
2300
,  // measure 53
3020
0230
0302
1003
,  // measure 54
2002
0000
0000
0000
,  // measure 55
0000
0000
0000
3003
,  // measure 56
0020
0230
0302
2003
,  // measure 57
3010
0100
0010
0100
0010
0100
0010
0100
,  // measure 58
0010
0000
1001
0000
0010
1000
0100
0000
,  // measure 59
0100
0001
0010
0000
0001
0000
0001
0000
,  // measure 60
0001
1000
0100
0000
0010
1000
0001
0000
,  // measure 61
0100
0010
1000
0000
0100
0000
0100
0000
,  // measure 62
0100
1000
0010
0000
1000
0000
0001
0000
,  // measure 63
0100
0110
0010
0100
,  // measure 64
1000
1100
0002
0203
,  // measure 65
0320
2030
3100
0100
,  // measure 66
1000
0001
1000
0001
0010
0001
0100
0000
,  // measure 67
0010
0100
1000
0000
0010
0000
0010
0000
,  // measure 68
0010
1000
0100
0000
1000
0010
0001
0000
,  // measure 69
0100
0010
0001
0000
1000
0000
1000
0000
,  // measure 70
1000
0010
0100
0000
0001
0000
0010
0000
,  // measure 71
1000
0011
1000
0100
,  // measure 72
0010
1001
0200
0320
,  // measure 73
2030
3002
0013
0010
,  // measure 74
0001
0100
0001
0100
0220
0000
0000
0000
,  // measure 75
0000
0330
2020
0000
,  // measure 76
0000
3030
2002
0000
,  // measure 77
0000
3003
0022
0000
,  // measure 78
0000
0033
2002
0000
,  // measure 79
0000
3003
2200
0000
,  // measure 80
0000
3300
0022
0000
,  // measure 81
0000
0033
2002
0000
,  // measure 82
0000
0000
3003
0000
0010
1000
0100
0000
,  // measure 83
0010
0001
0100
0000
0001
0010
1000
0000
,  // measure 84
0001
0100
1000
0000
0010
0100
0010
0000
,  // measure 85
1000
0001
1000
0000
0011
0000
1100
0000
,  // measure 86
0101
0000
1010
0000
0010
0100
0010
0100
,  // measure 87
0001
0000
0001
0000
0010
0100
0010
0100
,  // measure 88
1000
1000
1001
0110
,  // measure 89
1001
0000
0110
0000
1000
0001
1000
0001
,  // measure 90
0100
0010
0100
0010
2002
0000
0000
0000
,  // measure 91
0000
0000
0000
0000
,  // measure 92
0000
0000
0000
0000
,  // measure 93
0000
0000
0000
0000
,  // measure 94
0000
0000
3003
0000
;

//---------------dance-single - X Scale 6----------------
#NOTEDATA:;
#CHARTNAME:;
#STEPSTYPE:dance-single;
#DESCRIPTION:X Scale 6;
#CHARTSTYLE:;
#DIFFICULTY:Easy;
#METER:6;
#RADARVALUES:0.296306,0.486540,0.272139,0.330980,0.000000,282.000000,245.000000,37.000000,45.000000,0.000000,0.000000,0.000000,0.000000,0.000000,0.296306,0.486540,0.272139,0.330980,0.000000,282.000000,245.000000,37.000000,45.000000,0.000000,0.000000,0.000000,0.000000,0.000000;
#CREDIT:;
#DISPLAYBPM:185.000000;
#NOTES:
0000
0000
0000
0000
,
0000
0000
0000
0000
,
0000
0000
0000
0000
,
0000
0000
0000
0000
,
0000
0000
0000
0000
,
0000
0000
0000
0000
,
0000
0000
0000
0000
,
0000
0000
0000
0000
,
1001
1001
0100
0010
,
1000
0001
0000
1000
,
0000
0110
0010
1000
,
0001
0100
0000
0010
,
0000
0101
0010
0001
,
0100
1000
0000
0100
,
0000
1001
0000
0110
,
0000
2002
0000
0000
,
3003
1000
0100
0010
,
0001
0200
0300
0202
,
0303
0001
1000
0100
,
0010
2000
3000
2200
,
3300
1000
0100
0000
,
0100
0001
0100
0000
,
0100
1001
0000
0110
,
0000
2002
0000
0000
,
3003
1000
0100
0010
,
0001
0100
0010
1000
,
0001
0100
0001
0010
,
1000
0001
0010
0100
,
1000
0010
0100
0010
,
0100
1000
0001
1000
,
0001
0010
0001
0100
,
1000
0220
0000
0000
,
0330
0010
0100
0010
,
0100
2000
3000
0002
,
0003
1000
0001
1000
,
0001
0200
0300
0020
,
0030
1000
0100
1000
,
0100
0010
0001
0010
,
0001
1000
0001
0100
,
0010
0100
1000
0010
,
0001
1001
0010
0000
,
0010
0000
0010
1000
,
0000
1000
0000
0001
,
0000
0001
0000
0100
,
0000
0100
0000
0100
,
0001
0000
0001
0000
,
1000
0000
1000
0000
,
0010
0010
0010
1000
,
1000
1000
0100
0100
,
0100
0001
0001
0001
,
0010
0010
1000
1000
,
0100
0100
0001
0001
,
1100
1000
0101
0001
,
0100
0010
1001
0110
,
2002
0000
0000
0000
,
0000
0000
0000
3003
,
2000
3200
0320
0032
,
0103
0100
0100
0100
,
0110
1001
0010
1000
,
0100
0001
0010
0010
,
0010
0010
0100
0010
,
1000
0001
0100
0100
,
0100
0100
0001
0000
,
0101
0000
1000
0000
,
1100
0000
0200
0320
,
2030
3002
0103
0000
,
0100
0000
0001
0010
,
0100
1000
0001
0001
,
0001
0001
0100
1000
,
0010
0001
1000
1000
,
1000
1000
0010
0000
,
1100
0000
0010
0000
,
0101
0000
2000
3200
,
0320
0032
0013
0000
,
0010
0000
2002
0000
,
0000
3003
0200
0000
,
0000
0300
0020
0000
,
0000
0030
0200
0000
,
0000
0300
0202
0000
,
0000
0303
2200
0000
,
0000
3300
2002
0000
,
0000
3003
0220
0000
,
0000
0330
1000
0100
,
0001
0100
1000
0010
,
0001
0010
1000
0001
,
0100
0010
0100
0001
,
1000
0010
1000
0100
,
1100
0000
0001
0100
,
0101
0000
1001
0110
,
1001
0110
1000
1000
,
0001
0001
2002
0000
,
0000
0000
0000
0000
,
0000
0000
0000
0000
,
0000
0000
0000
0000
,
0000
0000
3003
0000
;

//---------------dance-single - X Scale 4----------------
#NOTEDATA:;
#CHARTNAME:;
#STEPSTYPE:dance-single;
#DESCRIPTION:X Scale 4;
#CHARTSTYLE:;
#DIFFICULTY:Beginner;
#METER:4;
#RADARVALUES:0.136595,0.243270,0.117682,0.095616,0.000000,130.000000,114.000000,16.000000,13.000000,0.000000,0.000000,0.000000,0.000000,0.000000,0.136595,0.243270,0.117682,0.095616,0.000000,130.000000,114.000000,16.000000,13.000000,0.000000,0.000000,0.000000,0.000000,0.000000;
#CREDIT:;
#DISPLAYBPM:185.000000;
#NOTES:
0000
0000
0000
0000
,
0000
0000
0000
0000
,
0000
0000
0000
0000
,
0000
0000
0000
0000
,
0000
0000
0000
0000
,
0000
0000
0000
0000
,
0000
0000
0000
0000
,
0000
0000
0000
0000
,
1001
1000
0000
0000
,
0000
0000
0000
0000
,
0000
0001
0000
0000
,
0000
0000
0000
0000
,
0000
0100
0000
0000
,
0000
0100
0000
0000
,
0000
0010
0000
0000
,
0000
0010
0000
0000
,
0000
1000
0000
0000
,
0000
0010
0000
0010
,
0000
0010
0000
0000
,
0000
0100
0000
0100
,
0000
0100
0000
0000
,
0000
0001
0000
0000
,
0000
1000
0000
0000
,
0000
1001
0000
0000
,
0000
0000
0100
0000
,
0100
0000
0010
0000
,
0010
0000
1000
0000
,
0001
0000
0000
0000
,
0000
0000
1000
0000
,
1000
0000
0001
0000
,
0001
0000
0100
0000
,
0010
0000
0000
0000
,
0000
1000
0000
1000
,
0000
1000
0000
0000
,
0000
0001
0000
0001
,
0000
0001
0000
0000
,
0000
0110
0000
0000
,
0000
1001
0000
0000
,
0000
1000
0000
0001
,
0000
0010
0000
0000
,
0000
1001
0000
0000
,
0000
0000
0100
0000
,
0000
0000
0000
1000
,
1000
2000
3000
0000
,
0000
0000
0000
0010
,
0001
0000
0000
0000
,
0100
0100
0100
0000
,
0220
0330
0000
2002
,
3003
0000
0220
0330
,
0000
2002
3003
0000
,
0010
0000
0010
0000
,
0100
0000
0100
0000
,
1000
0000
0001
0000
,
1000
0000
0001
0000
,
2002
0000
0000
3003
,
0000
0000
0000
0000
,
1000
0000
0000
0000
,
0010
0000
0100
0000
,
0001
1001
0001
0000
,
0001
0000
1000
0000
,
1000
0000
0010
0000
,
0010
0000
0100
0000
,
0100
0000
0001
0000
,
0000
0000
1000
0000
,
0000
0000
0100
0000
,
0100
0000
1001
0000
,
0000
0000
0010
0000
,
0010
0000
1000
0000
,
1000
0000
0001
0000
,
0001
0000
0100
0000
,
0100
0000
0010
0000
,
0000
0000
0100
0000
,
0000
0000
0001
0000
,
1000
0000
0110
0000
,
0000
0000
1001
0000
,
0000
0000
0000
0000
,
0000
0000
0100
0000
,
0000
0000
0010
0000
,
0000
0000
1000
0000
,
0000
0000
0001
0000
,
0000
0000
0100
0000
,
0000
0000
1001
0000
,
0000
0000
0000
0010
,
0000
1000
0000
0001
,
0000
0100
0000
0001
,
0000
0010
0000
0000
,
0000
0000
1000
0000
,
0000
0000
0001
0000
,
0000
0000
0010
0000
,
0100
0000
0001
0000
,
1000
0000
2002
0000
,
0000
0000
0000
0000
,
0000
0000
0000
0000
,
0000
0000
0000
0000
,
0000
0000
3003
0000
;
