#TITLE:Angelic Jelly;
#ARTIST:t+pazolite;
#BANNER:Angelic Jelly.png;
#BACKGROUND:Angelic Jelly-bg.png;
#JACKET:Angelic Jelly-jacket.png;
#MUSIC:Angelic Jelly.ogg;
#SAMPLESTART:86.397;
#SAMPLELENGTH:20;
#DISPLAYBPM:100:200;
#BPMS:0=200,76=100,108=200;
#BGCHANGES:;

//---------------dance-single - ----------------
#NOTES:
     dance-single:
     :
     Beginner:
     4:
     :
0000
0000
0000
0000
,
0000
0000
0000
0000
,
0000
0000
0000
0000
,
0000
0000
0000
0000
,
0000
0000
0000
0000
,
0000
0000
0000
0000
,
0000
0000
0000
0000
,
1000
0000
0000
0000
,
0001
0000
0000
0000
,
0100
0000
0000
0000
,
0020
0000
0030
0000
,
1000
0000
0000
0000
,
0001
0000
0000
0000
,
1000
0000
0000
0000
,
0010
0000
0010
0000
,
1000
0000
1000
0000
,
0001
0000
0001
0000
,
0010
0000
0010
0000
,
0010
0010
0010
0010
,
0010
0000
0001
0000
,
1000
0000
0100
0000
,
0001
0000
0001
0000
,
1000
0000
1000
0000
,
0010
0000
0001
0000
,
0100
0000
1000
0000
,
0001
0000
0001
0000
,
1000
0000
0100
0000
,
0020
0000
0000
0000
,
0000
0000
0000
0030
,
0000
0000
0000
0000
,
0010
0000
0000
0000
,
0001
0000
0001
0000
,
0010
0000
0000
0000
,
1000
0000
1000
0000
,
0010
0000
0000
0000
,
0010
0000
0010
0000
,
0100
0000
0000
0000
,
0100
0000
0000
0000
,
1001
0000
0000
0000
,
0010
0000
0000
0000
,
0001
0000
0000
0000
,
1000
0000
0000
0000
,
0100
0000
0000
0000
,
0001
0000
0001
0000
,
1000
0000
1000
0000
,
0001
0000
0001
0000
,
0010
0010
0010
0000
,
0010
0000
0000
0000
,
1001
0000
0000
0000
,
0110
0000
0000
0000
,
1001
0000
0000
0000
,
0001
0000
0000
0000
,
1001
0000
0000
0000
,
0110
0000
0000
0000
,
1001
0000
0000
0000
,
1000
0000
0000
0000
,
1001
0000
0000
0000
,
0110
0000
0000
0000
,
1001
0000
0000
0000
,
0001
0000
1000
0000
,
0001
0000
1000
0000
,
0010
0010
0010
0010
,
0020
0000
0030
0000
,
0100
0000
0000
0000
,
0010
0000
0000
0000
,
0001
0000
0000
0000
,
1000
0000
0000
0000
,
0100
0000
0000
0000
,
0001
0000
0001
0000
,
1000
0000
1000
0000
,
0001
0000
0001
0000
,
0100
0000
0000
0000
,
0010
0000
0010
0000
,
0001
0000
0001
0000
,
0100
0000
0100
0000
,
1000
0000
0000
0000
,
0001
0000
0001
0000
,
1000
0000
1000
0000
,
0010
0010
0010
0010
,
0010
0000
0100
0000
,
0002
0000
0003
0000
,
2000
0000
3000
0000
,
0002
0000
0003
0000
,
2000
0000
3000
0000
,
0001
0000
0001
0000
,
1000
0000
1000
0000
,
0010
0000
0010
0000
,
0100
0000
0100
0000
,
0000
0000
0000
0000
;

//---------------dance-single - ----------------
#NOTES:
     dance-single:
     :
     Easy:
     6:
     :
0000
0000
0000
0000
,
0000
0000
0000
0000
,
0000
0000
0000
0000
,
0000
0000
0000
0000
,
0000
0000
0000
0000
,
0000
0000
0000
0000
,
0000
0000
0000
0000
,
0001
0001
0001
0000
,
1000
1000
1000
0000
,
0001
0001
0010
0010
,
0200
0000
0300
0000
,
0001
0001
1000
0000
,
1000
1000
0001
0000
,
0001
0001
1000
1000
,
0010
0010
0010
0000
,
0001
0010
0001
0000
,
1000
0010
1000
0000
,
0001
1000
0001
1000
,
0010
0010
0010
0010
,
0010
0000
1000
0001
,
0100
0000
0010
0000
,
2000
3100
0002
0103
,
2000
3200
0310
0010
,
0002
0103
2000
3100
,
0002
0103
0010
0000
,
2000
3100
0002
0103
,
1000
0010
0100
0001
,
2000
0000
0000
0000
,
0000
0000
0000
3000
,
0000
0000
0000
0000
,
1001
0000
0000
0000
,
0001
0001
0010
0000
,
0001
0010
0001
0000
,
1000
1000
0010
0000
,
1000
0010
1000
0000
,
0001
0001
0100
0000
,
0001
0100
0001
0000
,
1000
1000
0100
0100
,
0010
0000
0000
0000
,
1000
0000
0010
0000
,
1000
0001
1000
0000
,
0100
0000
1000
0000
,
0010
0010
0000
0000
,
1000
1000
0010
0000
,
1000
1000
0001
0000
,
0010
0001
0010
0001
,
0010
0010
0010
0000
,
0001
0000
0000
1000
,
0100
0000
0000
0001
,
0100
0000
0000
0001
,
0010
0010
0010
0000
,
1000
0000
0000
0010
,
0100
0000
0000
1000
,
0010
0000
0000
1000
,
0001
0001
0001
0000
,
0001
0000
0000
1000
,
0100
0000
0000
0001
,
0100
0000
0000
0100
,
0010
0010
0010
0000
,
0001
1000
0001
1000
,
0001
1000
0001
1000
,
0010
0010
0100
0100
,
0001
0000
0001
0000
,
1000
0000
0000
0000
,
0010
0010
1000
0000
,
0001
0000
1000
0001
,
0100
0000
0010
0000
,
1001
0000
0000
0000
,
0010
0000
0001
0010
,
0100
0000
1000
0001
,
0100
0000
0001
0001
,
0010
0000
0010
0000
,
0001
0001
0100
0000
,
0001
0000
1000
0001
,
0100
0000
0010
0001
,
1000
0000
0000
0000
,
0010
0001
0010
0001
,
1000
0100
1000
0000
,
0001
1000
0001
1000
,
0010
0000
1001
0000
,
0020
0030
0020
0030
,
0002
0003
0002
0003
,
2000
3000
2000
3000
,
0200
0000
0300
0000
,
0010
0010
0001
0001
,
1000
1000
0001
0001
,
1000
1000
0010
0010
,
0200
0300
0002
0003
,
0000
0000
0000
0000
;

//---------------dance-single - ----------------
#NOTES:
     dance-single:
     :
     Medium:
     11:
     :
0000
0000
0000
0000
,
0000
0000
0000
0000
,
0000
0000
0000
0000
,
0000
0000
0000
0000
,
0000
0000
0000
0000
,
0000
0000
0000
0000
,
0000
0000
0000
0000
,
0001
0010
0001
0000
1000
0000
0000
0000
,
1000
0010
1000
0000
0001
0000
0000
0000
,
0010
0001
1000
0000
0001
0010
0001
0010
,
0001
0100
1000
0100
,
0001
0010
0100
0000
1000
0000
0000
0000
,
1000
0010
0100
0000
0001
0000
0000
0000
,
1000
0100
1000
0000
0001
0100
0001
0000
,
1000
0010
1000
0010
0100
0000
0001
0000
,
0010
0100
0010
0011
,
0001
0100
0010
1010
,
1000
0010
1000
0000
0001
0010
0001
0000
,
1000
0100
1000
0100
1000
0000
0001
0100
,
0001
0000
0000
1000
0001
0010
0001
1000
,
0200
0300
2000
3000
,
0001
0001
0100
0001
0100
0010
1000
0001
,
1000
1000
0100
0010
0100
0010
0001
1000
,
0010
0010
0100
0010
1000
0001
0100
0001
,
0100
0100
0010
0100
0001
0010
0100
1000
,
0001
0001
0010
0001
0100
0010
0100
0010
,
1000
1000
0100
0010
0100
0001
0100
1000
,
0020
0000
0000
0000
,
0000
0000
0000
0030
,
0000
0000
0000
0000
,
0010
1000
0010
0000
0100
0000
0101
0000
,
0001
1000
0100
0000
0010
0000
0001
0000
,
1000
0001
0100
0000
0010
0000
1010
0000
,
1000
0100
1000
0000
0010
0001
0010
0000
,
0001
0100
0010
0100
0001
0000
1001
0000
,
1000
0010
0100
0000
0010
0000
1000
0000
,
0001
0010
0100
0000
0010
0000
0011
0000
,
0100
1000
0100
0000
1000
0001
1000
0001
,
0100
0000
0000
1001
,
0010
0000
1000
0000
0001
0100
0001
0000
,
0010
0011
0110
1100
,
1000
0001
1000
0000
0001
0010
0001
0000
,
2000
3020
0130
0000
,
0001
0100
0001
0000
0100
0000
0010
0000
,
1000
0010
1000
0000
1000
0001
0100
0000
,
0001
1000
0001
0000
0001
0100
0001
0100
,
0001
1000
0100
1001
,
0100
0001
0000
0100
0000
0010
0000
0000
,
0100
0001
0000
1000
0000
0100
0000
0000
,
1000
0010
0000
0100
0000
0010
0000
0000
,
1000
0100
1000
0000
1000
0001
1000
0000
,
0100
1000
0000
0100
0000
0010
0000
0000
,
0100
1000
0000
0001
0000
0100
0000
0000
,
0001
0010
0000
0100
0000
0010
0000
0000
,
0001
0100
0001
0000
0010
1000
0010
0000
,
0100
0001
0000
1000
0000
0100
0000
0000
,
0010
0001
0000
0100
0000
0010
0000
0000
,
1000
0010
0000
0100
0000
0001
0000
0000
,
0010
0001
1000
0000
0100
1000
0100
0000
,
1000
1100
0001
0101
,
1000
1010
0001
0011
,
0100
0010
0100
0000
0010
0001
0010
0001
,
1000
0001
0100
0000
,
0010
1000
0010
0100
0010
0000
0110
0000
,
1000
0010
1000
0000
0001
1000
0001
0000
,
0010
0110
1100
1001
,
1000
0100
1000
0000
0001
0100
0001
0000
,
0100
0010
1001
0000
,
0010
0001
1000
0000
0010
0000
0100
0000
,
0001
0010
0001
0000
1000
0000
0110
0000
,
0001
0000
1000
0000
0001
0010
0001
0010
,
0002
0000
1003
0000
2000
0000
3001
0100
,
0001
0000
1000
0000
0100
0000
0010
0001
,
0010
0110
1100
0101
,
0001
1000
0001
0000
0010
0000
0001
1000
,
0100
0000
1000
0000
1010
0000
0100
0001
,
0100
0000
0001
0000
0010
0001
0010
0000
,
0100
0000
1000
0000
0001
0100
0001
0000
,
1000
0100
1000
0000
0100
0010
0100
0010
,
0100
1000
1001
0000
,
0010
1000
0010
1000
,
0001
0100
0001
0100
,
0001
0010
0001
0010
,
0100
0010
0100
1000
,
0010
1000
0010
0000
1000
0010
1000
0000
,
0001
1000
0001
0000
1000
0001
1000
0000
,
0001
0010
0001
0000
0010
0001
0010
0000
,
0100
0010
0100
0000
1000
0100
1000
0200
,
0000
0000
0000
0300
,
0000
0000
0000
0000
;

//---------------dance-single - ----------------
#NOTES:
     dance-single:
     :
     Hard:
     13:
     :
0000
0000
0000
0000
,
0000
0000
0000
0000
,
0000
0000
0000
0000
,
0000
0000
0000
0000
,
0000
0000
0000
0000
,
0000
0000
0000
0000
,
0000
0000
0000
0000
,
0001
0100
0001
1000
0100
0000
0000
0000
,
1000
0010
1000
0010
0100
0000
0000
0000
,
0001
0010
0001
0010
0100
1000
0001
1000
,
0100
0110
1100
0101
,
1000
0001
1000
0010
0100
0000
0000
0000
,
0001
0010
0001
1000
0100
0000
0000
0000
,
1000
0001
1000
0010
0100
0010
1000
0001
,
0010
0100
0010
0001
1000
0000
0101
0000
,
1000
0100
1000
0000
0010
1000
0010
0100
,
0001
0100
0001
0000
0010
0001
0010
0100
,
1000
1100
0110
1001
,
0100
0010
0100
0010
0100
0001
1000
0100
,
0010
0000
0000
0010
0001
0010
0100
1000
,
0001
0000
0100
0000
0000
0000
1000
0000
0100
0000
0000
0000
0000
0000
0001
0010
,
0001
0000
0001
0000
0100
0000
0010
0000
1000
0001
0100
0000
1000
0001
0100
0000
,
0010
0000
0010
0000
0100
0000
0001
0000
1000
0010
0100
0000
1000
0010
1000
0010
,
0100
0000
0100
0000
0001
0000
0010
0001
1000
0100
0010
0000
1000
0100
0010
0000
,
0001
0000
0001
0000
0100
0000
0001
0010
0001
0010
0100
0000
1000
0010
0100
0010
,
1000
0000
1000
0000
0100
0000
0010
0100
1000
0100
0010
0000
1000
0001
0100
0000
,
0010
0000
0010
0000
0100
0000
0010
0100
0001
1000
0001
0000
1000
0010
1000
0010
,
0200
0000
0000
0000
,
0000
0000
0000
0300
,
0000
0001
0010
0001
1000
0100
0010
0100
,
1000
0010
1000
0001
0010
0000
1001
0000
,
1000
0010
1000
0010
0100
0001
0100
0010
,
0100
0001
1000
0001
0100
0000
0001
0010
,
0001
1000
0001
1000
0010
0100
0010
1000
,
0001
1000
0010
0100
0001
0000
1001
0000
,
0100
1000
0100
1000
0001
1000
0001
0100
,
0010
0100
0001
0100
0010
0000
1000
0100
,
0010
0100
0010
0100
1000
0001
1000
0010
,
0100
0000
0000
0010
1000
0100
1000
0000
,
0011
0000
1000
0100
1000
0001
0100
0010
,
1000
0000
1010
0000
1100
0000
0001
0100
,
0001
0000
0010
0001
0010
0100
1000
0000
,
1001
0000
0110
0000
1000
0100
0000
0000
,
1000
0100
0001
0100
0010
0100
1000
0100
,
0010
0100
0001
0100
1000
0001
0100
0000
,
0010
1000
0010
1000
0001
0100
0010
0100
,
0001
0110
1001
0110
,
0001
0100
0000
0010
0000
0100
0001
0000
,
1000
0100
0000
0010
0000
0100
1000
0000
,
0010
0100
0000
0001
0000
0010
0100
0000
,
1000
0001
0010
0100
0010
0100
1000
0001
,
0100
0010
0000
1000
0000
0010
0100
0000
,
0001
1000
0000
0001
0000
0100
0010
0000
,
0100
0001
0000
1000
0000
0100
0010
0000
,
0001
1000
0010
0100
0010
0100
0001
1000
,
0100
0010
0000
0100
0000
1000
0010
0000
,
0100
0010
0000
0100
0000
0001
0010
0000
,
0100
0010
0000
0001
0000
1000
0100
0000
,
0010
0001
0010
0100
0010
0001
1000
0010
,
1000
0100
0010
0000
1000
0100
0010
0000
,
0001
0100
0010
0000
0001
0100
0010
0000
,
1000
0100
0010
0001
0010
0100
1000
0100
,
0010
0011
1100
0000
,
0010
0100
0001
0100
0010
0100
1000
0100
,
0001
0000
0100
0000
0001
1000
0100
1000
,
0100
0000
0011
0000
0101
0000
1000
0100
,
1000
0001
0100
0001
0010
0100
1000
0001
,
0100
0000
0010
0000
1000
0000
0010
0100
,
0010
0100
0001
0000
0100
0010
0100
0001
,
1000
0100
1000
0000
0001
0010
0001
1000
,
0100
0000
0100
0010
0001
0010
0100
0010
,
0001
0000
0000
0001
0010
0000
0011
0000
,
1000
0000
0100
0000
1000
0001
0100
0001
,
0100
0000
1010
0000
1100
0000
0001
0100
,
0001
1000
0100
1000
0010
0100
0001
0100
,
0010
1000
0010
0101
,
1000
0000
0100
1000
0010
1000
0100
1000
,
0001
0000
0100
0010
0100
0001
1000
0000
,
0100
0010
0001
0010
0100
1000
0100
1000
,
0001
1000
0110
0001
,
1000
0100
1000
0100
1000
0100
1000
0100
,
1000
0001
1000
0001
1000
0001
1000
0001
,
0100
0001
0100
0001
0100
0001
0100
0001
,
0100
0010
0100
0010
0100
0010
1000
0000
,
0001
1000
0001
1000
0010
1000
0010
0100
,
0001
0100
0001
1000
0100
1000
0100
0010
,
0001
0010
0001
1000
0100
1000
0001
0100
,
0001
1000
0010
1000
0001
0010
0100
2000
,
0000
0000
0000
3000
,
0000
0000
0000
0000
;

//---------------dance-single - ----------------
#NOTES:
     dance-single:
     :
     Challenge:
     18:
     :
0000
0000
0000
0000
,
0000
0000
0000
0000
,
0000
0000
0000
0000
,
0000
0000
0000
0000
,
0000
0000
0000
0000
,
0000
0000
0000
0000
,
0000
0000
0000
0000
,
0001
0010
1000
0100
0001
0010
0010
0010
,
0001
0010
1000
0100
0001
0100
0100
0100
,
0001
0000
0010
0000
0100
0000
1000
0010
0000
1000
0001
0100
0001
1000
0100
0000
,
0021
0000
0000
0000
0100
0000
0000
0000
1000
0000
0000
0000
0031
0010
0100
1000
,
0010
1000
1000
0010
1000
0100
0100
0100
,
0001
0010
0100
1000
0010
0001
0001
0001
,
0010
0000
0001
0000
0100
0000
1000
0000
0010
1000
0100
1000
0010
1000
0100
0000
,
0001
0000
0010
0100
1000
0000
0010
0100
0002
0000
1000
0000
2003
0000
0000
0000
,
3010
0100
0101
0010
0001
1000
1000
1000
,
0010
0000
0100
0000
0101
0000
0010
0000
1000
0000
0001
0000
0001
0010
0100
1000
,
0010
0100
0001
1000
0010
0100
0001
1000
0010
0100
0001
1000
0010
0100
0001
1000
,
0010
0001
1000
0100
1000
0100
0001
0010
1000
0010
0100
0001
0100
0001
0010
1000
,
0002
0000
0003
0011
0101
0110
1010
1100
,
1001
0000
0110
0000
0000
0000
0101
0000
2020
0000
0000
0000
0030
0000
3001
1000
,
1100
0000
0101
0000
1001
0000
0010
0100
0001
1000
0110
0000
0001
1000
0110
0000
,
1010
0000
0000
0000
0001
0000
0100
0000
1001
0000
0000
0000
0010
0000
0100
0000
0001
0000
1000
0000
0110
0000
0001
0010
0100
0000
0000
0000
1000
0001
1000
0001
,
0100
0010
0001
1000
0001
1000
0001
1000
0100
0001
0100
1000
0100
0010
0010
0010
,
0001
0100
0010
0100
0001
0100
0010
0001
0010
1000
1000
1000
1000
0001
0100
0010
,
0010
0100
0010
0100
0010
0100
0100
0001
1000
0010
1000
1000
0001
0001
1000
0001
,
0001
0000
0010
0000
0010
0000
0100
0000
0100
0000
0100
0000
0100
0000
1000
0000
0010
0000
1000
0000
0001
0000
1000
0000
1000
0000
0001
0000
0010
0100
0001
1000
,
0010
0000
0000
0000
0100
0000
0001
0010
0000
0000
0001
0000
1000
0000
0100
0000
,
0000
0000
1000
0010
0000
0000
0100
0000
0000
0000
0001
0010
0000
0000
0100
0000
,
1000
0001
0010
0100
0001
0100
0001
0100
1000
0010
1000
0010
1000
0001
0010
0100
,
1000
0000
0100
0000
0001
0000
0100
0000
1000
0000
0000
0000
0010
1000
0001
0100
,
0010
0000
0100
0001
0010
0100
0000
1000
0010
0000
0100
0000
0001
0000
1000
0000
,
0100
0010
0001
0000
1000
0001
0000
0100
0010
0000
1000
0001
1000
0000
0100
0000
,
0001
0000
0010
0100
0010
0001
0000
1000
0010
1000
0100
0000
0010
0000
0001
0000
,
0100
0000
0001
0010
0100
1000
0100
0010
0001
1000
0001
1000
0010
0100
0010
0100
,
0001
0000
0010
0001
0010
0100
0000
1000
0010
1000
0100
0000
0010
0001
0100
0000
,
0001
0010
0001
0100
0010
1000
0000
0100
0010
0000
0001
1000
0001
0000
0100
0000
,
0001
0000
0010
0001
1000
0100
0000
1000
0010
0100
0001
1000
0100
0010
0001
0000
,
0220
0000
0000
0030
0002
0003
0002
0003
0301
0100
1000
0000
0110
0000
0001
0000
,
0100
0000
1000
0000
0010
0000
0100
0000
0001
0000
0010
0100
1000
0100
0010
0001
,
0100
0000
0001
1000
0010
0000
1000
0000
0100
0000
1000
0010
0001
0000
0100
0000
,
0010
1100
0001
1010
0100
1001
0010
0101
,
1000
0000
0011
0000
1000
0000
0110
0000
0001
0000
0100
0010
1000
0010
0100
0001
,
0010
0000
0001
0100
0001
1000
0000
0010
1000
0100
0010
0001
0100
0010
1000
0001
,
1000
0100
0010
0100
0010
0001
0000
0100
0001
0010
0100
1000
0100
0010
0001
0000
,
0100
0000
0001
0010
0001
0010
0100
1000
0010
0001
0100
1000
0100
0001
1000
0010
,
0200
0000
0000
0300
0200
0000
0300
0000
0200
0300
0000
0000
0100
0000
0000
0000
,
0011
0000
0100
0001
0000
0000
0011
0000
0000
0000
1100
0000
0101
0000
0000
0000
,
1010
0000
0001
0010
0000
0000
1100
0000
0000
0000
1010
0000
1100
0000
0000
0000
,
0110
0000
0001
0100
0000
0000
0110
0000
0000
0000
1001
0000
0101
0000
0000
0000
,
0020
0030
0002
1003
0200
0300
2000
3001
0020
0030
0002
0013
0200
0300
2000
3000
,
1010
0000
0101
0000
0000
0000
0011
0000
0000
0000
1000
0100
0001
0000
0000
0000
,
1001
0000
0011
0000
0000
0000
1100
0000
0000
0000
0010
1000
0100
0000
0000
0000
,
0011
0000
1001
0000
0000
0000
0110
0000
0000
0000
0001
1000
0010
0000
0000
0000
,
0100
0000
0001
0010
0100
0000
1000
0010
0100
0000
0010
1000
0100
0001
0100
1000
,
0001
0000
0010
0100
0010
0000
0001
1000
0001
0000
0100
0010
2000
0000
0100
0000
,
3001
0000
1000
0010
1000
0000
0001
0100
0001
0000
0010
0001
2000
0000
0100
0000
,
3010
0000
1000
0001
0100
0000
0010
1000
0001
0000
0010
0100
2000
0000
0001
0000
,
3020
0030
2000
3001
0200
0300
0002
1003
0020
0130
2000
3001
0200
0300
0002
0003
,
1001
0000
0100
0000
0010
1000
0001
0100
0010
0000
1000
0000
0001
0100
0010
1000
,
0100
0000
0010
0000
0100
1000
0010
0001
0100
0000
0001
0000
1000
0010
0001
0100
,
1000
0000
0010
1000
0001
0000
0010
0001
1000
0000
0010
1000
0001
0000
0100
0001
,
0100
0000
0000
0000
0010
0000
0000
0000
0100
0000
0000
0000
0001
1000
0001
1000
,
0002
0023
2030
3200
0302
0023
2030
3200
,
0301
0000
0010
0001
0010
0100
1000
0010
1000
0100
0010
0001
0010
0100
1000
0000
,
0010
0000
1000
0001
1000
0100
0010
0001
0100
0010
1000
0001
1000
0100
0010
0001
,
0100
0000
0010
1000
0001
0010
0001
0100
1000
0100
0010
0100
0001
0010
1000
0001
,
0100
0000
0100
0000
0100
0010
0100
0000
0100
0001
0100
1000
0100
0001
0100
1000
,
0100
0000
0001
0010
0001
1000
0100
0010
0001
0100
0010
1000
0100
1000
0001
0000
,
0010
0000
0001
1000
0001
0010
0100
0010
0001
1000
0100
1000
0010
0000
0100
0000
,
0001
0000
0010
0001
1000
0000
0010
1000
0010
0001
1000
0100
1000
0100
0010
0001
,
0100
0000
0001
0010
0001
0000
1000
0100
0001
0100
1000
0000
1001
0000
0010
0000
,
0101
0000
0100
0001
0010
0100
0000
1000
0010
1000
0100
0010
0001
0100
0001
1000
,
0010
0000
0100
0001
0100
0001
1000
0010
1000
0100
0010
0001
0100
0000
0010
0000
,
1000
0000
0001
0010
0001
0100
1000
0001
0100
0000
0010
0001
0010
1000
0100
0010
,
0001
0000
0100
0000
0001
0010
0100
1000
0010
0100
0001
1000
0001
0100
0010
1000
,
0001
0010
0100
1000
0010
0100
0001
0010
0001
1000
0001
1000
0100
0010
0100
1000
,
0001
0100
1000
0010
0100
0010
0100
0010
1000
0001
1000
0001
0100
0001
1000
0010
,
1000
0100
0010
1000
0010
0001
0010
0001
0100
0001
1000
0100
1000
0100
0010
0001
,
0200
0000
0000
0300
0200
0000
0300
0000
0200
0300
0000
0000
0100
0000
0000
0000
,
0011
0101
1010
1100
0011
1001
1100
0110
,
0011
1010
0101
1010
1100
1001
0011
0110
,
0011
1001
0110
1100
0101
1100
0011
1010
,
0011
0000
0101
0000
1001
0000
1010
0000
1100
0000
0110
0000
0001
0100
0010
1000
,
0100
0010
0001
0010
0001
1000
0100
0010
0001
1000
0100
1000
0100
0010
0001
1000
,
0010
0001
1000
0010
0100
0010
1000
0100
0001
1000
0100
0001
0010
1000
0100
0001
,
1000
0100
0001
0100
0010
1000
0001
0010
1000
0010
0001
0100
1000
0100
0010
0001
,
0010
1000
0100
0001
0100
1000
0100
1000
0100
0001
0010
1000
0001
0010
0001
0010
,
2000
0000
0000
0000
3010
0100
0010
0100
0001
1000
0001
1000
0010
0100
0001
1000
,
0001
0100
0001
0100
0010
1000
0010
1000
0100
1000
0100
1000
0001
0010
0001
0020
,
0200
0000
0000
0000
,
0000
0000
0000
0030
,
0300
0000
0000
0000
;

//---------------dance-double - ----------------
#NOTES:
     dance-double:
     :
     Easy:
     6:
     :
00000000
00000000
00000000
00000000
,
00000000
00000000
00000000
00000000
,
00000000
00000000
00000000
00000000
,
00000000
00000000
00000000
00000000
,
00000000
00000000
00000000
00000000
,
00000000
00000000
00000000
00000000
,
00000000
00000000
00000000
00000000
,
10000000
00100000
10000000
00000000
,
00010000
00100000
01000000
00000000
,
00010000
00010000
00001000
00001000
,
00000020
00000000
00000030
00000000
,
00000001
00000001
00000100
00000000
,
00001000
00001000
00010000
00000000
,
00100000
00100000
00010000
00010000
,
00001000
00001000
00001000
00000000
,
00010000
00010000
00001000
00000000
,
00000010
00000010
00001000
00000000
,
00010000
00001000
00010000
00001000
,
00100000
00010000
00100000
00010000
,
20000000
00000000
31000000
00010000
,
00002000
00003000
00000020
00000030
,
00000001
00000100
00001000
00010000
,
00100000
10000000
01000000
00010000
,
00001000
00010000
00001000
00000100
,
00000001
00000010
00001000
00010000
,
00001000
00010000
01000000
10000000
,
00100000
00010000
00001000
00000100
,
00000020
00000000
00000000
00000000
,
00000000
00000000
00000000
00000030
,
00000000
00000000
00000000
00000000
,
00001001
00000000
00000000
00000000
,
00000001
00000100
00000001
00000100
,
00001000
00001000
00010000
00000000
,
00001000
00010000
00001000
00010000
,
00100000
00100000
01000000
00000000
,
10000000
01000000
10000000
01000000
,
00010000
00010000
00001000
00000000
,
00010000
00001000
01000000
00010000
,
00100000
00000000
00000000
01000000
,
00010000
00000000
00001000
00000000
,
00010000
00001000
00010000
00000000
,
00001000
00000000
00000100
00000000
,
00000010
00000010
00000100
00000000
,
00001000
00010000
00001000
00000000
,
00010000
00001000
00010000
00000000
,
00000010
00010000
00001000
00100000
,
00010000
00010000
00010000
00000000
,
00100000
00000000
00000000
10000000
,
01000000
00000000
00000000
00010000
,
00001000
00000000
00000000
00010000
,
00000010
00001000
00000010
00000010
,
00000100
00000000
00000000
00001000
,
00010000
00000000
00000000
00100000
,
01000000
00000000
00000000
00010000
,
00100000
00001000
00010000
00010000
,
00001000
00000000
00000000
00000010
,
00000100
00000000
00000000
00000001
,
00000100
00000000
00000000
00001000
,
00100000
00010000
00100000
00100000
,
00010000
10000000
00010000
10000000
,
00010000
00100000
00010000
00100000
,
00001000
00010000
00001000
00010000
,
00000100
00000000
00000010
00000000
,
00001001
00000000
00000000
00000000
,
00000010
00000100
00000010
00000100
,
00001000
00001000
00010000
00000000
,
00100000
01000000
00100000
10000000
,
00010000
00000000
00100000
00000000
,
00010000
00100000
00010000
00100000
,
00001000
00001000
00010000
00000000
,
00001000
00000000
00000010
00000001
,
00000010
00000000
00001000
00000000
,
00010000
00001000
00010000
00001000
,
01000000
01000000
00100000
00000000
,
10000000
00100000
10000000
00010000
,
00100000
00000000
00000000
00000000
,
00001000
00010000
00001000
00010000
,
00000010
00000010
00000100
00000000
,
00000001
00000010
00000001
00000010
,
00001000
00000000
00011000
00000000
,
00002000
00003000
00020000
00030000
,
00200000
00300000
20000000
30000000
,
02000000
03000000
00020000
00030000
,
00002000
00000000
00003000
00000000
,
00000010
00000010
00000001
00000001
,
00000100
00000100
00001000
00001000
,
00010000
00010000
00100000
00100000
,
20000000
30000000
02000000
03000000
,
00000000
00000000
00000000
00000000
;

//---------------dance-double - ----------------
#NOTES:
     dance-double:
     :
     Medium:
     10:
     :
00000000
00000000
00000000
00000000
,
00000000
00000000
00000000
00000000
,
00000000
00000000
00000000
00000000
,
00000000
00000000
00000000
00000000
,
00000000
00000000
00000000
00000000
,
00000000
00000000
00000000
00000000
,
00000000
00000000
00000000
00000000
,
00001000
00010000
00000100
00000000
,
00000010
00000001
00000100
00000000
,
00001000
00000000
00010000
00000000
00001000
00010000
00001000
00010000
,
00001000
00100000
01000000
00100000
,
00010000
10000000
01000000
00000000
,
00010000
00001000
01000000
00000000
,
00100000
00010000
00001000
00000010
,
00001000
00010000
01000000
10000000
,
01000000
00010000
00001000
00010000
,
00000010
00000100
00001000
00010000
,
00100000
10000000
00100000
00010000
,
00001000
00010000
00001000
00010000
00001000
00000000
00000100
00000010
,
00000100
00000000
00000000
00000001
00000100
00000001
00000100
00001000
,
00020000
00030000
00200000
00300000
,
10000000
10000000
01000000
00010000
01000000
00010000
00001000
00000000
,
00000010
00000010
00000001
00000010
00000001
00000010
00001000
00010000
,
00001000
00001000
00000100
00000001
00000100
00001000
00010000
00000000
,
00100000
00100000
10000000
00100000
00010000
00001000
00010000
00001000
,
00000100
00000100
00000001
00000010
00001000
00010000
00001000
00000000
,
00010000
00010000
01000000
10000000
01000000
00010000
00001000
00010000
,
02000000
00000000
00000000
00000000
,
00000000
00000000
00000000
03000000
,
00000000
00000000
00000000
00000000
,
10000000
00100000
00010000
00011000
,
00001000
00000100
00000001
00000010
,
00000001
00000000
00000100
00000000
00001000
00000000
00010000
00001000
,
00010000
01000000
10000000
00100000
,
10000000
01000000
00010000
00001000
,
00000010
00000100
00010000
00001000
,
01000000
00000000
00100000
00000000
00010000
00000000
00001000
00010000
,
00001000
00000000
00000100
00000000
00000001
00001000
00000001
00001000
,
00000100
00000000
00000000
00000010
,
00000001
00000100
00001000
00010000
,
00100000
10100000
01010000
00011000
,
00000010
00000001
00000010
00001000
,
00020000
00032000
00013000
01000000
,
10000000
01000000
00010000
00001000
,
00010000
00000010
00000100
00001000
,
00010000
00000000
00100000
00000000
10000000
00100000
10000000
00100000
,
10000000
00100000
00010000
00011000
,
00001000
00010000
00000000
00000100
00000000
00000010
00000000
00000000
,
00000001
00000010
00000000
00000100
00000000
00001000
00000000
00000000
,
00000100
00000010
00000000
00001000
00000000
00010000
00000000
00000000
,
00001000
00000000
00010000
00000000
00100000
01000000
00100000
00000000
,
10000000
00100000
00000000
01000000
00000000
00010000
00000000
00000000
,
10000000
00010000
00000000
10000000
00000000
01000000
00000000
00000000
,
00100000
00010000
00000000
00100000
00000000
00001000
00000000
00000000
,
00010000
00000000
00000010
00000000
00001000
00000100
00001000
00000000
,
00000001
00000100
00000000
00000010
00000000
00001000
00000000
00000000
,
00000010
00000100
00000000
00001000
00000000
00010000
00000000
00000000
,
00001000
00010000
00000000
00100000
00000000
01000000
00000000
00000000
,
00100000
00000000
00010000
00000000
00001000
00010000
00001000
00000000
,
00100000
00001000
00000000
00000000
01000000
00010000
00000000
00000000
,
00100000
00001000
00000000
00000000
00010000
00000010
00000000
00000000
,
00001000
00000000
00000100
00000000
00000010
00000001
00000010
00000001
,
00000010
00001000
00010000
00000000
,
00001000
00010000
00001000
00000000
00010000
00000000
01000000
00000000
,
10000000
01000000
00010000
00001000
,
00000010
00000011
00001100
00011000
,
00100000
10000000
00100000
00010000
,
00002000
00010000
00013000
00000100
,
00000010
00001000
00010000
00001000
,
00100000
00001000
00010000
00000010
,
00000100
00000000
00000001
00000000
00001000
00000100
00001000
00000100
,
00002000
00003010
00000020
00000130
,
00000001
00000100
00001000
00010000
,
00100000
10100000
01010000
00011000
,
00000100
00000000
00000001
00000000
00000010
00000000
00000001
00000010
,
00000001
00000010
00001000
00010000
,
00001000
00100000
00001000
00010000
,
00000010
00000100
00001000
00010000
,
00100000
00000000
10000000
00000000
00010000
01000000
00010000
01000000
,
00010000
10000000
01000000
00000000
,
00010000
00001000
00010000
00001000
,
00000010
00000001
00000010
00000001
,
00000100
00001000
00000100
00001000
,
00010000
00001000
00010000
00000000
,
00100000
10000000
01000000
00010000
,
00001000
00000010
00000001
00000100
,
00001000
00010000
01000000
10000000
,
00100000
00000000
00010000
00000000
00001000
00010000
00001000
00020000
,
00000000
00000000
00000000
00030000
,
00000000
00000000
00000000
00000000
;

//---------------dance-double - ----------------
#NOTES:
     dance-double:
     :
     Hard:
     13:
     :
00000000
00000000
00000000
00000000
,
00000000
00000000
00000000
00000000
,
00000000
00000000
00000000
00000000
,
00000000
00000000
00000000
00000000
,
00000000
00000000
00000000
00000000
,
00000000
00000000
00000000
00000000
,
00000000
00000000
00000000
00000000
,
10000000
00100000
10000000
00010000
00100000
00000000
00000000
00000000
,
00001000
00010000
00000010
00010000
00001000
00000000
00000000
00000000
,
00000100
00000010
00000100
00001000
00000001
00000100
00000010
00000100
,
00001000
00011000
01010000
11000000
,
00100000
00010000
00100000
00001000
00010000
00000000
00000000
00000000
,
00000010
00001000
00000010
00010000
00001000
00000000
00000000
00000000
,
01000000
00010000
01000000
00100000
10000000
00010000
00100000
00001000
,
00010000
00000010
00001000
00000001
00000100
00000000
00000010
00000000
,
00001000
00000001
00000010
00000000
00000100
00000010
00000100
00010000
,
00001000
00010000
00001000
00000000
01000000
00010000
10000000
01000000
,
00100000
00110000
00011000
00001010
,
00000100
00000001
00000100
00000001
00001000
00000100
00000010
00000001
,
00001000
00000000
00000000
00000001
00000100
00001000
00010000
00100000
,
10000000
00000000
00010000
00000000
00000000
00000000
10000000
00000000
01000000
00000000
00000000
00000000
00000000
00000000
00100000
00010000
,
00100000
00000000
00001000
00000000
00000000
00000000
00010000
00000000
00000010
00010000
00001000
00000000
00000010
00010000
00001000
00000000
,
00000100
00000000
00000000
00000001
00000000
00000000
00000010
00000000
00000001
00000100
00000010
00000000
00000001
00000100
00000001
00000100
,
00000010
00000000
00000100
00000000
00000000
00000000
00001000
00000000
00010000
00001000
00100000
00000000
00010000
00001000
00100000
00000000
,
00010000
00000000
10000000
00000000
00000000
00000000
00100000
01000000
00010000
01000000
00010000
00000000
10000000
00010000
01000000
00010000
,
10000000
00000000
01000000
00000000
00000000
00000000
00100000
00000000
00001000
00010000
00000010
00000000
00001000
00010000
00000010
00000000
,
00000100
00000000
00000000
00001000
00000000
00000000
00010000
00000000
00001000
00010000
00001000
00000000
00100000
00010000
00100000
01000000
,
00200000
00000000
00000000
00000000
,
00000000
00000000
00000000
00300000
,
00000000
10000000
00100000
10000000
00010000
00100000
00001000
00010000
,
00001000
01000000
00100000
01000000
00010000
00000000
10010000
00000000
,
10000000
01000000
10000000
01000000
00100000
00010000
00100000
00001000
,
00010000
00001000
00010000
00000010
00001000
00000000
00000001
00000100
,
00000001
00001000
00000001
00001000
00000100
00000010
00000100
00010000
,
00001000
00100000
00010000
00100000
01000000
00000000
11000000
00000000
,
10000000
00100000
10000000
00100000
01000000
00001000
00010000
00001000
,
00010000
00000010
00000100
00000001
00001000
00000000
00000100
00000010
,
00000001
00000010
00000001
00001000
00000100
00000010
00000100
00010000
,
00001000
00000000
00000000
00010000
00000010
00001000
00000010
00000000
,
00000100
00000000
00001000
00010000
00001000
00100000
00010000
01000000
,
00100000
00000000
00011000
00000000
00001100
00000000
00000010
00000100
,
00000010
00000000
00000001
00000010
00000100
00001000
00000001
00000100
,
00002000
00000000
00023000
00000000
00031000
00010000
00000000
00000000
,
00000010
00001000
00000100
00000010
00001000
00010000
00001000
00100000
,
00010000
01000000
00100000
00010000
00001000
00100000
00010000
00000000
,
10000000
00010000
01000000
00010000
00100000
00001000
00010000
00000010
,
00001000
00001010
00000101
00001001
,
00000001
00000100
00000000
00001000
00000000
00010000
00001000
00000000
,
00100000
00010000
00000000
10000000
00000000
01000000
00100000
00000000
,
00001000
00010000
00000000
00000010
00000000
00000100
00000001
00000000
,
00001000
00000100
00000010
00000100
00010000
00001000
00100000
00010000
,
00100000
01000000
00000000
10000000
00000000
00010000
01000000
00000000
,
00100000
00010000
00000000
00001000
00000000
00010000
00000100
00000000
,
00000010
00000100
00000000
00001000
00000000
00000001
00000100
00000000
,
00000001
00000010
00000100
00000010
00000100
00010000
00001000
00010000
,
00000010
00001000
00000000
00000010
00000000
00000100
00001000
00000000
,
00010000
00001000
00000000
00100000
00000000
00010000
10000000
00000000
,
01000000
00100000
00000000
00001000
00000000
00010000
00001000
00000000
,
00010000
00000010
00001000
00000100
00000010
00000001
00001000
00000010
,
00000100
00000001
00001000
00000000
00000100
00000010
00001000
00000000
,
00010000
00001000
01000000
00000000
00100000
10000000
00010000
00000000
,
10000000
01000000
00100000
00010000
00001000
00000100
00000010
00000001
,
00000010
00001000
00010000
00000000
,
00100000
01000000
00100000
00010000
00001000
00010000
00100000
10000000
,
01000000
00000000
00010000
00000000
00001000
00010000
00000010
00001000
,
00000001
00000000
00000101
00000000
00001100
00000000
00010000
00001000
,
00010000
00001000
00100000
00010000
10000000
00100000
01000000
00100000
,
10000000
00000000
00100000
00000000
00010000
00000000
00001000
00010000
,
00001000
00010000
00000100
00000000
00000010
00000100
00001000
00000001
,
00000100
00000010
00001000
00000000
00000001
00000010
00000001
00001000
,
00000100
00000000
00000010
00001000
00010000
00001000
00010000
01000000
,
00100000
00000000
00000000
00010000
10000000
00000000
10010000
00000000
,
10000000
00000000
01000000
00000000
00010000
00001000
00010000
00001000
,
01000000
00000000
01010000
00000000
00011000
00000000
00000100
00000010
,
00000100
00001000
00000001
00000100
00000010
00000100
00001000
00010000
,
00001000
00010000
01000000
11000000
,
00100000
00000000
00010000
00100000
00001000
00010000
00001000
00100000
,
00010000
00000000
01000000
00100000
00010000
00001000
00010000
00000000
,
00001000
00000010
00000100
00001000
00000001
00000100
00001000
00010000
,
00001000
00100000
00011000
00001000
,
00000010
00000001
00000010
00000001
00000010
00000001
00000010
00000001
,
00000010
00000100
00000010
00000100
00000010
00000100
00000010
00000100
,
00001000
00000100
00001000
00000100
00001000
00000100
00001000
00000100
,
00010000
00001000
00010000
00001000
00010000
00001000
01000000
00000000
,
00100000
10000000
00100000
10000000
00010000
01000000
00010000
01000000
,
00001000
00010000
00001000
00010000
00000100
00001000
00000100
00001000
,
00000001
00000010
00000001
00001000
00000100
00010000
00001000
00100000
,
00010000
10000000
00100000
01000000
00010000
00100000
00001000
00020000
,
00000000
00000000
00000000
00030000
,
00000000
00000000
00000000
00000000
;
