#TITLE:Angel;
#SUBTITLE:;
#ARTIST:Shaggy ft. Rayvon;
#TITLETRANSLIT:;
#SUBTITLETRANSLIT:;
#ARTISTTRANSLIT:;
#GENRE:;
#CREDIT:;
#BANNER:Angel-bn.png;
#BACKGROUND:Angel-bg.png;
#LYRICSPATH:;
#CDTITLE:;
#MUSIC:Angel.ogg;
#OFFSET:1.407000;
#SAMPLESTART:12.668000;
#SAMPLELENGTH:20.000000;
#LASTBEATHINT:0.566979;
#SELECTABLE:YES;
#DISPLAYBPM:85.000000;
#BPMS:0.000000=85.260002
;
#STOPS:
;
#BGCHANGES:;
#KEYSOUNDS:;
#ATTACKS:;

//---------------dance-single - ----------------
#NOTES:
     dance-single:
     :
     Challenge:
     13:
     0.595899,0.553433,0.377835,0.272041,0.638541,552.000000,502.000000,50.000000,36.000000,0.000000,0.000000,0.595899,0.553433,0.377835,0.272041,0.638541,552.000000,502.000000,50.000000,36.000000,0.000000,0.000000:
0000
0000
0000
0000
,
0000
0000
0000
0000
,
0000
0000
0000
0000
0000
0000
0000
0000
0000
0000
0000
0000
0000
0000
0010
0001
,
0010
0100
0010
1000
0010
0000
1001
0000
0100
0000
0100
0000
0110
0000
0001
1000
,
0001
0000
0100
0000
1010
0000
1000
0001
1000
0100
0010
0001
1000
0010
0100
0001
,
0010
0000
0102
0000
2003
0000
3010
0000
1100
0000
0011
0000
0100
0000
0010
1000
,
0002
0000
0100
0000
0023
0000
1000
0000
0032
0000
0010
0000
1003
0100
0010
0001
,
0100
0000
0001
0010
1000
0000
1000
0000
1100
0000
0010
0100
0000
0001
1000
0000
,
0101
0000
1000
0000
0100
0000
0010
0001
1000
0010
0100
0001
0010
0100
1000
0001
,
0100
0000
0001
1000
0010
0000
0010
0000
1001
0000
0110
0000
0100
0000
0001
1000
,
0020
0000
0001
0000
0230
0000
0010
0000
0302
0000
1000
0000
0103
0010
0100
0001
,
1000
0000
0021
0000
0230
0000
1300
0000
1010
0000
0001
0100
0000
0010
1000
0000
,
1100
0000
0110
0000
0001
0000
0100
0010
1000
0100
0010
0001
0100
0010
1000
0000
,
0000
1001
0000
0010
1000
0000
0101
0000
0010
0001
0010
0100
0010
1000
0010
0000
,
0000
1000
0001
0000
0010
0100
0001
0100
1000
0000
0010
0100
0010
1000
0001
0000
,
1010
0001
1000
0000
1000
0000
0100
0010
0001
0100
0010
0000
2000
0000
3001
0000
,
0011
0000
0100
0010
1000
0000
0001
0000
0100
0010
1000
0100
0010
0001
1000
0001
,
0000
0000
0000
0000
0100
0000
0010
0000
1000
0000
0000
1000
0000
0000
1000
0000
0002
0000
0000
0013
0001
0000
0100
0000
0110
0000
0000
0000
1001
0000
0000
0000
,
0010
0000
1000
0001
0100
0010
0100
0001
0010
1000
0010
0001
0100
0010
1000
0000
,
1010
0000
0000
0000
0001
0000
0100
0000
0010
0000
0001
0000
0010
0000
1000
0000
0100
0000
0000
0100
0000
0000
0100
0000
1000
0000
0001
0000
0010
0000
0001
0000
,
0100
1000
0100
0010
0100
0001
0100
0000
0010
0001
0010
0100
0010
1000
0010
0000
,
1100
0000
0002
0000
0023
0000
0130
0000
0011
0000
0101
0000
1000
0000
0010
0100
,
0020
0000
0001
0000
2030
0000
0100
0000
3002
0000
1000
0000
0103
0010
1000
0001
,
0010
0000
0001
1000
0100
0000
0100
0000
1001
0000
0010
1000
0000
0001
0010
0000
,
1100
0000
0010
0000
0100
0000
0001
1000
0010
0001
0010
1000
0100
0010
0001
0100
,
0010
0000
1000
0001
0100
0000
0100
0000
1010
0000
0011
0000
1000
0000
0001
0010
,
0200
0000
0001
0000
2300
0000
0001
0000
3020
0000
0001
0000
0130
0010
1000
0100
,
0010
0000
0002
0000
2003
0000
3100
0000
0110
0000
0001
0100
0000
0010
1000
0000
,
0201
0000
0320
0000
1030
0000
0001
0100
0010
0001
0010
1000
0001
1000
0100
0000
,
0000
0000
0010
1000
0010
0100
0010
0001
1000
0100
0001
0000
0000
0010
0100
1000
,
0001
0100
1000
0000
0000
0010
1000
0001
0010
0010
0010
0010
0001
0100
1000
0000
,
0000
0000
0001
0000
0001
0000
0100
0000
0010
0000
1000
0000
0001
0000
1000
0000
0100
0000
0000
0000
0010
0000
0001
0000
1000
0000
0000
0001
0000
0000
0100
0000
,
0001
0010
1000
0000
0000
0000
1000
0001
0100
0100
0100
0100
0010
1000
0001
0000
,
0000
1001
0010
0100
0001
0010
0001
1000
0010
0100
0001
0000
0000
1000
0100
0001
,
0010
0100
1000
0000
0000
0001
0100
0001
0010
0010
0010
0010
0100
1000
0001
0000
,
1000
0000
0001
0000
1000
0000
0010
0000
0100
0000
1000
0000
0100
0000
0001
0000
0010
0000
0000
0000
0100
0000
1000
0000
0001
0000
0000
0010
0000
0000
0100
0000
,
1100
0000
1100
0000
0101
1000
0001
1000
0100
0100
0100
0100
0010
0001
1000
0000
,
0010
0000
1002
0000
0203
0000
0310
0000
1010
0000
1100
0000
0001
0000
1000
0100
,
2000
0000
0001
0000
3020
0000
0100
0000
2030
0000
0010
0000
3001
0100
0010
1000
,
0100
0000
0001
0010
0001
0000
1000
0000
0110
0000
0010
1000
0000
1000
0100
0000
,
0011
0000
1100
0000
0001
0000
0100
0001
0010
0100
0010
0001
0100
0010
1000
0001
,
1000
0000
0010
0100
0001
0000
0001
0000
1100
0000
1001
0000
0010
0000
1000
0100
,
0020
0000
1000
0000
0230
0000
0001
0000
2300
0000
0010
0000
3001
1000
0100
0010
,
0001
0000
2000
0000
3020
0000
0130
0000
1010
0000
0001
1000
0000
0010
0100
0000
,
2001
0000
3020
0000
0130
0000
0001
0010
0001
0100
0010
1000
0001
0010
0100
0000
,
1100
0000
1100
0000
0101
0000
0000
0000
0011
0000
0011
0000
0100
0000
0010
1000
,
0001
0000
0001
0000
0100
0000
0010
1000
0001
0100
0001
0100
0010
1000
0100
0010
,
0001
0001
1001
0000
0000
0000
0000
0000
;

//---------------dance-single - ----------------
#NOTES:
     dance-single:
     :
     Hard:
     11:
     0.487947,0.482023,0.423175,0.302268,0.358943,452.000000,396.000000,56.000000,40.000000,0.000000,0.000000,0.487947,0.482023,0.423175,0.302268,0.358943,452.000000,396.000000,56.000000,40.000000,0.000000,0.000000:
0000
0000
0000
0000
,
0000
0000
0000
0000
,
0000
0000
0000
0000
0000
0000
0000
0000
0000
0000
0000
0000
0000
0000
0010
0100
,
0001
1000
0001
1000
0100
0000
1001
0000
0100
0000
0110
0000
0000
0000
0001
1000
,
0001
0000
0101
0000
0000
0000
0010
0000
1000
0000
0000
0000
1000
0100
0010
0001
,
0000
0000
1100
0000
0001
0000
0100
0000
0011
0000
1010
0000
0000
0000
1000
0010
,
2000
0000
0001
0000
3002
0000
0100
0000
0203
0000
0010
0000
0310
1000
0001
1000
,
0000
0000
0010
0100
0010
0000
1000
0000
0101
0000
0001
0020
0000
0000
0130
0000
,
1002
0010
0103
0000
2000
0010
3020
0230
,
0000
0000
0301
0100
0010
0000
1000
0000
1010
0000
0011
0000
0000
0000
0100
0010
,
2000
0000
0100
0000
3200
0000
0010
0000
0320
0000
0001
0000
0031
0100
0010
0100
,
0000
0000
0110
0000
1000
0000
0001
0000
1100
0000
0010
0100
0000
0000
0001
0000
,
0012
1000
0103
0000
1020
1030
0002
0013
,
0000
1001
0000
1000
0100
0000
0100
0000
1000
0010
1000
0001
0010
0000
0010
0000
,
0000
0000
0110
0000
0001
0010
0100
1000
0001
0000
1000
0010
1000
0000
0100
0000
,
0000
0000
1100
0000
0101
0000
0010
0001
1000
0001
0010
0000
0100
0000
0100
0000
,
0110
0000
0001
1000
0010
0000
0010
0000
1000
0100
0010
0001
0100
0000
1001
0000
,
0000
0000
1000
0001
0010
0000
0001
1000
0010
0000
0100
0001
1000
0000
1000
0000
,
0000
0000
0100
1000
0001
0000
0010
0001
0100
0000
0010
1000
0001
0000
0001
0000
,
0000
0000
1000
0100
0010
0000
0001
0100
0010
0000
1000
0001
0100
0000
0010
0000
,
1000
0001
0010
0001
0100
0000
1010
0000
0001
1000
0010
0100
0001
0000
0101
0000
,
0000
0000
1100
0000
0011
0000
0100
0000
1010
0000
0101
0000
0000
0000
1000
0001
,
0020
0000
0100
0000
0230
0000
0010
0000
0320
0000
0001
0000
0031
1000
0100
1000
,
0000
0000
0001
0100
0010
0000
0100
0000
0110
0000
1000
0001
0000
0000
0010
0000
,
2100
0010
3100
0000
0002
1000
2003
3100
,
0000
0000
1000
0010
0100
0000
0001
0000
0011
0000
1001
0000
0000
0000
1000
0100
,
2000
0000
0010
0000
3020
0000
0100
0000
0230
0000
0001
0000
0301
0010
0100
1000
,
0000
0000
1100
0000
0001
0000
1000
0000
1010
0000
0001
0100
0000
0000
0010
0000
,
1002
0010
0103
0000
0201
0310
2000
3001
,
0000
0000
1000
0010
0100
0010
0100
0001
1000
0000
0011
0000
0000
0001
1000
0001
,
0100
0000
0110
0000
0000
0000
0001
1000
0001
1000
0010
1000
0100
0000
1100
0000
,
0000
0000
0001
1000
0100
1000
0100
0010
0001
0000
0110
0000
0010
0000
1000
0001
,
0100
0000
0101
0000
0000
0000
1000
0001
1000
0010
1000
0100
1000
0000
1010
0000
,
0000
1001
0000
0100
0010
1000
0001
1000
0100
0000
0011
0000
0000
0001
0010
0100
,
1000
0000
0110
0000
0000
0000
0010
1000
0100
1000
0010
0100
0001
0000
1001
0000
,
0000
0000
0100
0010
1000
0001
0010
0100
1000
0000
1100
0000
0001
0000
0100
0010
,
1000
0000
0101
0000
0000
0000
0100
0010
0100
0001
1000
0001
0010
0100
1000
0000
,
0000
0000
0010
0000
0100
0000
0001
0000
0011
0000
1010
0000
0000
0000
1000
0100
,
0020
0000
0001
0000
0032
0000
0100
0000
0203
0000
0010
0000
0310
1000
0001
1000
,
0000
0000
0100
1000
0001
0000
0001
0000
0011
0000
0001
0100
0000
0000
0010
0000
,
2010
0001
3010
0000
0200
0301
0020
0130
,
0000
0000
1000
0010
0001
0000
0001
0000
1001
0000
0110
0000
0000
0000
0010
1000
,
0002
0000
1000
0000
2003
0000
0100
0000
3200
0000
1000
0000
1300
0010
0100
0001
,
0000
0000
0010
0000
0100
0000
1000
0000
1100
0000
0001
1000
0000
0000
0010
0000
,
0201
1000
0301
0000
0020
0230
2300
3002
,
0103
0000
0100
0000
0000
0000
0000
0000
0010
0000
0010
0000
0000
0000
1000
0001
,
1000
0000
1000
0000
0000
0000
0001
0010
0001
0000
0100
0000
0010
0000
1000
0000
,
0110
0001
1001
0000
0000
0000
0000
0000
;

//---------------dance-single - ----------------
#NOTES:
     dance-single:
     :
     Medium:
     8:
     0.323858,0.374907,0.377835,0.204031,0.030227,300.000000,250.000000,50.000000,27.000000,0.000000,0.000000,0.323858,0.374907,0.377835,0.204031,0.030227,300.000000,250.000000,50.000000,27.000000,0.000000,0.000000:
0000
0000
0000
0000
,
0000
0000
0000
0000
,
0000
0000
0000
0000
,
0010
1000
1010
0101
0000
0000
0000
0001
,
0110
0000
0000
0010
1000
0100
1000
0001
,
0000
1001
0001
0100
0010
0010
0000
1000
,
0002
0023
0230
2300
,
3010
0000
0100
0001
1000
0000
0100
0010
,
0001
0001
0000
0000
1100
0000
1100
0000
,
0000
1001
1000
0010
0100
0100
0000
0001
,
0200
0320
2030
3002
,
0013
0000
0001
0100
0001
0000
0010
0100
,
1000
1000
0000
0000
0101
0000
0101
0000
,
1001
0000
0100
0000
0010
1000
0010
0100
,
0000
0001
1000
0001
0100
0010
0100
0001
,
0000
0011
0100
0010
1000
0000
1000
0001
,
0010
0010
0100
0100
1000
0001
1000
0001
,
0000
0100
1010
0000
0001
0000
0001
1000
,
0000
0110
1001
0000
0100
0010
1000
0001
,
0000
0010
0001
0100
0001
0000
1000
1000
,
0010
0010
0100
0100
0001
0010
0001
1000
,
0000
1100
0100
1000
0010
0100
0000
0001
,
2000
3002
0023
0230
,
1300
0000
0001
0100
0001
0000
0010
0100
,
1000
0001
0000
0000
1010
0000
1010
0000
,
0000
0110
1000
0001
1000
0100
0000
0010
,
0002
2003
3200
0320
,
0031
0000
0001
1000
0100
0000
1000
0010
,
0100
0001
0000
0000
0011
0000
0011
0000
,
0000
1000
0001
0100
1001
1001
0000
0010
,
0101
0000
0101
0000
0000
0000
0000
0000
1000
0001
1000
0001
1000
0000
0000
0000
,
0000
0010
0100
0001
0011
0011
1000
0100
,
1010
0000
1010
0000
0000
0000
0000
0000
0010
0100
0010
0100
0010
0000
0000
0000
,
0000
1001
0100
1000
1100
1100
0000
0001
,
0110
0000
0110
0000
0000
0000
0000
0000
0001
1000
0001
1000
0001
0000
0000
0000
,
0000
0110
0010
1000
1001
1001
0010
0100
,
0110
0000
0110
0000
0000
0000
0000
0000
0100
0010
0100
0010
0100
0000
0000
0000
,
0000
0101
1000
0100
1000
1000
0000
0001
,
0200
0302
2003
3020
,
1030
0000
0001
0010
0001
0000
1000
0100
,
0010
0010
0000
0000
1001
0000
1001
0000
,
0000
1100
0010
1000
0001
0100
0000
0001
,
2000
3002
0203
0320
,
1030
0000
0010
1000
0100
0000
0010
0001
,
0100
0010
0000
0000
1001
0000
1001
0000
,
2100
3001
0012
1003
,
0201
0000
0310
0000
1000
0100
0010
0001
,
0110
0110
1001
0000
0000
0000
0000
0000
;

//---------------dance-single - ----------------
#NOTES:
     dance-single:
     :
     Easy:
     6:
     0.209428,0.214232,0.272041,0.211587,0.000000,194.000000,158.000000,36.000000,28.000000,0.000000,0.000000,0.209428,0.214232,0.272041,0.211587,0.000000,194.000000,158.000000,36.000000,28.000000,0.000000,0.000000:
0000
0000
0000
0000
,
0000
0000
0000
0000
,
0000
0000
0000
0000
,
0010
1000
0001
0100
,
0001
0010
0100
1000
,
1001
0010
1000
0001
,
0020
0130
2000
3001
,
0110
0001
1000
0010
,
0202
0300
1000
0103
,
1001
0001
0010
1000
,
0020
0130
0002
1003
,
0110
1000
0100
0001
,
2200
3000
0010
1300
,
0000
0101
1000
1100
,
0000
0110
1000
1001
,
0000
0010
0001
0100
,
1000
1100
0010
0101
,
0000
0110
0001
1000
,
0000
1001
1000
0100
,
0000
0010
0001
1000
,
0010
0100
0010
1000
,
1100
0001
0010
0100
,
2000
3010
0002
0103
,
0101
0010
0100
0001
,
0220
0300
0100
1030
,
0101
0010
1000
0100
,
0020
0031
0200
1300
,
1100
0010
1000
0001
,
2002
0003
0100
3010
,
1000
0100
1100
0000
,
0101
0000
0000
0000
0010
0010
0010
0000
,
0000
1001
0100
0010
,
0110
0000
0000
0000
1000
1000
1000
0000
,
0000
1001
0010
0000
,
0101
0000
0000
0000
0100
0100
0100
0000
,
0000
0110
0010
1000
,
1100
0000
0000
0000
0001
0001
0001
0000
,
0101
0010
1000
0100
,
2000
3001
0020
0130
,
0110
1000
0001
0010
,
0202
0003
0010
0301
,
1001
0100
0010
1000
,
0200
0310
0020
0130
,
0110
0001
0100
1000
,
2002
0003
0001
3010
,
2000
0000
0002
3000
,
0200
0003
0320
0130
,
0110
1001
0000
0000
;

//---------------dance-single - ----------------
#NOTES:
     dance-single:
     :
     Beginner:
     2:
     0.097158,0.106549,0.060454,0.000000,0.000000,90.000000,82.000000,8.000000,0.000000,0.000000,0.000000,0.097158,0.106549,0.060454,0.000000,0.000000,90.000000,82.000000,8.000000,0.000000,0.000000,0.000000:
// measure 0
0000
0000
0000
0000
,  // measure 1
0000
0000
0000
0000
,  // measure 2
0000
0000
0000
0000
,  // measure 3
0010
0010
0000
0000
,  // measure 4
0110
0000
0000
0000
,  // measure 5
0001
0000
0001
0000
,  // measure 6
1000
0000
0010
0000
,  // measure 7
0100
0000
0010
0000
,  // measure 8
1000
0000
1001
0000
,  // measure 9
0001
0000
1000
0000
,  // measure 10
0100
0000
0100
0000
,  // measure 11
1000
0000
0010
0000
,  // measure 12
0100
0000
0110
0000
,  // measure 13
0000
0000
0001
0001
,  // measure 14
0000
0000
1000
1000
,  // measure 15
0000
0000
0010
0000
,  // measure 16
0100
0000
0010
0000
,  // measure 17
0000
0000
0100
0100
,  // measure 18
0000
0000
0010
0010
,  // measure 19
0000
0000
1000
0000
,  // measure 20
0001
0000
1000
0000
,  // measure 21
0100
0000
1000
0000
,  // measure 22
0010
0000
0100
0000
,  // measure 23
0001
0000
0001
0000
,  // measure 24
1000
0000
1001
0000
,  // measure 25
0010
0000
1000
0000
,  // measure 26
0100
0000
0010
0000
,  // measure 27
0100
0000
0010
0000
,  // measure 28
0001
0000
0110
0000
,  // measure 29
1000
0000
1000
0000
,  // measure 30
1000
0000
0000
0000
,  // measure 31
0001
0000
0001
0000
,  // measure 32
0001
0000
0000
0000
,  // measure 33
0100
0000
0100
0000
,  // measure 34
0100
0000
0000
0000
,  // measure 35
0010
0000
0010
0000
,  // measure 36
0010
0000
0000
0000
,  // measure 37
1000
0000
0010
0000
,  // measure 38
1000
0000
0100
0000
,  // measure 39
0001
0000
0001
0000
,  // measure 40
0010
0000
1001
0000
,  // measure 41
0100
0000
0100
0000
,  // measure 42
0010
0000
0010
0000
,  // measure 43
1000
0000
0100
0000
,  // measure 44
1000
0000
0110
0000
,  // measure 45
0001
0000
0001
0000
,  // measure 46
1000
0000
0010
0000
,  // measure 47
1001
0000
0000
0000
;
