#TITLE:Altitude;
#ARTIST:Kause & Konception;
#BANNER:Altitude.png;
#BACKGROUND:Altitude-bg.png;
#JACKET:Altitude-jacket.png;
#MUSIC:Altitude.ogg;
#SAMPLESTART:42.235;
#SAMPLELENGTH:20;
#DISPLAYBPM:88:175;
#BPMS:0=175,188=87.5,220=175;
#BGCHANGES:;

//---------------dance-single - ----------------
#NOTES:
     dance-single:
     :
     Beginner:
     5:
     :
0000
0000
0000
0000
,
0000
0000
0000
0000
,
0000
0000
0000
0000
,
0000
0000
0000
0000
,
0000
0000
0000
0000
,
0000
0000
0000
0000
,
0000
0000
0000
0000
,
0100
0000
0000
1000
,
0000
1000
0000
0001
,
0000
0001
0000
0010
,
0000
0001
0000
0001
,
0000
1000
0000
1000
,
0000
1000
0000
0010
,
0000
0010
0000
0100
,
0000
0000
0000
0000
,
1001
0000
0000
0010
,
0000
0010
0000
1000
,
0000
1000
0000
0010
,
0000
0001
0000
0001
,
0000
1000
0000
1000
,
0000
0010
0000
0001
,
0000
0010
0000
0010
,
0000
1000
0000
1000
,
0000
0001
0000
1000
,
0000
1000
0000
0010
,
0000
0010
0000
0010
,
0000
1000
0000
1000
,
0000
0001
0000
0001
,
0000
0010
0000
0010
,
0000
0001
0000
0001
,
0000
1000
0000
0001
,
0000
0000
1000
0000
,
1001
0000
0001
0000
,
1001
0000
0010
0000
,
1000
0000
1000
0000
,
0001
0000
1000
0000
,
0010
0000
0100
0000
,
1001
0000
0100
0000
,
0110
0000
0001
0000
,
0001
0000
0000
0001
,
0000
0001
0000
1000
,
0000
0100
0000
0010
,
0000
0001
0000
0001
,
0000
0001
0000
0100
,
0000
1000
0000
0001
,
0000
0010
0000
1000
,
0000
1000
0000
1000
,
0000
1000
0110
0000
,
1000
0010
0110
0100
,
1001
0001
1001
0000
,
0110
0100
0001
1000
,
0001
0010
0010
0100
,
0010
0100
1001
0000
,
1001
0000
0110
0000
,
1001
0000
1001
1001
,
0100
0000
0000
1000
,
0000
1000
0000
0001
,
0000
0001
0000
0010
,
0000
0001
0000
0001
,
0000
1000
0000
0001
,
0000
0001
0000
1000
,
0000
1000
0000
0010
,
0000
1000
0000
1000
,
0000
1000
0000
0010
,
0000
1000
0000
0001
,
0000
1000
0000
0010
,
0000
0100
0000
0001
,
0000
0001
0000
0010
,
0000
0001
0000
1000
,
0000
0001
0000
0010
,
0000
0100
0000
1000
,
0000
0000
0000
0000
,
0000
0000
0000
0000
,
0000
0000
0000
0000
,
0000
0000
0000
0000
,
1000
0001
0000
0000
;

//---------------dance-single - ----------------
#NOTES:
     dance-single:
     :
     Easy:
     7:
     :
0000
0000
0000
0000
,
0000
0000
0000
0000
,
0000
0000
0000
0000
,
0000
0000
0000
0000
,
0000
0000
0000
0000
,
0000
0000
0000
0000
,
0000
0000
0000
0000
,
0100
0001
0000
1000
,
0010
1000
0000
0001
,
0010
0001
0000
0010
,
0100
0001
0100
0001
,
1001
1000
0000
1000
,
0100
1000
0000
0010
,
0100
0010
0000
0100
,
0020
0000
0000
0030
,
1001
0100
0000
0010
,
0100
0010
0000
1000
,
0001
1000
0000
0010
,
0100
0001
0100
0001
,
1001
1000
0000
1000
,
0100
0010
0000
0001
,
0100
0010
0000
0010
,
0100
1000
0100
1000
,
1001
0001
0000
1000
,
0100
1000
0000
0010
,
0001
0010
0000
0010
,
0100
1000
0100
1000
,
1001
0001
0000
0001
,
0100
0010
0000
0010
,
1000
0001
0000
0001
,
1000
1000
0001
0001
,
1001
0000
1000
0000
,
1001
0000
0001
0000
,
1001
0000
0010
0000
,
1000
0010
1000
0010
,
0001
0000
1000
0000
,
0010
0000
0100
0000
,
1001
0000
0100
0000
,
0110
0000
0001
1000
,
0001
0100
0000
0001
,
0100
0001
0000
1000
,
0001
0100
0000
0010
,
0100
0001
1000
0001
,
1000
0001
0000
0100
,
0001
1000
0000
0001
,
0100
0010
0000
1000
,
1000
1000
0010
1000
,
1010
1000
1100
0000
,
2000
3010
0110
0100
,
1001
0001
1001
0000
,
0101
0100
0001
1000
,
0002
0010
0013
0100
,
0010
0100
1010
0000
,
1001
0000
0110
0000
,
1001
0000
1001
1010
,
0100
0001
0000
1000
,
0010
1000
0000
0001
,
0010
0001
0000
0010
,
0100
0001
0100
0001
,
1001
1000
0000
0001
,
0010
0001
0000
1000
,
0010
1000
0000
0010
,
0100
1000
0100
1000
,
1010
1000
1000
0010
,
1010
1000
1000
0001
,
1001
1000
0010
0010
,
1000
0100
0010
0001
,
0011
0001
0001
0010
,
0011
0001
0001
1000
,
1001
0001
0010
0010
,
0001
0100
0010
1000
,
2002
0000
0000
3003
,
0000
0000
0000
0000
,
0000
0000
0000
0000
,
0000
0000
0000
0000
,
1000
0001
0000
0000
;

//---------------dance-single - ----------------
#NOTES:
     dance-single:
     :
     Medium:
     10:
     :
0000
0000
0000
0000
,
0000
0000
0000
0000
,
0000
0000
0000
0000
,
0000
0000
0000
0000
,
0000
0000
0000
0000
,
0000
0000
0000
0000
,
0000
0000
0000
0000
,
1000
0000
0001
0100
0000
0001
0100
0000
,
0010
0000
1000
0010
0000
1000
0010
0000
,
0100
0000
0001
0100
0000
0001
0100
0000
,
0001
0001
1000
1000
,
0010
0000
0100
0010
0000
0100
0010
0000
,
1000
0000
0001
1000
0000
0001
1000
0000
,
0100
0000
1000
0100
0000
1000
0100
0000
,
2200
0000
0000
3300
,
0001
0000
1000
0010
0100
0001
0010
0000
,
0100
0000
1000
0010
0100
0010
1000
0000
,
0001
0000
0100
0010
0100
0001
1000
0000
,
0020
0130
0002
1003
,
0010
0000
1000
0001
1000
0010
0100
0000
,
0001
0000
1000
0010
1000
0010
1000
0000
,
0100
0000
1000
0001
0100
0010
0100
0000
,
0001
1000
0010
1000
,
0001
0000
0100
0010
1000
0001
0100
0000
,
0010
0000
1000
0010
0100
0010
0100
0000
,
0001
0000
0100
0010
1000
0001
0100
0000
,
0001
0100
0001
0000
1000
0100
1000
0000
,
0010
0000
1000
0001
0100
0010
1000
0000
,
0100
0000
1000
0001
0100
0001
1000
0000
,
0100
0000
0010
0100
1000
0001
0100
0000
,
0200
0000
0000
0300
,
1001
0000
0001
0100
0010
1000
0100
0000
,
1100
0000
0010
0100
0001
0100
0010
0000
,
0110
0000
1000
0001
0100
0010
1000
0000
,
1010
1010
0001
0100
,
0101
0000
0001
1000
0010
0100
0001
0000
,
0101
0000
0010
1000
0001
1000
0100
0000
,
2200
0000
0000
0000
,
0000
0000
0000
3300
,
1000
0010
0100
0001
0010
0100
1000
0000
,
0001
0100
0010
1000
0001
0100
0001
0000
,
1000
0010
0100
0010
1000
0100
1000
0000
,
0010
1000
0010
1000
,
0002
0000
0000
0000
0003
1000
0100
0000
,
2000
0000
0000
0000
3000
0001
0100
0000
,
0020
0000
0000
0000
0030
0100
0010
0000
,
2000
3001
2000
3010
,
0220
0330
2002
3003
,
0202
0303
2200
3300
,
0001
0010
0100
1000
0001
0010
0100
1000
,
0001
0100
0001
1000
0010
0010
0010
0100
,
0220
0330
2002
3003
,
2000
3000
0002
0003
,
0020
0030
0200
0300
,
2000
0000
3000
0010
0010
0010
0010
0000
,
1001
0000
0010
0100
0001
1000
0100
0000
,
1100
0000
0001
0100
0010
1000
0001
0000
,
0110
0000
1000
0001
0100
0010
0100
0000
,
1001
1001
1001
0110
,
1000
0010
0100
0001
0010
0100
1000
0000
,
0010
0100
0001
0010
0100
1000
0010
0000
,
0100
0001
0010
0100
1000
0010
0100
0000
,
0002
0000
1000
1003
,
1000
1000
0010
0010
0100
0100
0001
0000
,
0010
0010
0100
0100
1000
1000
0010
0000
,
0100
0100
0001
0001
1000
1000
0100
0000
,
1000
1100
0001
0101
,
0010
0000
1000
0000
0001
0100
0001
0000
,
0010
0000
0100
0000
1000
0100
1000
0000
,
0010
0000
0100
0000
0010
0100
0010
0000
,
0101
1100
0101
0110
,
2002
0000
0000
0000
,
0000
0000
0000
3003
,
0000
0000
0000
0000
,
0000
0000
0000
0000
,
1001
0100
0010
0200
0000
0000
0300
0000
;

//---------------dance-single - ----------------
#NOTES:
     dance-single:
     :
     Hard:
     13:
     :
0000
0000
0000
0000
,
0000
0000
0000
0000
,
0000
0000
0000
0000
,
0000
0000
0000
0000
,
0000
0000
0000
0000
,
0000
0000
0000
0000
,
0000
0000
0000
0000
,
0010
0000
0001
1000
0000
1000
0001
0000
,
0100
0000
1000
0001
0000
0001
1000
0000
,
0100
0000
0010
0100
0000
0100
0010
0000
,
0101
1100
0101
1100
,
1010
0000
0001
0100
0000
0100
0001
0000
,
0011
0000
0100
1000
0000
1000
0100
0000
,
0101
0000
0001
0010
0000
0010
0001
0000
,
2002
3003
0000
0000
,
1000
0100
0001
0010
0001
0100
1000
0000
,
0001
0100
1000
0010
1000
0100
0001
0000
,
0100
0001
1000
0100
1000
0001
0100
0000
,
1100
1000
0001
0000
0101
0001
1000
0000
,
0010
1000
0001
1000
0100
0001
1000
0000
,
0010
0001
1000
0001
0100
1000
0001
0000
,
1000
0001
0100
0001
1000
0100
1000
0001
,
0010
0001
1000
0010
1000
0001
1000
0001
,
0100
0000
0000
1000
0100
0000
1000
0000
0001
0000
1000
0000
0001
0000
0000
0000
,
0100
0000
0000
0001
0100
0000
0001
0000
1000
0000
0001
0000
1000
0000
0000
0000
,
0010
0000
0000
1000
0010
0000
1000
0000
0001
0000
1000
0000
0001
0000
0000
0000
,
0010
0000
0000
0001
0010
0000
0001
0000
0100
0000
1000
0000
0001
0000
0010
0000
,
1000
0000
0000
0010
1000
0000
1000
0000
0001
0000
0100
0000
0001
0000
0100
0000
,
0001
0000
0000
0010
0001
0000
0001
0000
1000
0000
0100
0000
1000
0000
0100
0000
,
1000
0000
0000
0100
1000
0000
1000
0000
0100
0000
0001
0000
0100
0000
0001
0000
,
1000
0000
0000
1000
0001
0000
0000
0001
1000
0000
0000
1000
0001
0000
0000
0001
,
1000
1000
0100
0100
0001
0001
0010
0010
,
0100
0100
1000
1000
0001
0001
0100
0000
,
1000
1000
0001
0001
0010
0010
0100
0100
,
1000
1000
0010
0010
0100
0100
1000
0000
,
0001
0001
0100
0100
1000
1000
0010
0010
,
0100
0100
0001
0001
1000
1000
0001
0000
,
1000
0000
0000
1001
0000
0000
0001
0000
0000
1001
0000
0000
0000
0000
0000
0000
,
1001
0000
0000
0001
0000
0000
1001
0000
0000
0000
0000
0000
1000
0100
1000
0000
,
0001
0010
0000
0001
0010
0000
0000
0000
0100
0000
1000
0000
0010
0000
0000
0000
,
1000
0010
0000
1000
0010
0000
0000
0000
1000
0000
0001
0000
0100
0000
0000
0000
,
0001
0010
0000
0001
0010
0000
0000
0000
0100
0000
1000
0000
0001
0000
0000
0000
,
1000
0001
0000
1000
0001
0000
0000
0000
0001
0000
0100
0000
1000
0000
0000
0000
,
0001
1000
0000
0001
1000
0000
0001
0000
0100
0000
0010
0000
1000
0000
0000
0000
,
0010
0100
0000
0010
0100
0000
0001
0000
0100
0000
0010
0000
1000
0000
0000
0000
,
0100
1000
0000
0100
1000
0000
0001
0000
0100
0000
0010
0000
1000
0000
0000
0000
,
1001
0000
1001
0000
,
0002
0000
0000
2003
0000
0000
3100
0000
0010
0000
0000
0000
0001
0000
0000
0000
,
0200
0000
0000
2300
0000
0000
3001
0000
0020
0000
0000
0000
0030
0000
0000
0000
,
2000
0000
0000
3002
0000
0000
0103
0000
0010
0000
0000
0000
1000
0000
0000
0000
,
2000
0000
0000
3200
0000
0000
0301
0000
0020
0000
0000
0000
0030
0000
0000
0000
,
0001
0000
1000
0100
0000
1000
0100
0000
0010
0000
0001
0100
0001
0000
0000
0000
,
1000
0000
0001
0100
0000
0100
0001
0000
0010
0000
0000
0000
0000
0000
0000
0000
,
1000
0000
0001
0100
0000
0001
0100
0000
0010
0000
1000
0100
1000
0000
0000
0000
,
1000
0000
0001
0100
0000
0000
0010
0000
1000
0000
0000
0000
0001
1000
0001
1000
,
0001
0000
0000
0000
1000
0000
0000
1000
0000
0001
0100
0000
0001
0000
0000
0000
,
0100
0000
0000
0000
0010
0000
0000
0010
0000
1000
0100
0000
1000
0000
0000
0000
,
0001
0000
0000
0000
0100
0000
0000
0100
0000
1000
0100
0000
1000
0000
0000
0000
,
0001
0000
0000
0000
0100
0000
0000
0100
0000
1000
0010
0000
1000
0000
0000
0000
,
0100
0000
0000
0000
0010
0000
0000
0010
0000
0001
0100
0000
0001
0000
0000
0000
,
1000
0000
0000
0000
0100
0000
0000
0100
0000
0001
1000
0000
0001
0000
0000
0000
,
0100
0000
0000
0000
0010
0000
0000
0010
0000
0001
0100
0000
0001
0000
0000
0000
,
0100
0000
0000
0000
0010
0000
0000
0010
0000
1000
0100
0000
1000
0000
0000
0000
,
0001
1000
0100
0001
1000
0010
0001
0000
,
1000
0001
0100
1000
0001
0010
1000
0000
,
0001
1000
0010
0001
1000
0100
0001
0000
,
1000
0001
0010
1000
0001
0100
1000
0000
,
0010
1000
0100
0001
0100
1000
0100
0000
,
0100
0010
0001
0010
0001
0100
1000
0000
,
0010
1000
0001
1000
0010
0001
1000
0001
,
0100
1000
0100
0001
1000
0010
0001
0010
,
0100
0000
0000
0001
0000
0000
2000
0000
0000
0002
0000
0000
0000
0000
0000
0000
,
0000
0000
0000
3003
,
0000
0000
0000
0000
,
0000
0000
0000
0000
,
1000
0100
0001
0020
0000
0000
0030
0000
;

//---------------dance-single - ----------------
#NOTES:
     dance-single:
     :
     Challenge:
     18:
     :
0000
0000
0000
0000
,
0000
0000
0000
0000
,
0000
0000
0000
0000
,
0000
0000
0000
0000
,
0000
0000
0000
0000
,
0000
0000
0000
0000
,
0010
0010
0010
0010
,
1001
0000
0000
0000
1000
0000
0001
0100
0000
0100
0000
0000
0020
0000
0230
0000
,
0301
0000
0000
0000
0010
0000
0001
1000
0000
1000
0000
0000
0200
0000
0320
0000
,
0031
0000
0000
0000
1000
0000
0100
0010
0000
0010
0000
0000
0002
0000
2003
0000
,
3002
0000
0103
0010
0100
0010
0100
0010
2000
0000
3100
0010
0100
0010
0100
0010
,
0001
0000
0000
0000
0100
0000
0001
1000
0000
1000
0000
0000
0020
0000
0230
0000
,
0301
0000
0000
0000
0010
0000
0100
1000
0000
1000
0000
0000
0002
0000
0203
0000
,
0310
0000
0000
0000
1000
0000
0100
0010
0000
0010
0000
0000
0002
0000
2003
0000
,
3100
1000
0000
0000
0100
0001
0000
0000
1000
0010
0100
0001
0010
0100
1000
0000
,
1001
0000
0000
0010
1000
0000
0001
0100
0000
0010
0000
0100
0001
1000
0100
1000
,
0001
0000
0000
0010
0100
0000
1000
0001
0000
1000
0000
0010
0100
0001
0100
0010
,
1000
0000
0000
0100
1000
0000
0001
0010
0000
0001
0000
1000
0100
0010
0100
1000
,
0001
0000
0000
1000
0001
0010
0100
0010
0001
0000
0000
1000
0010
0100
0010
1000
,
0100
0000
0000
0010
0001
0000
1000
0001
0000
1000
0000
0100
1000
0010
0100
0001
,
0010
0000
0000
0001
1000
0000
0100
0010
0000
0001
0000
0100
0001
1000
0010
1000
,
0100
0000
0000
0010
0100
1000
0001
0100
0000
0001
0000
1000
0001
0010
0100
0010
,
0100
1000
0000
0001
0010
0001
1000
0000
0200
0000
1300
0010
1000
0001
0010
0001
,
2000
0100
3000
1000
0001
0000
0100
0010
0000
0010
1000
0001
0010
0100
1000
0000
,
0002
0010
0003
0100
1000
0010
1000
0001
0000
0100
0000
0001
1000
0100
0020
0000
,
0032
1000
0003
0001
1000
0100
0010
0100
0000
1000
0000
0010
0100
0001
0010
0001
,
2000
0000
3100
0010
0002
0000
0103
0001
0020
0100
0030
0100
1000
0001
1000
0010
,
0200
0000
0300
0010
1000
0001
1000
0100
0010
0001
0000
0001
1000
0010
0100
0000
,
0002
0000
1003
0000
0100
0010
0100
1000
0000
0001
0000
0001
0010
0001
1000
0010
,
0100
0000
0000
0100
0001
0010
0001
1000
0000
1000
0000
0001
0010
0001
1000
0100
,
1000
0000
0000
0100
0020
0000
0000
0031
0100
0000
0000
0010
2000
0000
0000
3001
,
0100
0000
0010
0000
1000
0100
1000
0001
0000
0011
0000
0100
0010
1000
0001
1000
,
0010
0000
1000
0100
1000
0010
0100
0001
0000
0011
0000
0010
0100
1000
0010
1000
,
0001
0000
0000
1000
0100
1000
0010
0100
0000
0110
0000
0001
0010
1000
0010
0001
,
0100
0000
0010
1000
0001
0000
0010
0100
1000
0000
0001
0100
0010
1000
0100
0010
,
0001
0000
0000
0100
0010
1000
0010
0100
0000
0101
0000
0010
0001
1000
0100
0000
,
2000
0000
3020
0000
0130
0001
0010
0100
0000
1100
0000
1000
0001
0100
0010
0000
,
2020
0000
0000
0000
0000
3030
0101
0000
0000
0000
0000
0000
2200
0000
0000
0000
0000
3300
0101
0000
0000
0000
0000
0000
0000
0000
0000
0000
0000
0000
0000
0000
,
0022
0000
0000
0000
0000
0033
1100
0000
0000
0000
0000
0000
0202
0000
0000
0000
0000
0303
1100
0000
0000
0000
0001
0000
0010
0000
0100
0000
1000
0000
0000
0000
,
0010
1000
0001
0010
0100
0010
0001
1000
0000
1001
0000
0010
1000
0100
1000
0001
,
0100
0010
0000
0010
1000
0100
0010
0001
0000
0011
0000
1000
0100
1000
0010
0100
,
0001
0010
0000
0001
1000
0100
1000
0010
0000
0110
0000
0010
0100
0001
0010
1000
,
0010
0001
0000
0001
1000
0100
1000
0010
0000
1100
0000
0100
1000
0001
1000
0010
,
0100
0001
0000
0010
0100
0010
0001
1000
0000
1010
0000
0100
0010
0100
1000
0001
,
0100
0001
0000
0010
0001
0100
0010
1000
0000
0110
0000
0001
1000
0100
1000
0010
,
0100
0001
0000
0001
0010
0100
1000
0010
0000
0101
0000
0001
0010
0100
1000
0010
,
1000
0001
0000
0001
0100
0010
0000
0010
1000
0100
0000
0100
0010
0001
0000
0001
,
0100
0000
0000
0000
1001
0000
0001
0100
0000
0010
1000
0001
0010
0100
1000
0000
2100
0000
3002
0000
0103
0000
0001
0010
0000
0010
0100
0000
1000
0000
0000
0000
,
0110
0000
0000
0001
0100
0000
0100
0010
0000
0010
1000
0100
1000
0001
0100
0000
0120
0000
2030
0000
3100
0010
0100
0010
0001
1000
0001
1000
0010
0100
0001
1000
,
0100
0000
0000
0000
0011
0000
0001
1000
0000
1000
0100
0010
0001
1000
0010
0000
1020
0000
0230
0000
0301
0000
1000
0100
0000
0100
0010
0000
0001
0000
0000
0000
,
2000
0001
3000
1000
0100
0000
0100
0010
0000
0010
0001
1000
0010
1000
0100
0000
0021
0000
0031
0000
1002
0000
1003
0000
0010
1000
0010
1000
0100
0010
0001
0000
,
0200
0001
0300
1000
0100
0000
1000
0010
0000
0010
0100
0010
1000
0001
1000
0010
0200
0000
0302
0000
0013
0000
0001
1000
0000
1000
0100
0000
0010
0000
0000
0000
,
0002
1000
0003
1000
0100
0000
0100
0010
0000
0010
0001
1000
0001
0100
0010
1000
0100
1000
0100
1000
0001
0100
0001
0100
0010
1000
0010
1000
0001
0010
0001
0010
,
0200
1000
0300
0010
0100
0000
0001
0010
0000
0010
0001
1000
0001
0100
0010
0000
2001
0000
3200
0000
0310
0000
0001
0100
0000
0010
1000
0000
0100
0000
0000
0000
,
0010
0001
0000
1000
0010
0000
0100
0001
0000
1000
0100
0000
1000
0000
0000
0000
0010
0001
0010
0100
0010
1000
0010
0000
0100
0001
0100
0010
0100
1000
0100
0000
,
1100
0000
0000
0100
1000
0000
0010
0100
0000
0001
0010
1000
0001
0100
1000
0000
,
0010
1000
0000
1000
0100
0000
0010
0001
0000
1000
0000
0001
0010
0001
0100
0000
,
0010
1000
0000
1000
0001
0010
0001
0100
0000
0100
0000
0001
0010
0100
1000
0000
,
0010
1000
0000
0001
1000
0100
0000
0010
0001
0100
0000
0001
1000
0100
1000
0010
,
1000
0100
0000
1000
0001
0010
0100
1000
0000
0011
0000
0100
0010
1000
0001
0000
,
0020
0000
0230
0000
1300
0001
1000
0010
0000
0101
0000
1000
0001
0010
0100
0010
,
0001
1000
0000
0001
1000
0010
0100
0001
0000
1000
0000
0100
1000
0010
0100
0000
,
0001
0010
0000
0001
1000
0100
0000
1000
0010
0100
0000
0010
1000
0001
0010
0001
,
0200
0000
0310
1000
0010
0100
0001
2000
0000
3100
1000
0001
0010
0100
1000
0000
,
0010
0000
0100
0000
0010
1000
0001
0100
0000
0001
0000
0010
0001
0100
1000
0000
,
0010
1000
0000
0100
1000
0001
0010
0100
0000
1100
0000
0001
1000
0010
0100
0000
,
0010
1000
0000
0100
0010
0100
0000
1000
0001
0010
0000
0001
0100
1000
0100
0001
,
0020
0000
0031
0100
0010
0100
0001
1000
0000
0110
0000
0100
1000
0001
0100
0000
,
0020
0000
1030
0001
0010
0100
1000
0010
0000
1010
0000
1000
0100
1000
0001
0010
,
0200
0000
0300
0010
0100
1000
0001
0100
0000
1001
0000
0001
1000
0010
1000
0100
,
0010
0001
0000
1000
0010
1000
0000
0001
0100
0001
0000
1000
0100
1000
0010
0100
,
0002
0000
2000
0000
,
0000
0000
0000
0000
,
0000
0000
3003
0000
0010
0100
0000
0100
,
0002
1000
1000
1003
,
0002
0023
0230
2300
3002
0023
0230
2300
,
0000
0000
0000
3000
;

//---------------dance-double - ----------------
#NOTES:
     dance-double:
     :
     Easy:
     6:
     :
00000000
00000000
00000000
00000000
,
00000000
00000000
00000000
00000000
,
00000000
00000000
00000000
00000000
,
00000000
00000000
00000000
00000000
,
00000000
00000000
00000000
00000000
,
00000000
00000000
00000000
00000000
,
00000000
00000000
00000000
00000000
,
10000000
00000000
01000000
10000000
,
00010000
00000000
01000000
00010000
,
10000000
00000000
00100000
00010000
,
00001000
00000000
00010000
00001000
,
00010000
00000000
00000100
00001000
,
00000001
00000000
00000100
00000001
,
00001000
00000000
00000001
00001000
,
00002002
00003003
00000000
00000000
,
00000100
00001001
00000000
00000000
,
00000010
00001001
00000000
00000000
,
00000001
00000110
00000000
00000000
,
00001000
00001000
00010000
00010000
,
01000000
10010000
00000000
00000000
,
00100000
10010000
00000000
00000000
,
10000000
01100000
00000000
00000000
,
00010000
00010000
00001000
00001000
,
00000100
00000001
00001000
00000100
,
00000020
00000030
00000200
00000300
,
00000010
00000001
00001000
00000010
,
00000200
00000300
00000020
00000030
,
00000100
00000001
00001000
00000100
,
00000020
00000030
00000200
00000300
,
00000100
00001000
00000001
00000100
,
00000010
00001001
00000100
00001001
,
00000100
00000000
00001000
00000000
,
00010000
00000000
01000000
00000000
,
00010000
00000000
00001000
00000000
,
00000010
00000000
00001000
00000000
,
00010000
00000000
00100000
00000000
,
00010000
00000000
00001000
00000000
,
00020000
00000000
00002000
00033000
,
00002000
00000000
00020000
00033000
,
00010000
01000000
00000000
00000000
,
01000000
10000000
00000000
00000000
,
10000000
00100000
00000000
00000000
,
00010000
00010000
00001000
00001000
,
00001000
00000100
00000000
00000000
,
00000100
00000001
00000000
00000000
,
00000001
00000010
00000000
00000000
,
00001000
00001000
00010000
00010000
,
00200000
00300000
20000000
30000000
,
02000000
03000000
00020000
00030000
,
00002000
00003000
00000200
00000300
,
00000002
00000003
00000020
00000030
,
00000200
00000300
00020000
00030000
,
00002000
00003000
02000000
03000000
,
00002000
00003000
00020000
00030000
,
00002000
00000000
00020000
00033000
,
00100000
00000000
01000000
10000000
,
00010000
00000000
01000000
00010000
,
10000000
00000000
00100000
00010000
,
00001000
00000000
00010000
00001000
,
00010000
00000000
00000100
00001000
,
00000001
00000000
00000100
00000001
,
00001000
00000000
00000001
00001000
,
00002002
00003003
00000000
00000000
,
00000100
00000000
00000010
00000001
,
00001000
00000000
00000010
00001000
,
00000001
00000000
00000100
00001000
,
00010000
00000000
00001000
00010000
,
00001000
00000000
00100000
00010000
,
10000000
00000000
00100000
10000000
,
00010000
00000000
10000000
00010000
,
20020000
30030000
00000000
00000000
,
02000000
00000000
00000000
03000000
,
00000000
00000000
00000000
00000000
,
00000000
00000000
00000000
00000000
,
00000000
00000000
00000000
00000000
,
10000000
00010000
00000000
00000000
;

//---------------dance-double - ----------------
#NOTES:
     dance-double:
     :
     Medium:
     10:
     :
00000000
00000000
00000000
00000000
,
00000000
00000000
00000000
00000000
,
00000000
00000000
00000000
00000000
,
00000000
00000000
00000000
00000000
,
00000000
00000000
00000000
00000000
,
00000000
00000000
00000000
00000000
,
00000000
00000000
00000000
00000000
,
00000010
00000000
00000000
00000100
00000000
00000010
00000001
00000000
,
00000100
00000000
00000001
00001000
,
00000100
00000000
00000000
00010000
00000000
00001000
00010000
00000000
,
01000000
10000000
00010000
01000000
,
00100000
00000000
00000000
01000000
00000000
00100000
10000000
00000000
,
01000000
00000000
10000000
00010000
,
01000000
00000000
00000000
00001000
00000000
00010000
00001000
00000000
,
00022000
00033000
00000000
00000000
,
00010000
00000000
01000000
10000000
00000000
10000000
01000000
00000000
,
00100000
00000000
00010000
01000000
00000000
01000000
00010000
00000000
,
01000000
00000000
00001000
00010000
00000000
00010000
00001000
00000000
,
00100000
00100000
01000000
01000000
,
10000000
00000000
01000000
10000000
00000000
10000000
01000000
00000000
,
00100000
00000000
00001000
00010000
00000000
00010000
00001000
00000000
,
00010000
00000000
00000100
00001000
00000000
00001000
00000100
00000000
,
00000010
00000010
00000100
00000100
,
00000001
00000000
00000100
00000001
00001000
00000001
00000100
00000000
,
00000010
00000000
00010000
00001000
00000100
00001000
00010000
00000000
,
00001000
00000000
00010000
00001000
01000000
00001000
00010000
00000000
,
01000000
01000000
00100000
00100000
,
00010000
00000000
10000000
01000000
00100000
01000000
10000000
00000000
,
01000000
00000000
00100000
00001000
00010000
00001000
00100000
00000000
,
00001000
00000000
00010000
00001000
00000100
00001000
00010000
00000000
,
00001000
00000000
00000000
00001000
00010000
00000000
00000000
00010000
00001000
00000000
00000000
00001000
00010000
00000000
00000000
00010000
,
00001000
00000100
00000001
00000010
,
00000100
00001000
00000001
00000100
,
00000010
00010000
00001000
01000000
,
01010000
11000000
01010000
11000000
,
00100000
01000000
00010000
10000000
,
00100000
01000000
00100000
10000000
,
00010000
00000000
00000000
00010000
00000000
00000000
10000000
00000000
00000000
10000000
00000000
00000000
00000000
00000000
00000000
00100000
,
00000000
00000000
00100000
00000000
00000000
01000000
00000000
00000000
01000000
00000000
00000000
00000000
00000000
00000000
00000000
00000000
,
10000000
00000000
11000000
00000000
00100000
00010000
00100000
00000000
,
00010000
00000000
01010000
00000000
00100000
10000000
00100000
00000000
,
10000000
00000000
10100000
00000000
01000000
00010000
01000000
00000000
,
00010000
00000000
00110000
00000000
10000000
01000000
10000000
00000000
,
01000000
00000000
01100000
00000000
10000000
01000000
00010000
00000000
,
00001000
00000000
00011000
00000000
00001000
00000100
00000001
00000000
,
00000010
00000000
00000110
00000000
00000001
00000100
00001000
00000000
,
00011000
00000000
00011000
00000000
,
00020000
00000000
00000000
02030000
00000000
00000000
13000000
00000000
00100000
00000000
00000000
00000000
00000000
00000000
00000000
00000000
,
20000000
00000000
00000000
30020000
00000000
00000000
01030000
00000000
00200000
00000000
00000000
00000000
00300000
00000000
00000000
00000000
,
02000000
00000000
00000000
03002000
00000000
00000000
00013000
00000000
00001000
00000000
00000000
00000000
00000000
00000000
00000000
00000000
,
00020000
00000000
00000000
00030200
00000000
00000000
00000310
00000000
00000002
00000000
00000000
00000000
00000003
00000000
00000000
00000000
,
00000100
00000000
00000001
00000100
00000000
00000001
00000100
00000000
00000020
00000000
00000000
00000000
00000030
00000000
00000000
00000000
,
00001000
00000000
00000010
00001000
00000000
00000010
00001000
00000000
00000200
00000000
00000000
00000000
00000300
00000000
00000000
00000000
,
00010000
00000000
01000000
10000000
00000000
01000000
10000000
00000000
00200000
00000000
00000000
00000000
00300000
00000000
00000000
00000000
,
10000000
00000000
00010000
01000000
00000000
00010000
01000000
00000000
00200000
00000000
00000000
00000000
00300000
00000000
01000000
00000000
,
00010000
10000000
00010000
00000000
10000000
00010000
10000000
00000000
,
00100000
01000000
00100000
00000000
01000000
00100000
01000000
00000000
,
00010000
10000000
01000000
00000000
10000000
00010000
01000000
00000000
,
00100000
10000000
00010000
00000000
00100000
00010000
10000000
00000000
,
01000000
00010000
00001000
00000000
00010000
00001000
00000100
00000000
,
00000001
00001000
00000010
00000000
00001000
00000001
00000010
00000000
,
00000100
00001000
00000001
00000000
00000100
00000001
00001000
00000000
,
00000100
00010000
00001000
00000000
00010000
00001000
01000000
00000000
,
00010000
00000000
10000000
00000000
10000000
01000000
10000000
00010000
,
01000000
00000000
00100000
00000000
00010000
00001000
00000010
00001000
,
00010000
00000000
00001000
00000000
00000100
00000001
00000100
00000010
,
00000100
00000000
00000001
00000000
00001000
00000001
00001000
00000100
,
00010000
00000000
00010000
00000100
00001000
00000100
00000010
00000000
,
00000001
00000000
00001000
00000000
00000010
00000100
00000001
00000100
,
00000010
00000000
00000100
00000000
00000001
00001000
00000100
00001000
,
00000001
00000000
00000100
00000000
00001000
00010000
00100000
00010000
,
00001000
00000000
00000000
00001000
00000000
00000000
00020000
00000000
00000000
00002000
00000000
00000000
00000000
00000000
00000000
00000000
,
00000000
00000000
00000000
00033000
,
00000000
00000000
00000000
00000000
,
00000000
00000000
00000000
00000000
,
00010000
00001000
00000100
00000002
00000000
00000000
00000003
00000000
;

//---------------dance-double - ----------------
#NOTES:
     dance-double:
     :
     Hard:
     13:
     :
00000000
00000000
00000000
00000000
,
00000000
00000000
00000000
00000000
,
00000000
00000000
00000000
00000000
,
00000000
00000000
00000000
00000000
,
00000000
00000000
00000000
00000000
,
00000000
00000000
00000000
00000000
,
00000000
00000000
00000000
00000000
,
00000010
00000000
00001000
00000001
00000000
00000001
00001000
00000000
,
00000100
00000000
00010000
00001000
00000000
00001000
00010000
00000000
,
01000000
00000000
00010000
10000000
00000000
10000000
00010000
00000000
,
11000000
01010000
11000000
01010000
,
00110000
00000000
10000000
01000000
00000000
01000000
10000000
00000000
,
10100000
00000000
01000000
00010000
00000000
00010000
01000000
00000000
,
00011000
00000000
00010000
00001000
00000000
00001000
00010000
00000000
,
00022000
00033000
00000000
00000000
,
00010000
01000000
10000000
00100000
10000000
01000000
00010000
00000000
,
00001000
00000100
00000001
00000010
00000001
00000100
00001000
00000000
,
00000100
00001000
00010000
01000000
00010000
00001000
00000100
00000000
,
00000101
00000001
00001000
00000000
00001100
00001000
00000001
00000000
,
00000010
00000001
00001000
00000001
00000100
00001000
00010000
00000000
,
01000000
10000000
00010000
10000000
00100000
00010000
00001000
00000000
,
00010000
00001000
00000100
00001000
00010000
01000000
00010000
00001000
,
00000010
00001000
00010000
00100000
00010000
00001000
00010000
00001000
,
01000000
00000000
00000000
00010000
01000000
00000000
00010000
00000000
10000000
00000000
00010000
00000000
10000000
00000000
00000000
00000000
,
01000000
00000000
00000000
10000000
01000000
00000000
10000000
00000000
00010000
00000000
10000000
00000000
00010000
00000000
00000000
00000000
,
00100000
00000000
00000000
00010000
00100000
00000000
00010000
00000000
10000000
00000000
00010000
00000000
10000000
00000000
00000000
00000000
,
00100000
00000000
00000000
10000000
00100000
00000000
10000000
00000000
01000000
00000000
00010000
00000000
00001000
00000000
00000100
00000000
,
00000001
00000000
00000000
00000010
00000001
00000000
00000001
00000000
00001000
00000000
00000100
00000000
00001000
00000000
00000100
00000000
,
00001000
00000000
00000000
00000010
00001000
00000000
00001000
00000000
00000001
00000000
00000100
00000000
00000001
00000000
00000100
00000000
,
00000001
00000000
00000000
00000100
00000001
00000000
00000001
00000000
00000100
00000000
00001000
00000000
00000100
00000000
00001000
00000000
,
00010000
00000000
00000000
00010000
00001000
00000000
00000000
00001000
00010000
00000000
00000000
00010000
00001000
00000000
00000000
00001000
,
00010000
00010000
01000000
01000000
10000000
10000000
00100000
00100000
,
01000000
01000000
00010000
00010000
10000000
10000000
01000000
00000000
,
00010000
00010000
00001000
00001000
00000010
00000010
00000100
00000100
,
00001000
00001000
00000010
00000010
00000100
00000100
00000001
00000000
,
00001000
00001000
00000100
00000100
00010000
00010000
00001000
00001000
,
01000000
01000000
00001000
00001000
00010000
00010000
00001000
00000000
,
00010000
00000000
00000000
00011000
00000000
00000000
00001000
00000000
00000000
00011000
00000000
00000000
00000000
00000000
00000000
00011000
,
00000000
00000000
00001000
00000000
00000000
00011000
00000000
00000000
01000000
00000000
00000000
00000000
00010000
01000000
00010000
00000000
,
10000000
00100000
00000000
10000000
00100000
00000000
00000000
00000000
01000000
00000000
00010000
00000000
00100000
00000000
00000000
00000000
,
00010000
00100000
00000000
00010000
00100000
00000000
00000000
00000000
00010000
00000000
10000000
00000000
01000000
00000000
00000000
00000000
,
10000000
00100000
00000000
10000000
00100000
00000000
00000000
00000000
01000000
00000000
00001000
00000000
00010000
00000000
00000000
00000000
,
00001000
00010000
00000000
00001000
00010000
00000000
00000000
00000000
00001000
00000000
00000100
00000000
00000001
00000000
00000000
00000000
,
00001000
00000001
00000000
00001000
00000001
00000000
00001000
00000000
00000100
00000000
00000010
00000000
00000001
00000000
00000000
00000000
,
00000010
00000100
00000000
00000010
00000100
00000000
00001000
00000000
00000100
00000000
00010000
00000000
00001000
00000000
00000000
00000000
,
01000000
00010000
00000000
01000000
00010000
00000000
10000000
00000000
01000000
00000000
00100000
00000000
00010000
00000000
00000000
00000000
,
10010000
00000000
10010000
00000000
,
20000000
00000000
00000000
30020000
00000000
00000000
01030000
00000000
00100000
00000000
00000000
00000000
00010000
00000000
00000000
00000000
,
00002000
00000000
00000000
00003200
00000000
00000000
00000301
00000000
00000020
00000000
00000000
00000000
00000030
00000000
00000000
00000000
,
00000002
00000000
00000000
00002003
00000000
00000000
00003100
00000000
00000010
00000000
00000000
00000000
00001000
00000000
00000000
00000000
,
00020000
00000000
00000000
02030000
00000000
00000000
13000000
00000000
00200000
00000000
00000000
00000000
00300000
00000000
00000000
00000000
,
10000000
00000000
00010000
01000000
00000000
00010000
01000000
00000000
00100000
00000000
10000000
01000000
10000000
00000000
00000000
00000000
,
00010000
00000000
10000000
01000000
00000000
01000000
10000000
00000000
00100000
00000000
00000000
00000000
00000000
00000000
00000000
00000000
,
00001000
00000000
00000001
00000100
00000000
00000001
00000100
00000000
00000010
00000000
00001000
00000100
00001000
00000000
00000000
00000000
,
00000001
00000000
00001000
00000100
00000000
00000000
00000000
00000000
00000000
00000000
00000000
00000000
00001000
00000001
00001000
00000001
,
00001000
00000000
00000000
00000000
00000001
00000000
00000000
00000001
00000000
00001000
00000100
00000000
00001000
00000000
00000000
00000000
,
00000100
00000000
00000000
00000000
00000010
00000000
00000000
00000010
00000000
00000001
00000100
00000000
00000001
00000000
00000000
00000000
,
00001000
00000000
00000000
00000000
00000100
00000000
00000000
00000100
00000000
00010000
00001000
00000000
00010000
00000000
00000000
00000000
,
00001000
00000000
00000000
00000000
01000000
00000000
00000000
01000000
00000000
00010000
00100000
00000000
00010000
00000000
00000000
00000000
,
01000000
00000000
00000000
00000000
00100000
00000000
00000000
00100000
00000000
10000000
01000000
00000000
10000000
00000000
00000000
00000000
,
00010000
00000000
00000000
00000000
01000000
00000000
00000000
01000000
00000000
00001000
00010000
00000000
00001000
00000000
00000000
00000000
,
00000100
00000000
00000000
00000000
00000010
00000000
00000000
00000010
00000000
00001000
00000100
00000000
00001000
00000000
00000000
00000000
,
00000100
00000000
00000000
00000000
00000010
00000000
00000000
00000010
00000000
00000001
00000100
00000000
00000001
00000000
00000000
00000000
,
00001000
00000001
00000100
00001000
00010000
01000000
10000000
00000000
,
00010000
10000000
01000000
00010000
00001000
00000100
00000001
00000000
,
00001000
00000001
00000010
00001000
00010000
00100000
10000000
00000000
,
00010000
10000000
00100000
00010000
00001000
00000010
00000001
00000000
,
00000010
00000001
00000100
00001000
00000100
00000001
00000100
00010000
,
00000100
00000010
00001000
00000010
00001000
00000100
00010000
01000000
,
00100000
00010000
00100000
00010000
01000000
00100000
00010000
10000000
,
01000000
00010000
01000000
10000000
00010000
00100000
10000000
00100000
,
00010000
00000000
00000000
00001000
00000000
00000000
00020000
00000000
00000000
00002000
00000000
00000000
00000000
00000000
00000000
00000000
,
00000000
00000000
00000000
00033000
,
00000000
00000000
00000000
00000000
,
00000000
00000000
00000000
00000000
,
00001000
00010000
01000000
20000000
00000000
00000000
30000000
00000000
;
