#TITLE:All for You;
#ARTIST:Janet Jackson;
#BANNER:All for You-bn.png;
#BACKGROUND:All for You-bg.png;
#JACKET:All for You-jacket.png;
#MUSIC:All For You.ogg;
#OFFSET:1.837;
#SAMPLESTART:24.33;
#SAMPLELENGTH:20;
#LASTBEATHINT:1.569;
#DISPLAYBPM:114;
#BPMS:0=113.5;
#BGCHANGES:;

//---------------dance-single - ----------------
#NOTES:
     dance-single:
     :
     Beginner:
     3:
     :
0000
0000
0000
0000
,
0000
0000
0000
0000
,
0000
0000
0000
0000
,
0000
0000
0000
0000
,
0000
0000
0000
0000
,
1000
0000
0001
0000
,
0100
0000
0010
0000
,
0100
0000
0001
0000
,
1001
0000
0110
0000
,
1000
0000
0010
0000
,
0100
0100
0100
0000
,
0001
0000
0010
0000
,
0001
0000
1000
1000
,
1000
0000
0010
0000
,
0100
0000
0001
0001
,
0001
0000
0010
0000
,
0001
0000
0100
0100
,
0100
0000
0010
0000
,
1000
0000
0010
0010
,
0010
0000
1000
0000
,
0001
0001
0001
0000
,
0100
0000
0010
0000
,
1000
1000
1000
0000
,
0100
0000
0010
0000
,
0100
0100
0100
0000
,
1000
0000
0001
0000
,
0010
0010
0010
0000
,
0001
0000
0100
0000
,
0001
0001
0001
0000
,
0000
1001
0000
0110
,
0000
0000
1000
1000
,
0000
1001
0000
0110
,
0000
0000
0010
0010
,
0000
1001
0000
0110
,
0000
0000
0001
0001
,
0000
1001
0000
0110
,
0000
0000
0100
0100
,
0100
0000
0001
0000
,
1000
0000
0010
0010
,
0010
0000
0100
0000
,
0010
0000
0100
0100
,
0100
0000
0001
0000
,
1000
0000
0001
0001
,
0001
0000
0010
0000
,
0001
0000
0100
0000
,
0001
0000
0010
0000
,
0100
0000
1000
0000
,
0010
0000
0001
0000
,
0100
0000
1000
0000
,
0001
0000
1000
0000
,
0100
0000
0010
0000
,
1000
0000
0001
0000
,
0100
0000
0010
0000
,
1001
0000
0110
0000
,
0001
0001
0001
0000
,
1000
0000
0000
0000
;

//---------------dance-single - ----------------
#NOTES:
     dance-single:
     :
     Easy:
     7:
     :
0000
0000
0000
0000
,
0000
0000
0000
0000
,
0000
0000
0000
0000
,
0000
0000
0000
0000
,
0000
0000
0000
0000
,
1000
1000
0001
0001
,
0100
0100
0010
0010
,
1000
0010
0001
0100
,
1001
0110
1001
0110
,
0001
0010
1000
0100
,
1000
0001
1000
0010
,
0100
0001
0010
0100
,
1000
0000
0010
0000
1000
0000
0100
0020
,
0000
0000
0031
0100
,
0001
0000
1000
0000
0010
0000
0100
0002
,
0000
0000
0013
0100
,
1000
0000
0010
0000
0100
0000
0001
2000
,
0000
3020
0000
0000
1030
0000
0100
0000
,
1000
0001
0010
0010
,
0011
0100
1010
0100
,
1100
0000
0101
0000
0010
0000
0001
2000
,
0000
3010
1000
0100
,
1000
0010
0001
0000
,
0000
0010
0001
0100
,
0010
1000
0100
0000
,
0000
1000
0001
0010
,
0001
1000
0100
0000
,
0000
0010
0100
0010
,
0001
0100
1010
0101
,
0000
0000
1000
0000
0010
0100
0001
0000
,
0020
0030
0001
1000
,
0010
0000
1000
0000
0100
0000
1000
0001
,
2000
0000
3000
0000
0010
0000
0010
0100
,
0001
0011
1000
1100
,
0002
0003
0100
0010
,
1000
0110
0001
1001
,
0100
0000
0010
0000
1000
0000
0001
0200
,
0000
0000
0310
0100
,
0001
0000
0010
0000
0100
0000
1000
0002
,
0000
0000
1003
0010
,
0100
0000
0001
0000
0010
0000
0100
2000
,
0000
3020
0000
0000
1030
0000
0001
0000
,
1000
0100
0010
0001
,
0011
0100
1010
0100
,
1100
0000
0101
0000
1000
0000
0010
0100
,
0001
0010
0001
0100
,
0010
1000
0100
1000
,
0010
1000
0001
0100
,
0001
0000
0010
0000
1000
0000
0000
0100
,
1000
0010
0100
0010
,
1000
0001
0100
0001
,
0100
1000
0001
0010
,
0001
0000
0100
0000
0010
0000
1000
0001
,
0020
0000
0031
0100
,
0001
0000
1000
0000
0010
0000
1000
0100
,
2000
0000
0000
0000
,
0000
0000
0000
3000
;

//---------------dance-single - ----------------
#NOTES:
     dance-single:
     :
     Medium:
     10:
     :
0000
0000
0000
0000
,
0000
0000
0000
0000
,
0000
0000
0000
0000
,
0000
0000
0000
0000
,
0000
0000
0000
0000
,
1000
0010
1000
0000
0001
0010
0001
0000
,
1000
0100
1000
0000
0001
0100
0001
0000
,
0010
0000
0000
0100
0000
0000
1000
0000
0001
0000
0000
0000
0100
0010
0000
0000
,
1001
0000
0110
0000
1001
0000
0110
1000
,
0001
0000
0010
0000
0001
0000
0000
0100
0000
0000
0101
0000
0000
1010
0000
0000
,
1000
0000
0100
0000
0010
0000
0000
0001
0000
0000
0000
0000
1000
0001
0000
0000
,
1000
0000
0010
0000
1000
0000
0000
0100
0000
0000
0010
0000
0000
0001
0000
0000
,
1000
0100
1000
0100
0020
0000
0031
2000
,
0010
0000
0100
0000
3001
1000
0010
1000
,
0100
0010
0100
1000
0002
0000
0103
0020
,
0000
1030
0001
0010
0100
1000
0100
0010
,
0100
1000
0100
1000
0002
0000
0103
0010
,
0000
1010
0000
0001
1000
0001
0010
0100
,
1000
0010
1000
0001
0200
0000
0310
0000
,
0201
2300
3200
0302
,
0023
0000
0031
1000
0200
0000
1300
0002
,
0000
0013
0001
0100
0001
0010
0001
0100
,
0010
1000
0100
1000
0020
0000
0030
0000
,
0000
1000
0100
1000
0001
1000
0010
0100
,
0001
0010
0001
1000
0200
0000
0300
0000
,
0000
0100
0010
0001
0010
0100
0010
0001
,
1000
0100
1000
0001
2000
0000
3000
0000
,
0000
0001
1000
0100
0010
0100
1000
0010
,
0100
0010
1000
0001
0010
0100
2000
0000
,
3000
0001
0100
0001
1000
0100
0010
0000
,
0011
0000
0000
0000
0100
0000
0001
0000
2000
0000
0000
3020
0000
0000
0230
0000
,
0000
0301
0010
0001
1000
0100
1000
0010
,
0100
0000
0000
0001
0010
0001
1000
0010
,
1000
0100
1000
0001
0010
0100
0010
0001
,
1000
0000
0000
0000
0010
0000
1000
0000
0200
0000
0000
0320
0000
0000
0032
0000
,
0000
1003
0200
0000
1300
0010
1000
0001
,
0010
0100
0010
0100
0020
0000
0031
2000
,
0100
0000
3001
0000
1000
0010
1000
0010
,
0200
0000
0301
0100
0020
0000
1030
0002
,
0000
0013
0001
1000
0001
0100
0010
0100
,
0001
0010
0001
1000
0200
0000
1300
0010
,
0000
0110
0000
0001
1000
0001
1000
0100
,
1000
0010
0100
0001
0020
0000
0130
0000
,
1200
0302
0203
2300
,
3010
0100
0010
1000
0002
0000
0013
0100
,
1000
0010
0100
0000
0001
0010
0100
0000
,
1000
0001
0100
0000
0010
1000
0001
0000
,
1000
0000
0000
0100
0000
0000
0010
0000
0001
0000
0000
0000
0100
0000
0010
0000
,
0100
0000
0000
0001
0000
0000
1000
0000
0020
0000
0000
0000
0130
0000
0001
0000
,
0010
0100
1000
0000
0001
0100
0010
0000
,
1000
0100
0001
0000
0010
0001
1000
0000
,
0010
0000
0000
1000
0000
0000
0100
0000
0001
0000
0000
0000
0001
0000
0010
0000
,
0001
0000
0000
0100
0000
0000
0010
0000
2000
0000
0000
0000
3100
0000
0010
0000
,
0001
0000
1001
0000
1000
0100
0010
0100
,
1000
0100
0010
0000
0001
0000
0100
0002
,
2000
0000
0000
0000
,
0000
0000
0000
3003
;

//---------------dance-single - ----------------
#NOTES:
     dance-single:
     :
     Hard:
     12:
     :
0000
0000
0000
0000
,
0000
0000
0000
0000
,
0000
0000
0000
0000
,
0000
0000
0000
0000
,
0000
0000
0000
0000
0000
0000
0000
0000
0000
0000
0000
0000
0000
0000
1000
0001
,
1000
0100
0010
0001
0100
0010
1000
0001
,
0010
0000
0100
0000
0001
0000
0100
0000
1000
0000
0010
0000
1000
0000
0001
0100
,
0001
0000
1000
0010
0000
0010
0100
0000
0001
0000
0000
0000
0100
0010
0000
0000
,
1001
0000
0000
0000
0110
0000
0000
0000
1001
0000
0000
0000
0110
0000
1000
0001
,
1000
0000
0010
0000
0100
0000
0001
1000
0000
0000
0101
0000
0000
1100
0000
0000
,
0010
0000
1000
0000
0100
0000
1000
0010
1000
0000
0000
0000
0001
0100
0000
0000
,
0001
0000
0010
0000
0100
0000
0010
0001
0000
0000
1000
0000
0010
0100
0010
0100
,
0010
1000
0100
0001
0100
0010
0100
1000
,
1001
0000
0000
0000
0010
0100
0010
0000
1000
0000
0100
0000
0001
0000
0100
0000
,
0010
0100
0001
0100
1000
0010
0100
0001
,
0011
0000
0000
0000
0001
1000
0001
0000
0100
0000
0010
0000
0100
0000
1000
0000
,
0100
0001
0010
1000
0010
0100
0010
0002
,
0000
1003
0001
0000
0100
0000
0010
0000
0001
0000
0010
0000
1000
0000
0100
0000
,
0001
0100
0010
0100
1000
0010
1000
0000
,
1100
0000
0000
0001
0100
0000
0010
0000
1000
0000
0100
0000
0001
0000
0100
0000
,
0010
0100
1000
0001
0100
0010
1000
1002
,
0000
0013
0001
0100
0001
1000
0001
0100
,
0001
0000
1000
0000
0001
0000
0010
0100
0010
0000
0001
0000
1000
0000
0000
0000
,
0100
0000
1000
0000
0010
0000
1000
0000
0100
0000
1000
0000
0010
0000
0100
0001
,
0100
0000
0010
0000
1000
0000
0001
0100
0001
0000
0010
0000
0100
0000
0000
0000
,
0010
0100
1000
0010
1000
0100
0001
0100
,
0010
0000
0100
0000
0001
0000
0100
1000
0100
0000
0010
0000
0001
0000
1000
0000
,
0001
0100
0010
0100
1000
0100
0010
0100
,
1000
0000
0100
0000
0001
0000
1000
0000
0001
0010
0001
0010
0002
0000
0000
0000
,
0103
0000
0010
0000
1000
0000
0010
0000
1000
0001
1000
0001
2000
0000
0000
0000
,
3010
0000
0100
0000
0010
0000
1000
0001
2000
0000
0000
3002
0000
0000
0203
0000
,
0000
0000
0310
0100
0010
0000
1000
0000
0100
0000
1000
0001
0000
0001
0010
0000
,
0100
0000
1000
0000
0010
0000
0100
0001
0100
0000
0010
0000
1000
0000
0001
0000
,
0100
0000
0001
0000
0010
0000
0001
0000
1000
0000
0100
0000
1000
0010
1000
0000
,
0100
0000
0010
0000
0001
0100
0001
0100
0002
0000
0000
2003
0000
0000
3020
0000
,
0000
0130
0000
0100
0001
0000
0000
0000
0010
0001
0010
0001
0010
0000
0100
0000
,
1000
1000
0001
0001
0100
0100
0010
0010
,
1000
0000
0001
0000
1000
0100
1000
0000
0010
0000
0001
0000
0010
0000
0100
0000
,
1000
0100
0001
0010
0001
1000
0100
0020
,
0000
0000
0031
0000
0010
0100
0010
0000
0001
0000
1000
0000
0001
0000
1000
0000
,
0010
0001
0010
0100
0010
0001
0010
2000
,
0000
3001
1000
0000
0010
0000
0100
0000
1000
0000
0100
0000
0001
0000
0010
0000
,
1000
0010
0100
0010
0001
0100
1000
0000
,
1010
0100
0010
0000
0011
1000
0001
0000
,
0100
0000
0010
0000
1000
0000
0001
0000
1000
0000
0100
0000
0010
0000
0001
1000
,
0001
0000
0100
0000
0010
0000
0100
0000
0001
1000
0001
0000
0010
0000
0100
0000
,
1000
0010
1000
0000
0100
0000
0010
0000
0001
0100
0001
0000
1000
0000
0010
0000
,
0100
0000
0001
1000
0000
0010
1000
0000
0001
0000
0000
0000
0100
0010
0100
0010
,
0100
0000
0000
0001
0000
0000
1000
0000
0010
0000
0100
0000
0010
0000
1000
0001
,
1000
0000
0010
0000
0001
0000
0010
0000
1000
0100
1000
0000
0001
0000
0100
0000
,
0010
1000
0010
0000
0100
0000
1000
0000
0100
0001
0100
0000
0001
0000
0010
0000
,
0100
0000
1000
0010
0000
0010
0100
0000
0001
0000
0000
0000
0001
1000
0001
1000
,
0001
0000
0000
0010
0000
0000
0001
0000
1000
0000
0100
0000
1000
0000
0010
0100
,
0010
0000
0000
0000
1000
0001
1000
0000
0010
0000
0100
0000
0001
0000
0100
0000
,
1000
0000
0100
0000
0001
0000
0010
0000
0100
0000
0000
0000
1000
0001
1000
0002
,
2000
0000
0000
0000
,
0000
0000
0000
3003
;

//---------------dance-single - ----------------
#NOTES:
     dance-single:
     :
     Challenge:
     15:
     :
0000
0000
0000
0000
,
0000
0000
0000
0000
,
0000
0000
0000
0000
,
0000
0000
0000
0000
,
0000
0000
0000
0000
0000
0000
0000
0000
0000
0000
0000
0000
0000
0000
1000
0001
,
1000
0000
0100
0010
0001
0000
0100
0000
0010
1000
0010
0000
0100
0000
0001
0000
,
0010
0100
1000
0000
0001
0000
1000
0010
0100
0010
1000
0000
0001
0000
1000
0100
,
1000
0000
0010
1000
0000
0100
0010
0000
0001
0000
0000
0000
0100
0010
0000
0000
,
1001
0000
0000
0000
0110
0000
0000
0000
1001
0000
0000
0000
0110
0000
1000
0001
,
0100
0000
0010
0000
0010
0000
1000
0100
1000
0000
0011
0000
0000
1100
0000
0000
,
0001
0000
0001
0000
0001
0000
0010
0100
1000
0010
1000
0010
1000
0100
0000
0000
,
0010
0000
0001
0000
0001
0000
1000
0010
1000
0000
0100
0010
0100
1000
0000
0001
,
1000
0000
1000
0000
1000
0000
0010
0000
0100
0001
0100
0000
0001
0000
0010
0100
,
1000
0000
0001
0000
0020
0230
0320
0031
1000
0000
0100
0000
1000
0000
0100
0000
,
0010
0000
0100
0000
1000
0000
0100
0000
0001
0010
0001
0000
1000
0000
0100
0010
,
0001
0000
0100
0000
0020
2030
3020
0130
0001
0000
1000
0000
0001
0000
0100
0000
,
0010
0000
0001
0000
0010
0000
1000
0000
0100
1000
0001
0000
0100
0000
0010
1000
,
0000
0001
0100
0000
0001
0010
0001
1000
0100
0000
0010
0000
0100
0000
1000
0000
,
0001
0000
0100
0000
0010
0000
1000
0001
1000
0000
0010
0100
0001
0000
0000
0000
,
1100
0000
0001
0010
0100
0000
1000
0100
1000
0000
0010
1000
0001
0000
0100
0000
,
0010
1000
0100
0010
0001
0000
0100
0000
1000
0100
0001
0000
0010
0000
0100
0000
,
1000
0010
0000
0100
0000
0001
0000
0010
0000
0001
0000
0100
0000
1000
0000
0010
,
0000
1000
0000
0100
0000
0010
0001
0100
0001
0010
1000
0010
0001
0000
1000
0100
,
0010
0001
0000
0100
0000
0001
0000
1000
0000
0010
0000
0100
0000
0001
1000
0010
,
0000
0100
0000
0010
1000
0100
1000
0001
0010
0100
0010
0001
0010
1000
0010
0100
,
0010
0001
0000
0100
0000
0010
0000
1000
0000
0100
0000
1000
0000
0001
0000
0100
,
0000
0010
0000
1000
0000
0100
0010
0001
1000
0100
0010
0001
0000
0101
0000
0010
,
1000
0001
0000
0100
0000
0001
0000
0010
0000
0100
0000
1000
0000
0010
0000
0100
,
0000
0001
0010
1000
0000
0100
0000
1000
0010
0100
0001
1000
0100
0010
0001
0100
,
0010
1000
0000
1010
0000
1010
0000
1010
0000
0001
0010
0100
1000
0000
0001
0000
,
0100
0000
0010
0000
1000
0001
0010
0100
1000
0000
0010
0100
0000
0001
1000
0000
,
0100
0010
0001
0100
0000
0001
1000
0010
1000
0100
0010
0001
0100
1000
0000
0010
,
0100
0000
0001
0010
0001
1000
0100
0010
0001
0000
1000
0100
0000
1100
0000
1100
,
0000
0010
0000
0100
0000
0001
0000
0011
0000
0011
0000
0001
1000
0100
0000
1000
,
0010
0000
0100
0000
0001
0010
0001
1000
0010
0000
1000
0001
0000
1000
0100
0000
,
0010
0001
0000
0001
1000
0100
0000
0110
0000
0010
0100
1000
0010
0000
0100
0000
,
0101
0000
1010
0000
0101
0000
1010
0000
1000
0100
0010
0000
0001
0000
0100
0010
,
1000
0000
0001
0000
0020
0230
0320
0031
1000
0000
0100
0000
1000
0000
0010
0000
,
0001
0000
0010
0000
1000
0000
0010
0000
0100
0010
1000
0000
0001
0000
0100
0010
,
1000
0000
0001
0000
0200
0320
0230
0301
0010
0000
1000
0000
0100
0000
1000
0000
,
0001
0010
0001
0000
1000
0100
1000
0000
0010
0100
0001
0000
1000
0000
0100
0010
,
0000
0001
1000
0000
0002
0203
0302
0013
0100
0000
1000
0000
0010
0000
1000
0000
,
0100
0000
0010
0000
0001
0000
1000
0000
0001
0100
0010
1000
0100
0000
1000
0001
,
2000
0000
0010
0000
3100
0000
0010
0001
0100
0000
0001
1000
0010
0000
0100
0000
,
0001
0010
0000
0100
1000
0000
0010
0000
1000
0001
0100
0000
0001
0000
0010
0100
,
1000
0000
0001
0100
0001
0000
0010
0000
0100
1000
0001
0000
1000
0000
0010
0000
,
0100
0010
1000
0000
0001
0000
0010
1000
0010
0001
0100
0000
0010
0000
1000
0001
,
1000
0000
0010
1000
0000
1000
0100
0010
0001
0000
0100
0000
0001
0010
0001
0100
,
0001
0000
0010
0001
0000
0001
0100
0010
1000
0100
1000
0100
1000
0000
0001
0010
,
0100
0000
1000
0010
1000
0000
0001
0000
0100
0001
0010
0000
0001
0000
1000
0000
,
0100
0010
0100
0000
1000
0000
0001
0010
1000
0010
0001
0000
0100
0000
0001
1000
,
0010
0000
0100
0001
0000
0100
0010
1000
0001
0000
1000
0000
0010
1000
0100
0001
,
0010
0000
0001
1000
0000
0100
1000
0010
0100
0001
0100
0001
0100
0000
0010
1000
,
0001
0000
0100
0000
0020
2030
3200
1300
0001
0000
0010
0000
1000
0000
0010
0000
,
0100
0000
0010
0000
0001
0000
1000
0000
0010
0000
0000
0000
0100
0001
0100
0001
,
2000
0000
0000
0000
,
0000
0000
0000
3000
;
