#TITLE:All Night Long;
#SUBTITLE:(All Night);
#ARTIST:Lionel Richie;
#BANNER:All Night Long (All Night)-bn.png;
#BACKGROUND:All Night Long (All Night)-bg.png;
#JACKET:All Night Long (All Night)-jacket.png;
#MUSIC:All Night Long (All Night).ogg;
#SAMPLESTART:44;
#SAMPLELENGTH:20;
#DISPLAYBPM:109;
#BPMS:0=108.81;
#BGCHANGES:;

//---------------dance-single - ----------------
#NOTES:
     dance-single:
     :
     Beginner:
     3:
     :
0000
0000
0000
0000
,
0000
0000
0000
0000
,
0000
0000
0000
0000
,
0000
0000
0000
0000
,
0010
0000
0001
0000
,
0100
0000
0000
0000
,
0001
0000
0010
0000
,
1000
0000
0000
0000
,
0100
0000
1000
0000
,
0010
0000
0000
0000
,
0001
0000
0100
0000
,
1000
1000
1000
0000
,
0010
0000
1000
0000
,
0001
0000
0100
0000
,
0001
0000
0010
0000
,
0100
0100
0000
0000
,
0000
1000
0000
0100
,
0000
0010
0000
0001
,
0000
0000
0000
0000
,
0100
0100
0000
0000
,
0001
0001
0001
0000
,
1001
0000
0000
0000
,
0100
0100
0100
0000
,
0110
0000
0000
0000
,
0010
0010
0010
0000
,
0110
0000
0000
0000
,
1000
1000
1000
0000
,
1001
0000
0000
0000
,
0110
0000
0000
0000
,
0001
0000
1000
0000
,
0100
0000
0000
0000
,
1000
0000
0001
0000
,
0010
0000
0000
0000
,
0001
0000
0100
0000
,
0010
0000
0000
0000
,
1000
0000
0100
0000
,
0010
0000
0000
0001
,
0000
0010
0000
0100
,
0000
1000
0000
0000
,
0000
0000
0100
0100
,
0100
0000
0010
0010
,
0010
0000
0110
0000
,
0000
0000
0001
0001
,
0001
0000
1001
0000
,
0000
0000
1000
1000
,
1000
0000
1001
0000
,
0000
0000
0100
0100
,
0100
0000
0110
0000
,
0000
0000
1001
0000
,
1000
0000
0001
0000
,
1000
0000
0001
0000
,
0100
0000
0110
0000
,
0000
0000
1001
0000
,
0100
0000
0010
0000
,
0100
0000
0010
0000
,
1000
0000
1001
0000
,
0000
0000
0110
0000
,
0001
0000
1000
0000
;

//---------------dance-single - ----------------
#NOTES:
     dance-single:
     :
     Easy:
     5:
     :
0000
0000
0000
0000
,
0000
0000
0000
0000
,
0000
0000
0000
0000
,
0000
0000
0000
0000
,
0010
0000
0001
0000
,
0100
0010
1000
0000
,
0100
0000
0010
0000
,
0001
1000
0010
0000
,
1000
0000
0100
0000
,
0010
0001
1000
0000
,
0001
0000
1000
0100
,
1000
0001
0100
0010
,
1000
0000
0010
0100
,
0000
0001
1000
0000
,
0100
0000
0010
0001
,
0100
0010
1000
0010
,
0000
0101
0000
1100
,
0000
0101
0000
1100
,
0000
0001
0000
1000
,
0010
1000
0100
0000
,
1001
1001
0110
0000
,
0002
0003
0100
0010
,
1000
1000
0001
0000
,
0020
0030
0001
0100
,
0010
0010
1000
0000
,
0200
0300
1000
0001
,
0100
0100
0010
0000
,
2000
3000
0100
1000
,
0001
0100
0010
0000
,
1000
0100
1000
0001
,
0020
0030
0001
0000
,
0100
0001
0010
0100
,
2000
3000
0001
0000
,
0010
0001
1000
0001
,
0200
0300
0002
0003
,
1000
0100
1000
0001
,
0100
0010
0000
0101
,
0000
1100
0000
0101
,
0000
1100
0000
0010
,
0000
0100
0001
0010
,
1000
0000
1001
1001
,
0110
0000
0200
0300
,
0010
1000
0100
0100
,
1000
0000
0020
0030
,
1000
0001
0100
0100
,
0010
0000
2000
3000
,
0100
1000
0010
0010
,
0100
0000
0002
0003
,
0010
0001
1000
0010
,
0100
0001
1001
0000
,
0010
1000
0100
0010
,
0001
0000
0110
0000
,
1000
0010
0100
0000
,
0010
1000
0110
0000
,
0100
0001
0010
0100
,
1000
0000
1001
0000
,
0010
0100
0001
0001
,
1000
1100
0001
0101
;

//---------------dance-single - ----------------
#NOTES:
     dance-single:
     :
     Medium:
     10:
     :
0000
0000
0000
0000
,
0000
0000
0000
0000
,
0000
0000
0000
0000
,
0000
0000
0000
0000
,
0020
0000
0030
0000
0001
1000
0100
0000
,
0010
0001
0100
0000
0010
0000
0110
0000
,
2000
0000
3000
0000
0100
0010
0001
0100
,
0001
0000
0000
1000
0000
0000
0010
0000
0000
0000
0000
0000
1001
0000
0000
0000
,
0002
0000
0003
0010
0100
1000
0000
0010
,
1000
0000
0000
0001
0000
0000
0100
0000
0000
0000
0000
0000
0110
0000
0000
0000
,
0200
0000
0300
0000
0001
1000
0010
1000
,
0001
0000
0010
0001
1000
0000
0100
0010
,
0002
0000
0003
0000
0100
0010
2000
0000
,
3000
0000
0100
1000
0001
0000
1001
0000
,
0020
0000
0030
0000
1000
0001
1000
0100
,
0010
0000
0000
0001
0000
0000
0100
0000
0000
0000
0010
0000
1000
0000
0001
0000
,
0000
0000
0000
0200
0000
0000
0310
0000
0000
0000
0000
1000
0001
0000
0010
0000
,
0000
0000
0000
0001
0100
0000
0010
0000
0000
0000
0000
1000
0100
0000
0010
0000
,
0001
0000
0100
0000
0000
0010
1000
0001
,
0010
0000
0000
0001
0000
0000
0100
0000
0000
0000
0000
0001
1000
0000
0100
0000
,
1001
0000
0000
0000
1001
0000
0000
0000
0110
0000
0000
0000
0000
1000
0000
0002
,
0000
0000
0013
0100
1000
0000
0010
0100
,
0101
0000
0000
0000
0101
0000
0000
0000
1010
0000
0000
0000
0000
0010
0000
0200
,
0000
0000
0301
1000
0100
0000
0010
0001
,
0011
0000
0000
0000
0011
0000
0000
0000
1100
0000
0000
0000
0000
1000
0000
0020
,
0000
0000
0130
0001
1000
0000
0001
0100
,
0110
0000
0000
0000
0110
0000
0000
0000
1001
0000
0000
0001
0000
2000
0000
0000
,
0000
0000
0000
0000
3100
0000
0010
0000
0100
0000
0000
0000
0000
1000
0000
0002
,
0000
0000
0000
0000
0103
0010
0100
0010
0200
0000
0000
0000
0300
0000
0000
0001
,
1000
0000
0010
0000
1000
0000
0100
0000
0010
0000
0001
0000
,
0202
0303
2000
3000
,
0010
0000
1000
0000
0100
0000
0010
0000
0001
0000
0100
0000
,
2020
3030
0002
0003
,
1000
0000
0010
0000
1000
0000
0100
0000
0010
0000
0001
0000
,
0022
0000
0033
0000
0010
0001
0200
0000
,
0301
0000
1000
0000
0010
0000
0100
0000
0010
0000
1000
0000
,
1001
0000
0000
0000
0010
0000
0100
0000
1000
0000
0000
0010
0000
0000
0100
0000
,
0000
0000
0000
0001
0010
0000
0100
0000
0000
0000
0000
1000
0001
0000
0100
0000
,
0000
0000
0000
0001
1000
0000
0010
0000
0100
0000
0000
0000
0001
0000
1000
0000
,
0000
0010
1000
0100
2000
0000
3002
0000
,
0103
0000
0000
0010
1000
0000
0100
0000
1001
0000
0000
0000
1001
0000
0000
0000
,
0110
0000
0000
1000
0000
0200
0000
0000
0000
0000
0000
0000
0310
0000
0001
0000
,
0100
0000
0001
1000
1100
0000
1100
0000
,
0101
0000
0000
0000
0000
0001
0000
2000
0000
0000
0000
0000
3100
0000
0010
0000
,
0100
0000
1000
0001
0011
0000
0011
0000
,
1010
0000
0000
0000
0000
0100
0000
0002
0000
0000
0000
0000
1003
0000
0010
0000
,
0100
0000
0010
1000
0110
0000
0110
0000
,
1001
0000
0000
0000
0000
1000
0000
0020
0000
0000
0000
0000
0130
0000
0001
0000
,
0010
0000
0000
0001
1000
0000
0000
0000
1100
0000
0000
0010
0100
0000
0001
0000
,
1000
0100
0010
0100
2000
0000
3000
0001
,
0001
1000
0100
1000
0001
0000
0010
0100
,
1000
0000
0000
0000
0000
0010
0000
0200
0000
0000
0000
0000
0301
0000
1000
0000
,
0100
0000
0000
0000
0000
0010
0000
0002
0000
0000
0000
0000
1003
0000
0010
0000
,
0100
0001
0010
0001
0200
0000
0300
0010
,
0010
1000
0001
1000
0010
0000
0100
0001
,
0010
0000
0000
0000
0000
0001
0000
2000
0000
0000
0000
0000
3010
0000
0100
0000
,
0010
0000
0000
0000
0000
1000
0000
0200
0000
0000
0000
0000
1300
0000
0001
0000
,
0010
0001
0100
0010
1000
0100
1000
1001
;

//---------------dance-single - ----------------
#NOTES:
     dance-single:
     :
     Hard:
     12:
     :
0000
0000
0000
0000
,
0000
0000
0000
0000
,
0000
0000
0000
0000
,
0000
0000
0000
0000
,
0010
0000
0001
0000
1000
0001
0100
0010
,
1000
0000
0000
0100
0000
0000
0001
0000
0000
0010
0000
0010
0000
0001
1000
0000
,
0100
0000
0010
0001
1000
0010
1000
0100
,
0010
0000
0000
0001
0000
0000
0100
0000
0000
0001
0000
1000
0000
1000
0100
0000
,
0010
0000
0000
0000
0000
0000
0001
0000
0100
0000
0010
0000
2000
0000
0000
0000
0000
0000
3001
0000
0000
1000
0000
0000
,
0020
0000
0000
1030
0000
0000
0000
0001
0000
0010
0000
0001
0000
1000
0100
0000
,
0010
0000
0100
0000
1000
0010
1000
0001
,
0010
0001
1000
0001
0010
0100
1000
0010
,
0100
0000
0000
0000
0000
0000
0001
0000
0010
0000
0001
0000
1000
0000
0000
0010
0000
0000
0200
0000
0000
0000
0000
0000
,
0301
0000
0010
0100
0010
0000
0001
0000
1000
0000
0000
0100
0000
1000
0001
0000
,
0100
0000
0010
1000
0001
1000
0100
0010
,
0001
0000
0000
0100
0000
0000
1000
0000
0000
0000
1000
0010
0000
0010
0100
0000
,
0001
0000
0000
1000
0001
0000
0100
0000
0010
0000
0000
1000
0100
0000
0010
0000
,
0001
0000
0000
0100
0001
0000
0010
0000
0100
0000
0000
1000
0010
0000
1000
0000
,
0001
0000
0010
0000
0100
0000
1000
0000
0000
0000
0010
0100
0000
0001
1000
0000
,
1100
0000
0000
0110
0000
0000
0011
0000
0000
0000
0000
0100
0001
0000
1000
0000
,
1001
0000
0000
0000
1001
0000
0000
0000
0110
0000
0000
0000
0010
1000
0000
1000
,
0002
0000
0100
0000
0103
0000
0010
0000
1000
0000
0000
0100
0000
0010
0000
0001
,
0100
0000
0000
0000
0101
0000
0000
0000
1100
0000
0000
0000
0001
0100
0000
0100
,
0020
0000
1000
0000
1030
0000
0100
0000
1000
0000
0000
0010
0000
0100
0000
0001
,
0010
0000
0000
0000
0011
0000
0000
0000
1010
0000
0000
0000
0100
0001
0000
0001
,
2000
0000
0010
0000
3010
0000
0100
0000
0001
0000
0000
0010
0000
0001
0000
1000
,
0010
0000
0000
0000
0110
0000
0000
0000
1001
0000
0000
0000
1000
0001
0000
0001
,
0020
0000
0100
0000
0130
0000
1000
0000
0010
0000
0000
1000
0000
0100
0000
1000
,
0001
0000
0010
0000
0001
0100
0001
0100
0001
0000
0000
1000
0010
0000
0000
1000
,
0100
0000
1000
0000
0001
0000
0010
0000
0001
0000
1000
0000
,
0010
0000
0000
0100
0010
0000
1000
0000
0001
0000
0000
0010
0100
0000
0000
0000
,
1000
0000
0010
0000
0100
0000
0001
0000
0010
0000
0001
0000
,
1000
0000
0000
0010
1000
0000
0001
0000
0100
0000
0000
0000
0101
0000
0000
0000
,
1000
0000
0100
0000
0010
0000
0001
0000
1000
0000
0001
0000
,
0100
0000
0000
0000
0000
0000
0000
0000
0000
0010
0000
0000
1000
0000
0000
0000
0000
0000
0001
0000
0000
0000
0000
0000
0010
0000
0000
0000
0100
0000
0000
0000
0010
0000
0000
0000
0100
0000
0000
0000
0000
0000
0000
0000
0000
0000
0000
0000
,
1000
0000
0010
0000
1000
0000
0100
0000
0010
0000
0001
0000
,
0110
0000
0001
1000
0000
1000
0100
0000
0010
0000
0000
0001
1000
0000
0010
0000
,
0100
0000
0000
0001
1000
0000
0100
0000
1000
0000
0000
0001
0010
0000
0100
0000
,
1000
0000
0000
0010
0100
0000
0001
0000
0010
0000
0000
0001
1000
0000
0010
0000
,
0000
0000
1000
0100
0000
1000
0001
0000
0011
0000
0000
0000
1000
0001
0000
1000
,
0010
0100
0001
0000
1001
0000
1001
0000
,
0110
0000
0000
0000
1000
0010
0000
0010
0200
0000
0001
0000
0301
0000
1000
0000
,
0100
0000
0010
0001
0000
1000
0000
0001
0100
0000
0000
0000
1010
0000
0000
0000
,
0101
0000
0000
0000
1000
0100
0000
0100
0020
0000
0001
0000
0031
0000
1000
0000
,
0010
0000
0100
0001
0000
1000
0000
0000
1100
0000
0000
0000
0110
0000
0000
0000
,
0011
0000
0000
0000
1000
0010
0000
0010
0100
0000
0000
0001
1000
0000
0100
0000
,
0010
0000
0001
0100
0000
0001
0000
1000
0010
0000
0000
0000
0110
0000
0000
0000
,
1001
0000
0000
0000
1000
0100
0000
0100
0010
0000
0000
0001
1000
0000
0010
0000
,
0100
0001
0000
0100
0001
0000
0000
0010
0100
0000
0000
0000
1000
0010
1000
0010
,
1000
0000
0100
0010
0000
0011
0000
0011
0000
0000
0000
0100
0010
0000
1000
0000
,
0100
0000
1000
0001
0000
1010
0000
1010
0000
0000
0000
1000
0000
0001
0000
1000
,
0100
0000
0000
0000
0010
0001
0000
0001
2000
0000
0010
0000
3010
0000
0100
0000
,
0001
0000
0000
0000
0010
0001
0000
0001
0100
0000
0000
0010
1000
0000
0001
0000
,
0100
0000
0010
1000
0000
1100
0000
1100
0000
0000
0000
1000
0001
0000
0010
0000
,
0001
0000
0100
0010
0000
0101
0000
0101
0000
0000
0000
1000
0000
0100
0000
1000
,
0001
0000
0000
0000
0010
0100
0000
0100
1000
0000
0000
0010
1000
0000
0001
0000
,
0100
0000
0000
0010
0000
1000
0000
1001
0000
1001
0000
0001
0100
0000
0010
0000
,
1000
0100
1000
0100
0000
0010
0000
0001
1000
0001
1000
0001
0000
0110
0000
0000
;

//---------------dance-single - ----------------
#NOTES:
     dance-single:
     :
     Challenge:
     14:
     :
0000
0000
0000
0000
,
0000
0000
0000
0000
,
0000
0000
0000
0000
,
0000
0000
0000
0000
,
0020
0000
0000
0000
0000
0000
0000
0000
0000
0000
0000
0000
0030
0000
0000
0001
0000
0000
0000
0000
0000
1000
0000
0000
0000
0000
0000
0000
0002
0000
0000
0000
0000
0000
0000
0000
0000
0000
0000
0000
0000
0000
0000
0000
0000
0103
0000
0000
,
0010
0000
1000
0100
0000
0010
0000
0001
0000
1000
0000
0001
0000
0100
0010
0000
,
1000
0000
0100
1000
0001
0010
0001
0100
,
1010
0000
0000
1100
0000
0000
0001
1000
0000
0101
0000
0010
0100
0010
0100
0000
,
0001
0000
0000
0000
0000
0000
0010
0000
0001
0000
1000
0000
0200
0000
0000
0000
0000
0000
1300
0000
0000
0010
0000
0000
,
0110
0000
0000
0001
0100
0010
0000
1000
0000
0100
0000
1000
0000
0001
0100
0000
,
0010
0000
0000
1000
0001
0000
0000
0000
1001
0000
0010
1000
0000
0100
0000
2000
,
0000
3010
0000
0200
0000
0301
0000
0020
0000
0130
0000
2000
0000
3001
0100
0000
,
0011
0000
0000
1000
0010
1000
0100
0010
0000
0002
0000
0000
,
1003
0000
0010
0100
0010
0100
0000
0001
0000
1000
0000
0001
0000
0010
0100
0000
,
1000
0000
0000
0000
0000
0000
0010
0000
0000
0100
0000
0000
0002
0000
0000
0000
2000
0000
0003
0000
0000
3100
0000
0000
,
1100
0000
0000
0001
0000
1000
0000
0010
1000
0000
0100
0010
0000
0001
0100
0000
,
0110
0000
0000
1000
0100
0000
0010
0000
0011
0000
0000
0001
1000
0000
0010
0000
,
1010
0000
0000
0100
1000
0000
0001
0000
0101
0000
0000
0010
0001
0000
0100
0000
,
1001
0000
0010
1000
0000
1000
0001
0000
0010
0000
0001
0100
0000
0100
0010
0000
,
1010
0000
0000
0101
0000
0000
0011
0000
1000
0001
0000
1000
0010
0100
0001
0000
,
1001
0000
0000
0000
1000
0001
0100
0010
1000
0000
0100
0010
0000
0001
0000
1000
,
0010
1000
0000
0100
0020
0000
0031
0000
0100
0000
0010
1000
0000
0001
0000
0010
,
0001
0000
0100
0010
1000
0100
1000
0000
0001
0000
0010
0001
0000
0100
0000
0010
,
1000
0010
0000
1000
0002
0000
0103
0000
0010
0000
1000
0001
0000
0010
0000
0100
,
1000
0010
0000
0100
0001
1000
0001
0000
0010
0000
0001
0100
0000
0010
0000
1000
,
0001
1000
0000
0100
0020
0000
0031
0000
0100
0000
0010
1000
0000
0001
0000
1000
,
0010
0100
0000
0001
1000
0001
0010
0000
0100
0000
1000
0010
0000
0100
0000
0001
,
0010
0001
0000
1000
0200
0000
0310
0000
0001
0100
0001
1000
0000
0010
0000
0100
,
0001
0010
0000
0001
1000
0100
1000
0100
0010
0000
0001
1000
0001
0000
0100
0010
,
1000
0000
0000
0000
0100
1000
0000
0001
0010
0000
0000
0000
0001
0000
0000
0000
0100
0010
0000
1000
0001
0000
0000
0000
,
0010
0000
0000
0000
0001
0000
0000
0000
0100
0000
0000
0000
0001
0000
0000
0000
1000
0000
0000
0000
0100
0000
0000
0000
0010
0000
0000
0000
0000
0000
0001
0000
0000
1000
0000
0000
0001
0000
0000
0000
0000
0000
0100
0000
0000
0010
0000
0000
,
1000
0000
0000
0000
0100
0010
0000
0001
1000
0000
0000
0000
0010
0000
0000
0000
1000
0001
0000
0100
0010
0000
0000
0000
,
1000
0000
0000
0000
0100
0000
0000
0000
0010
0000
0000
0000
0001
0000
0000
0000
1000
0000
0000
0000
0001
0000
0000
0000
0100
0000
0000
0000
0000
0000
0010
0000
0000
1000
0000
0000
0010
0000
0000
0000
0000
0000
1000
0000
0000
0001
0000
0000
,
0100
0000
0000
0000
0001
0010
0000
0100
1000
0000
0000
0000
0010
0000
0000
0000
1000
0001
0000
0010
0100
0000
0000
0000
,
1000
0010
1000
0100
0010
0001
0100
0010
0100
0010
1000
0001
,
0010
0000
0000
0000
0001
0100
0000
0010
1000
0000
0000
0000
0001
0000
0000
0000
1000
0010
0000
0100
0001
0000
0000
0000
,
0011
0000
0001
0100
0000
0010
1000
0000
1100
0000
0000
0100
1000
0000
0001
0000
,
1001
0000
0000
0010
0100
0000
0001
0000
0110
0000
0000
1000
0001
0000
0010
0000
,
0101
0000
0000
0100
0010
0000
1000
0000
1010
0000
0100
1000
0000
1000
0001
0000
,
0010
0000
0001
0100
0000
0100
0010
0000
0110
0000
0010
1000
0001
0000
0010
0100
,
1000
0010
0000
1000
0001
0000
0100
0000
1001
0000
0000
0000
1000
0001
0100
0010
,
1000
0000
0100
0010
0000
0001
0000
0100
0001
1000
0000
0001
0010
0100
1000
0000
,
0010
0000
1000
0001
1000
0100
0000
0100
0010
0001
0000
1000
0001
0010
0100
0000
,
1000
0000
0001
0100
0000
0010
0000
1000
0100
0010
0100
1000
0002
0000
0103
0000
,
0010
0000
1000
0001
0000
0010
0000
0001
0100
0010
0000
1000
0100
1000
0001
0000
,
0010
0000
0001
0100
0000
0001
0000
1000
0010
0100
0010
1000
0002
0000
0103
0000
,
0010
1000
0100
1000
0000
0001
0000
0010
0001
0100
0010
0100
0001
0000
1000
0010
,
1000
0001
1000
0010
0000
0100
0000
0001
0010
0001
1000
0001
0100
0010
0100
0000
,
0001
0010
0001
1000
0100
1000
0000
0010
0100
0001
0000
0001
1000
0010
1000
0100
,
0010
0000
0001
1000
0000
1100
0000
0101
0000
1000
0100
1000
0001
0010
0100
0000
,
1000
0000
0010
0100
0000
0001
0000
1000
0010
1000
0000
0100
0010
0001
0000
0100
,
0001
0000
1000
0010
0000
1000
0000
0100
0010
0001
0000
1000
0001
0010
0100
0000
,
1000
0010
1000
0100
0000
0010
0000
0001
1000
0010
0000
0100
0001
0000
0010
0000
,
0100
0000
1000
0001
0000
0011
0000
1010
0000
1000
0100
0010
0001
1000
0001
0000
,
0100
0000
0010
1000
0100
1000
0000
0001
0010
0001
0000
0100
0010
1000
0000
1000
,
0100
0010
0001
0100
0000
0010
0000
1000
0100
1000
0000
0001
1000
0010
0100
0000
,
0001
0010
0001
0100
0010
1000
0000
0110
0000
1001
0000
0001
1000
0010
0100
0001
,
1000
0100
1000
0100
0000
0110
0000
0010
0001
1000
0001
1000
0000
1100
0000
0000
;
