#TITLE:After ZABANIYA;
#ARTIST:Daily Tianli;
#BANNER:After ZABANIYA-bn.png;
#BACKGROUND:After ZABANIYA-bg.png;
#JACKET:After ZABANIYA-jacket.png;
#MUSIC:After ZABANIYA.ogg;
#OFFSET:0.944;
#SAMPLESTART:100.7;
#SAMPLELENGTH:20;
#DISPLAYBPM:111:444;
#BPMS:0=222,76=111,92=222,124=111,132=222,148=444,180=222,212=111,228=222,260=111,292=222,324=444,516=222,517=444,581=111;
#BGCHANGES:;

//---------------dance-single - ----------------
#NOTES:
     dance-single:
     :
     Beginner:
     7:
     :
0000
0000
0000
0000
,
0000
0000
0000
0000
,
0000
0000
0000
0000
,
0000
0000
0000
0000
,
0000
0000
0000
0000
,
0000
0000
0000
0000
,
0000
0000
0000
0000
,
0010
0001
1000
0000
,
0100
0100
0100
0000
,
0001
0000
1000
1000
,
1000
0000
0010
0100
,
0010
1000
1000
0000
,
0100
1000
0001
0000
,
0010
0010
0001
0000
,
0100
0010
1000
0000
,
0001
0001
0001
0000
,
1000
1000
1000
0000
,
1001
0000
0100
0010
,
0001
0000
1000
0001
,
1000
0010
0000
0010
,
0100
0000
0001
0000
,
0010
0001
0000
0001
,
1000
1000
0001
0100
,
0020
0000
0030
0000
,
2000
0000
3000
0000
,
0002
0000
0000
0000
,
0000
0000
0003
0000
,
1000
0000
1000
0000
,
0001
0000
0001
0000
,
0010
0010
0010
0010
,
0010
0000
0001
1000
,
0100
0110
0001
1000
,
0010
0100
0001
1000
,
0100
0100
0100
0100
,
0100
0100
0100
0000
,
1000
1000
1000
1000
,
1000
0000
0001
0000
,
0100
0000
0100
0000
,
0010
0000
0000
0000
,
1000
0000
0001
0000
,
1000
0000
0100
0000
,
0110
0000
0000
0000
,
1001
0000
0000
0000
,
0010
0000
0010
0000
,
1000
0000
0001
0000
,
0010
0010
0010
0010
,
0010
0010
0010
0000
,
0001
0001
0001
0001
,
0001
0001
0001
0000
,
0000
0000
0000
1001
,
0000
0000
0000
0110
,
0010
0010
1000
1000
,
0100
0010
0001
0001
,
0100
0010
0100
0001
,
1000
0010
1000
0100
,
0010
0001
0100
0010
,
1000
0100
2000
3000
,
0002
0000
0003
0000
,
0020
0000
0030
0000
,
0200
0000
0300
0000
,
2000
0000
3000
0000
,
0001
0000
1000
0000
,
0001
0000
1000
0000
,
0010
0010
0010
0010
,
0010
1000
0001
0100
,
0010
0000
1000
0000
,
0001
0000
0100
0010
,
1000
0000
0100
0001
,
0010
0000
0001
1000
,
0001
0100
0010
1000
,
0100
0010
0100
1000
,
0010
1000
0001
0100
,
0001
0010
0001
1000
,
0020
0000
0030
0000
,
0200
0000
0300
0000
,
0002
0000
0000
0000
,
0000
0000
0003
0000
,
1000
1000
1000
0000
,
0010
0010
0010
0000
,
0100
0100
0100
0000
,
0001
0010
0100
0000
,
1000
0000
0001
0000
,
1000
0000
0010
0000
,
0100
0000
0000
0000
,
0001
0000
0010
0000
,
0001
0000
0000
0000
,
1000
0000
0000
0000
,
0010
0000
0010
0000
,
0010
0000
0100
0000
,
0001
0000
0000
0000
,
0110
0000
0000
0000
,
1000
0000
1000
0000
,
1000
0000
0001
0000
,
0010
0000
0001
0000
,
0001
0000
0100
0000
,
1000
0000
0010
0000
,
1000
0000
0001
0000
,
0000
0000
1001
0000
,
0000
0000
1001
0000
,
0000
0000
0110
0000
,
0000
0000
0110
0000
,
0000
0000
1001
0000
,
0000
0000
0110
0000
,
0000
0000
1001
0000
,
0000
0000
0110
0000
,
0000
0000
0000
0000
,
1000
0000
0001
0000
,
0010
0000
0010
0000
,
0010
0000
0000
0000
,
0001
0000
0100
0000
,
0001
0000
1000
0000
,
0010
0000
0010
0000
,
1000
0000
0100
0000
,
1001
0000
0000
0000
,
0001
0000
0000
0000
,
0010
0000
0001
0000
,
1000
0000
0001
0000
,
0000
0010
0000
0010
,
0000
0010
0000
0010
,
0000
0010
0000
0010
,
0000
0010
0000
0000
,
0001
0000
1000
0000
,
1001
0000
0000
0000
,
0110
0000
0000
0000
,
0001
0000
0000
0000
,
0010
0000
0010
0000
,
0001
0000
0001
0000
,
0100
0000
0100
0000
,
1000
0000
1000
0000
,
0000
0110
0000
0000
,
0000
0001
0000
0000
,
0000
0100
0000
0010
,
0000
0100
0000
0000
,
0000
0001
0000
0001
,
0000
0000
0000
1000
,
0000
0100
0000
1000
,
0000
0100
0000
0010
,
0000
0001
0000
1000
,
0000
1001
0000
0000
,
0000
0010
0000
0000
,
0000
1000
0000
0001
,
0000
0010
0000
0010
,
0000
0010
0000
0010
,
0000
0001
0000
0100
,
0000
1000
0000
0100
,
0000
0002
0000
0000
,
0000
0000
0000
0000
,
0003
0000
0000
0000
;

//---------------dance-single - ----------------
#NOTES:
     dance-single:
     :
     Easy:
     11:
     :
0000
0000
0000
0000
,
0000
0000
0000
0000
,
0000
0000
0000
0000
,
0000
0000
0000
0000
,
0000
0000
0000
0000
,
0000
0000
0000
0000
,
0000
0000
0000
0000
,
0010
0000
0001
0000
0100
0010
1000
0000
,
0200
0000
2300
0000
3001
0000
0100
0010
,
1000
0001
1100
0101
,
2200
0300
0001
3001
,
0010
0001
0100
1000
,
0010
0100
0001
0000
0011
0000
1000
0001
,
0010
0001
0100
1000
,
0010
0000
1000
0001
1000
0000
0100
0000
,
0010
0001
0100
0000
0010
0000
1000
0001
,
0010
0001
0100
0000
1000
0000
0010
0100
,
0010
0000
1001
0000
0110
0000
1000
0001
,
2000
3200
0320
0032
,
0203
0010
1000
0301
,
0100
0010
0000
1000
1000
0100
0001
0001
,
0020
1000
0001
0130
,
0010
0001
0100
0010
1000
0100
2000
3002
,
0203
0000
0000
0000
,
0320
0000
0000
2030
0000
0000
3200
0000
,
2300
0000
0000
3002
0000
0000
0023
0000
,
0000
0000
0000
0000
,
0001
0001
0001
0001
,
1000
1000
1000
1000
,
0001
0001
1000
1030
,
0010
0000
0001
0000
0100
0010
1000
0000
,
0100
0000
1100
1000
0001
0000
0101
0001
,
1000
0000
0010
0100
0010
1000
0002
0203
,
0310
1000
0001
0000
1001
0000
1001
0000
,
1001
0000
1001
0000
1001
0000
1000
0001
,
0100
0110
0110
0110
,
0101
1100
0001
1000
,
0010
0000
0100
0000
,
0010
0000
1000
0000
,
0100
1000
0001
0000
,
0010
0000
0001
0000
,
0100
0010
2000
0000
,
3100
0010
0002
0000
,
1003
0001
1000
0001
,
1000
0001
1000
0001
,
0010
0011
0011
0011
,
1100
0101
1100
0001
,
1010
1010
1010
1010
,
1001
0110
1000
0001
,
0020
0000
0000
0000
0000
0031
1000
0000
,
0020
0000
0000
0000
0000
0000
1030
0001
,
1000
0100
1000
0000
0020
0000
0230
0000
,
1300
0010
1000
0000
0002
0000
0103
0000
,
1001
0100
1001
0100
,
0010
0010
1000
0000
1100
0000
0001
0100
,
1000
1010
0001
0011
,
0100
0010
1000
0001
0200
0000
0320
2030
,
3002
0000
0000
0000
,
0023
0000
0000
0032
0000
0000
2003
0000
,
3020
0000
0000
0230
0000
0000
0302
0000
,
0000
0000
0000
0000
,
0010
0010
0010
0010
,
0100
0100
0100
0100
,
0010
0010
0100
0103
,
0101
0000
1000
0100
0001
0000
0010
0000
,
1000
0000
0000
0100
0000
0000
1000
0000
0001
0000
0010
0000
1000
0000
0100
0000
,
0010
0000
0000
0001
0000
0000
1000
0000
0002
0000
0203
0000
0320
0000
2030
0000
,
3100
0010
0001
0000
0100
0010
1000
0000
,
1000
0100
1000
0001
0020
0032
2003
3200
,
0310
0000
0110
0000
0001
0100
1000
0000
,
0010
1000
0010
0100
0001
0010
0001
1000
,
0100
1000
1100
0001
0100
0010
1000
0001
,
0020
0031
2000
3010
2000
3001
0200
0320
,
2030
0001
0001
0001
,
3002
0000
0000
0203
0000
0000
0320
0000
,
2030
0000
0000
3200
0000
0000
0000
0000
,
0000
0000
0000
0000
,
1300
0010
1000
0001
,
0010
0100
1000
0010
,
0100
0001
1000
0100
,
0110
0110
0011
1100
,
1001
0000
0010
0000
,
1000
0100
1000
0000
,
0010
0100
0000
0000
,
0101
0000
0011
0000
,
2000
0000
3002
0000
,
2003
0000
3020
0000
,
0130
0001
0100
0001
,
0100
0000
0010
0000
,
2010
0000
3001
0000
,
0011
0000
0011
0000
,
0001
0000
0100
0000
,
1000
0000
0001
0000
,
0010
0000
0001
0000
,
0100
0000
1000
0000
,
0010
0000
0010
0000
,
1000
0000
0100
0000
,
0000
0000
0110
0000
,
0000
0000
0110
0000
,
0000
0000
1001
0000
,
0000
0000
1001
0000
,
0000
0000
1010
0000
,
0000
0000
0101
0000
,
0000
0000
0011
0000
,
0000
0000
1100
0000
,
0001
0000
0100
0000
,
0001
0000
1000
0000
,
0010
0000
1000
0000
,
0100
0000
0001
0000
,
0010
0000
0001
0000
,
0100
0000
1000
0000
,
1001
0000
0110
0000
,
1001
0000
0110
0000
,
1001
0000
0001
0000
,
0100
0000
0010
0000
,
1000
0100
1000
0100
,
0010
0000
0001
0100
,
0001
0000
0010
0001
,
0000
1000
0010
0000
,
0101
0000
1100
0000
,
1010
0000
0011
0000
,
0100
0010
0100
0000
,
0110
0000
0001
0000
,
0010
0000
0001
0000
,
1000
0000
0010
0000
,
0100
0000
0010
0000
,
1000
0000
0001
0000
,
0010
0000
0001
0000
,
0100
0000
1000
0000
,
1100
0011
0000
0001
,
0000
1000
0000
0010
,
0000
1000
0100
1000
,
0001
0010
0000
0010
,
0001
0100
0000
0001
,
1000
0000
0001
1000
,
0100
0020
0000
0032
,
0000
2003
0000
3002
,
0000
0103
0010
1000
,
0000
1010
0000
0101
,
0000
0001
0010
0000
,
0001
0000
1000
0001
,
0100
0010
0000
1000
,
0000
0100
0000
0001
,
0000
0010
0000
0001
,
0000
0100
0000
1000
,
0000
0000
2002
0000
0003
0000
3001
0100
,
0001
1000
0200
0000
0000
0000
1300
0000
,
0011
0000
0000
0000
;

//---------------dance-single - ----------------
#NOTES:
     dance-single:
     :
     Medium:
     14:
     :
0000
0000
0000
0000
,
0000
0000
0000
0000
,
0000
0000
0000
0000
,
0000
0000
0000
0000
,
0000
0000
0000
0000
,
0000
0000
0000
0000
,
0000
0000
0000
0000
,
0010
0001
0010
0001
1000
0100
0001
0000
,
1000
0010
1000
0001
0010
0100
1000
0000
,
0020
0000
1030
0001
1000
0010
1000
0010
,
2200
0000
0300
0000
3001
1000
0100
0000
,
0010
0001
0010
0001
0100
0010
1000
0010
,
1000
0100
0002
0000
0013
0001
0100
0001
,
0010
0001
0010
0001
1000
0010
1000
0001
,
0100
1000
0100
0001
0100
0000
0010
1000
,
0010
0100
0001
1000
0100
0010
0001
1000
,
0010
1000
0010
0100
0001
0010
0100
1000
,
1001
0000
0010
1000
0100
0010
0001
0100
,
1000
0010
0100
0010
2000
0000
3002
0000
,
0023
0000
0000
0000
0031
0000
0100
0000
1000
0000
0100
0001
0000
0001
0010
0000
,
0100
1000
0001
0000
0000
0110
0000
0001
0100
0001
1000
0000
1100
0000
0011
0000
,
0200
0000
0310
0001
0010
1000
0100
0010
,
0011
0000
0101
0000
1000
0001
0100
0000
0010
1000
0010
0000
0200
0000
0302
0000
,
0023
0001
0001
0031
,
2000
0000
0000
3020
0000
0000
0230
0000
,
0301
1000
0000
1020
0000
0000
0230
0000
,
0001
0000
0001
0000
0001
0000
0301
1000
,
0010
0010
0010
0010
,
1000
1000
1000
1000
,
0001
0100
0001
0000
0010
0001
0010
0000
,
0100
1000
0100
0000
1000
0010
1000
0000
,
0100
0100
0000
0000
1100
1000
0001
0000
0100
0100
0000
0000
0011
0001
1000
0001
,
0100
0100
0000
0000
0010
1000
0000
1000
0001
0010
1000
0000
1001
0000
0110
0000
,
1000
0000
0001
0100
0001
0000
0000
0000
0011
0000
0000
0000
0011
0000
0000
0000
,
1100
0000
0101
0000
1100
0000
0001
1000
,
0010
0110
0110
0110
,
1000
0000
0000
0000
1000
0000
0000
0000
1000
0000
0000
0000
0001
0000
0000
0100
0000
0000
0001
0000
0000
1000
0000
0000
,
1010
0000
1001
0000
,
0001
0100
1000
0000
,
0010
1000
0010
0100
,
0010
1000
0001
0100
,
0001
0001
0011
0000
,
1000
1000
1010
0000
,
0010
0010
1000
0001
,
1000
0000
0100
0000
0010
0000
0001
1000
,
0001
0101
0101
0101
,
0011
0110
1100
0010
,
0101
1010
1100
0011
,
1001
0000
0110
0000
1000
0100
0010
0000
,
0001
0100
0000
0100
0000
0100
0001
0000
,
1000
0100
0000
0100
0000
0100
1000
0001
,
0010
0001
0100
0000
0010
1000
0001
1000
,
0100
0010
0001
0100
0001
0010
0100
1000
,
0010
0000
0000
0000
1000
0000
0000
0000
0100
0000
0000
0000
0010
0000
0000
0001
1000
0000
0000
0000
0010
0000
0000
0000
1000
0000
0000
0000
0001
0000
0000
0100
,
0010
0000
1000
0001
1000
0000
0000
0000
0110
0000
0000
0000
1000
0100
1000
0100
,
1000
0000
0000
0000
0010
0000
0000
0000
0100
0000
0000
0000
0001
0000
0000
1000
0001
0000
0000
0000
0010
0000
0001
0000
0100
0000
0000
0000
0010
0000
1000
0000
,
0002
0000
0000
2003
0000
0000
3020
0000
0000
2030
0000
0000
3002
0000
0000
0103
0010
0000
0000
0000
0010
0000
0000
0000
2000
0000
0000
0000
3001
0000
0000
0000
,
1001
0000
0010
0000
1000
0100
0001
0000
,
0020
0000
0000
0032
0000
0000
2003
0000
,
3001
0200
0000
0320
0000
0000
2030
0000
,
0001
0001
0001
3001
,
1100
0000
0101
0000
1000
0100
0001
0000
,
1010
0000
0011
0000
1000
0010
0001
0000
,
0100
0010
0100
0010
1000
0001
1000
0001
,
0020
0032
2003
3200
0302
0203
2300
3020
,
0130
0000
0001
1000
0000
0001
1000
0000
0010
1000
0010
0100
0010
0000
0100
0001
,
0100
0000
0010
1000
0000
1000
0001
0000
0011
0000
0110
0000
1100
0000
1001
0000
,
0010
1000
0100
0000
0110
0000
0001
0100
0001
1000
0000
1000
0000
1000
0100
0010
,
0001
0000
0000
0100
0000
0000
0001
0000
0000
0000
1000
0000
0100
0000
0010
0000
0002
0000
0000
0000
0203
0000
0000
0000
0320
0000
0000
0000
2030
0000
0000
0000
,
3100
0000
1000
0010
0000
1000
0010
0000
0100
0000
0001
1000
0001
0000
1000
0100
,
1000
0000
0001
0010
0000
0001
1000
0000
1100
0000
0110
0000
0011
0000
0101
0000
,
1000
0001
1000
0000
0110
0000
0001
0100
0001
1000
0000
1000
0000
1000
0010
0100
,
0001
0000
0000
0010
0000
0000
0100
0000
0000
0000
1000
0000
0010
0000
1000
0000
0000
0000
0001
0000
1000
0000
0010
0000
0200
0000
0000
0000
0302
0000
0000
0000
,
0013
0001
1000
0001
1000
0001
1000
0000
,
0200
0000
0000
2300
0000
0000
3002
0000
,
0203
0000
0000
0320
0000
0000
0000
0000
,
1000
0000
0001
0000
1030
0000
0010
0100
,
0010
1010
0101
1010
,
0001
0100
1000
0100
0001
0000
0011
0000
,
1000
0001
0100
0010
1000
0100
0010
0001
,
0200
0000
0000
0000
0320
0000
0000
0000
2030
0000
0000
3002
0000
0000
2003
0000
,
3100
0000
0000
0010
0000
0000
0010
0000
,
0001
0100
0010
1000
,
0100
0010
0000
0001
,
0001
0100
0010
1000
,
0100
1000
0010
0001
,
0010
1000
0010
0001
,
0010
0100
0010
0100
,
0010
1000
0001
0010
,
2200
0300
0002
3003
,
0012
0000
0000
2003
0000
0000
3002
0000
,
0103
0010
0100
0010
,
1000
0100
1000
0001
,
0010
0001
0100
0001
,
0010
0100
1000
0010
,
0000
1000
1000
1000
,
0001
0100
0001
0100
,
0010
0000
0000
1000
0000
0000
0001
0000
,
0001
0100
1000
0100
,
0010
1000
0000
0100
,
0100
0010
0001
0100
,
0010
1000
0010
1000
,
0100
0010
0001
0100
,
1000
1000
0001
0001
,
1000
0001
0100
0010
,
1010
0000
0101
0000
,
1100
0000
0000
0001
0000
0000
1000
0000
,
0010
0100
0010
0100
,
0001
0001
1000
0001
,
0010
0100
1000
0010
,
0100
1000
0100
0001
,
0011
0000
1100
0000
,
1001
0000
0000
0001
0000
0000
0100
0000
,
1000
0010
0100
0001
,
0000
0010
0001
1000
,
0001
0000
0000
0100
0010
0000
1000
0000
,
0010
0000
0100
0001
,
1000
0010
1000
0001
,
0010
0001
1000
0010
,
0100
0100
0100
0100
,
0100
0010
1000
0001
,
0010
0001
0100
0000
,
1010
0000
0000
0001
1000
0000
0100
0000
,
0010
0001
0100
1000
,
0000
0000
1000
0000
0001
0000
0010
0100
,
0020
0000
0000
0032
0000
0000
2003
0000
,
0000
3010
1000
0100
,
1000
0001
1000
0001
,
0010
0001
0100
0010
,
0110
1000
0100
1000
,
0001
0000
0010
0001
,
0100
1000
0100
0010
,
0100
0001
0000
1000
,
0001
0010
0100
1000
,
1000
0000
0001
1000
,
0010
0100
0001
0100
,
1000
0100
0001
0100
,
1000
0100
0010
0110
,
0000
0000
0101
0000
0000
1000
0001
0000
,
0100
0010
1000
0010
,
1000
0100
0010
0001
,
0100
0000
0002
0000
0000
2003
0000
0000
,
3200
0000
1300
0010
,
0100
0001
0001
1000
,
1000
0100
0100
0010
,
0010
0000
0000
0000
0012
0000
0000
0000
0100
0000
0103
0000
0001
1000
0001
1000
,
0100
0000
1001
0000
0020
0000
0000
0000
0230
0000
0000
0000
0301
0010
1000
0010
,
0002
1003
0000
0000
0000
0000
0000
0000
;

//---------------dance-single - ----------------
#NOTES:
     dance-single:
     :
     Hard:
     18:
     :
0000
0000
0000
0000
,
0000
0000
0000
0000
,
0000
0000
0000
0000
,
0000
0000
0000
0000
,
0000
0000
0000
0000
,
0000
0000
0000
0000
,
0000
0000
0000
0000
,
0010
0010
0010
0001
1000
0010
1000
0001
,
0100
0010
0100
0010
0100
0000
0100
0000
0001
0000
1000
0000
0110
0000
0100
0000
,
0001
0000
1000
0000
1000
0000
1000
0000
0100
0010
0001
0000
0100
0010
0001
0000
,
1100
0001
0100
0001
1001
1001
0110
0000
,
0010
0000
0010
0000
0001
0000
0001
0000
1000
0000
1000
0000
1000
0100
1000
0100
,
1000
0000
0010
0000
0102
0000
0000
0000
0013
0001
0100
0000
1000
0000
1000
0000
,
0010
0000
0010
0000
1000
0000
0001
0000
1000
0100
1000
0100
1000
0100
1000
0100
,
1000
0010
1010
1010
0100
0001
0010
0010
,
0010
0010
0001
0001
0100
0100
1001
0001
,
0010
0000
0010
0000
0001
0100
0001
0000
1000
0000
1000
0000
1000
0100
1000
0100
,
0010
0000
0001
0000
0010
0000
0010
0000
0010
0000
0001
0100
0001
0000
1000
0100
,
1000
0010
0100
0010
1000
0100
0010
0100
2000
0000
0000
0000
3001
0000
0000
0000
,
0011
0000
0000
0000
0100
1000
0001
0002
0000
0000
0000
0103
0010
0000
0100
0000
,
0001
0010
1000
0000
1000
1100
0000
0001
0001
0010
1000
0000
1100
0000
0101
0000
,
0011
0000
1000
0100
1000
0010
0001
0002
0000
0103
0010
1000
0001
0000
0100
0000
,
0110
0000
1001
0000
1000
0100
0001
0000
0010
0010
0010
0000
0001
0100
1000
0000
,
1010
1010
1010
1010
,
0002
0100
0103
2000
0010
3010
0100
0000
,
0001
0010
0100
0001
0100
1000
0010
0000
,
0101
0000
0000
0000
0101
0000
0000
0000
0101
0000
0000
0000
0101
0000
1000
0001
,
1000
0100
0010
0001
0100
1000
0100
0010
,
0100
1000
0100
0001
0010
1000
0010
0100
,
0001
0100
1000
0010
0001
0010
1000
0100
,
0010
0000
0010
0000
0010
0000
0001
0100
0001
0000
1000
0100
1000
0000
0001
0000
,
0100
0100
0000
0010
1000
0100
0001
0010
1000
1000
0001
0001
0010
0010
0100
0100
,
1000
1000
0000
0001
0100
0010
0100
1000
0100
0010
0100
0001
0020
0000
0200
0030
,
1300
0000
0001
0100
0001
0010
0000
0000
0001
1000
0000
0000
1000
0100
0020
0000
,
0031
0100
0020
0000
1030
0001
0000
0000
1000
0100
0000
0000
0010
0001
1000
0010
,
0100
0001
2000
0000
3100
0010
0000
0000
0010
0001
0000
0000
0001
1000
0000
0000
,
1000
0100
0000
0000
1000
0100
0000
0000
1000
0100
0000
0000
0010
0000
0000
0001
0000
0000
0100
0000
0000
0010
0000
0000
,
1000
0100
0010
0000
0001
0100
0010
0000
,
1000
0001
0010
1000
0010
0100
0010
0001
,
0100
0110
0110
0010
,
1000
0100
1000
0000
0001
0010
0100
1000
,
0010
1000
0010
1000
0010
1000
0001
0000
,
1100
0101
0011
0011
,
1001
0000
0110
0000
1000
0100
0001
0000
,
0020
0000
0032
0000
0203
0000
1300
0010
,
0001
1000
0000
0000
0010
0100
0000
0000
0001
0010
0000
0000
0001
0100
0000
0000
,
0020
0000
1030
0000
0100
0010
0002
0000
2003
0000
3010
0000
0101
0000
0000
0000
,
1000
0010
0000
0000
0010
0001
0000
0000
1000
0100
0000
0000
0100
0001
0000
0000
,
1000
0001
0000
0000
0100
0010
0000
0000
1010
0000
0001
0000
0100
0000
0010
0000
,
1000
0000
0000
0100
0000
0000
1000
0000
0000
0100
0000
0000
1000
0000
0000
0100
0000
0000
0010
0001
0010
0001
0000
0000
,
0100
0010
0100
0010
1000
0001
1000
0001
,
0010
0000
0010
0000
0001
0000
1000
0000
1100
0000
1100
0000
1000
0100
1000
0100
,
1000
0000
0010
0000
0100
0001
0100
0001
1000
0000
0010
0000
0100
0000
0001
0000
,
0020
0000
0000
0000
0032
0000
0000
0000
0203
0000
0000
0000
0310
0000
1000
0100
1000
0000
0000
0000
0010
0000
0100
0001
0100
0000
0010
0000
1000
0000
0001
0000
,
1000
0000
0000
0000
0100
0000
0100
0000
0110
0000
0001
1000
0001
0000
0100
0010
0100
0000
0000
0000
1000
0100
0010
0100
1000
0000
0001
0010
0001
0000
1000
0000
,
0100
0000
0000
1000
0001
0000
0100
0000
0010
0000
0001
0000
0010
0000
1000
0100
1000
0000
0000
0000
1010
0000
0001
0000
1000
0000
0100
0000
1000
0000
0010
0000
,
0100
0000
0000
0001
0000
0000
0010
0000
0000
0001
0000
0000
0100
0000
0000
0010
1000
0000
0000
0000
0100
0000
0000
1000
0002
0000
0000
0000
0203
0000
0000
0000
,
0310
1000
0100
1000
0001
0100
0010
0000
,
2000
0001
3001
0020
0100
0130
2000
0010
,
3010
0100
0001
1000
0010
0100
0002
0000
,
0013
0001
0100
0001
0010
0100
1000
0001
,
0101
0101
0101
0101
,
1100
1100
1100
1100
,
0001
0001
1000
1000
0010
0010
0100
0100
,
0010
0000
1000
0000
0100
0000
1000
0100
0001
0000
1000
0010
0001
0000
0100
0000
,
0010
0000
1000
0100
0000
1000
0100
0010
0001
0100
1000
0100
0001
0000
0010
0001
,
0100
0000
0010
1000
0000
0010
1000
0001
0100
0100
0010
0010
1000
1000
0001
0001
,
0010
0000
0001
0000
0100
0000
0010
0000
1000
0000
0000
0100
1000
0000
0001
0000
0100
0010
0100
0010
0100
0000
0001
0000
0020
0000
0230
0000
1300
0000
0001
0000
,
0020
0000
0000
0032
0000
0000
2003
0000
0000
0000
3100
0000
1000
0000
0010
0000
0100
0000
0100
0000
0010
0000
0010
0000
1000
0000
1000
0000
0001
0000
0001
0000
,
0100
0001
0010
0100
0000
1000
0010
0001
0010
1000
0100
0010
0001
0000
0100
0010
,
1000
0000
0001
0100
0000
0010
1000
0100
0010
0010
0001
0001
0100
0100
1000
1000
,
0100
0000
0001
0000
0001
0000
0000
0000
0011
0000
0100
1000
0000
0100
1000
0000
0010
0000
0100
0000
0000
0000
1001
0000
0000
0000
0001
0000
0001
0000
1000
0000
,
0010
0000
0000
0010
0000
0000
1000
0000
0001
0000
0100
0000
1000
0000
0100
0000
0001
0000
0010
0100
1000
0000
0010
0100
0001
0000
1000
0001
0010
0000
0001
0100
,
1000
0010
0100
1000
0100
0001
0010
0100
,
2000
0100
3100
0020
0001
0031
0100
0000
,
0020
1000
1030
0002
0100
0103
0010
1000
,
0100
0001
0100
0010
0100
1000
0001
0001
,
0100
1000
0100
0001
0100
0010
0100
1000
,
0100
0001
0100
1000
0100
0010
0100
1000
,
0100
0001
0100
0001
1000
0010
1000
0010
0100
0010
1000
0001
0010
0001
1000
0100
,
0020
0000
0000
0000
0031
0000
0000
0000
1001
0000
0000
1010
0000
0000
1100
0000
,
0101
0000
0010
1000
0000
1000
0100
0000
,
0010
0000
0001
0000
1000
0000
0010
0100
,
0001
0000
1000
0001
0000
0010
0100
0000
,
1000
0000
0010
1000
0100
0000
0001
0000
,
0011
0100
1010
0100
,
0011
0100
1010
0100
,
1001
0110
1001
0110
,
1001
0000
0010
1000
0001
1000
0100
0000
,
1010
0000
0001
0100
1000
0000
0010
0100
,
0010
0000
1000
0100
0000
0100
0001
0000
,
0010
0001
0010
0001
0100
1000
0100
1000
,
0010
0100
0001
1000
,
0100
0010
0001
0100
,
1000
0100
0001
0010
,
1100
1100
1100
1100
,
1000
0100
0010
0001
0010
0100
1000
0000
,
1001
0000
0010
1000
0000
0001
0100
0000
,
0001
0010
0100
0000
1000
0000
0001
0000
,
0101
1010
0001
0100
,
0001
0010
1000
0000
0001
0100
1000
0000
,
0010
1000
0010
1000
,
0100
0010
0001
0000
0100
0010
1000
0000
,
0101
1100
0101
1100
,
0101
1100
0010
0100
,
0001
0010
1000
0010
0100
0010
0001
0000
,
1000
0100
1000
0001
0000
0001
0100
0000
,
0110
1000
1000
1000
,
1000
0100
0010
0001
0100
0001
1000
0000
,
0020
2030
3002
0203
,
2300
3200
0302
0023
,
0031
0000
1000
0100
0001
0000
1000
0010
,
0001
0000
0100
0010
0000
0010
1000
0000
,
1100
0100
1000
0001
,
0010
0100
1000
0010
,
0100
0000
0001
1000
0001
0000
0010
0000
,
0100
0000
1000
0010
1000
0000
0001
0000
,
0011
0100
1010
0100
,
0011
0100
1010
0100
,
0110
0000
0001
0010
0100
0000
1000
0010
,
1000
0000
0001
0100
1000
0100
0001
0010
,
0100
1000
1000
0001
,
0100
0000
0001
0010
0100
0000
1000
0000
,
0010
0010
1000
0001
,
0100
0000
0001
0000
0001
0000
1000
0010
,
1000
0100
1000
0100
1000
0000
0001
0000
,
0010
0001
1000
0010
,
1000
0100
1000
0100
0000
0000
0010
0001
0010
0001
0000
0000
,
1000
0010
1000
0010
0000
0000
0100
0001
0100
0001
0000
0000
,
1010
0101
0010
0001
,
0100
1000
0100
0001
,
0010
0100
0001
0100
,
0010
0100
1000
0001
,
0100
1001
0010
1000
,
0001
0100
1000
0100
,
0010
0100
0100
0001
,
0001
1000
1000
0010
,
0010
0110
0001
0100
,
0010
0000
1000
0000
0100
1000
0001
0000
,
0100
0010
0100
0000
0001
0000
0010
0000
,
0100
0001
0100
1000
,
0010
0100
0100
0010
,
0010
1000
1000
0001
,
0001
0000
0010
0001
0100
1000
0100
0010
,
0100
1000
0100
0001
0010
1000
0010
0100
,
0010
0000
0001
0000
0200
0000
0000
0000
0010
0000
0310
0000
1000
0100
0001
0100
,
1000
0000
0000
0000
0000
0000
0000
0000
0000
0000
0000
0000
0000
0000
0000
0000
0000
0000
0000
0000
0000
0000
0000
0000
1000
0000
0000
0000
0000
0000
0000
0000
0000
0000
0000
0000
0000
0000
0000
0000
0000
0000
0000
0000
0000
0000
0000
0000
0001
0000
0000
0000
0000
0000
0100
0000
0000
0000
0000
0000
0001
0000
0000
0000
0000
0000
0100
0000
0000
0000
0000
0000
0001
0000
0000
0000
0000
0000
0100
0000
0000
0000
0000
0000
0001
0000
0000
0000
0000
0000
0100
0000
0000
0000
0000
0000
0001
0000
0000
0000
0000
0000
0000
0000
0000
0000
0000
0000
0000
0000
0000
0000
0100
0000
0000
0000
0000
0000
0000
0000
0000
0000
0000
0000
0000
0000
0000
0000
0001
0000
0000
0000
0000
0000
0000
0000
0000
0000
0000
0000
0000
0000
0000
0000
0020
0000
0000
0000
0000
0000
0000
0000
0000
0000
0000
0000
0032
0000
0000
0000
0000
0000
0000
0000
0000
0000
0000
0000
2003
0000
0000
0000
0000
0000
0000
0000
0000
0000
0000
0000
3002
0000
0000
0000
0000
0000
0000
0000
0000
0000
0000
0000
,
0203
0320
2030
3000
0000
0000
0000
0000
0000
0000
0000
0000
0000
0000
0000
0000
;
