#TITLE:Acid Pumper;
#ARTIST:ni-21;
#BANNER:Acid Pumper-bn.png;
#BACKGROUND:Acid Pumper-bg.png;
#JACKET:Acid Pumper-jacket.png;
#MUSIC:Acid Pumper.ogg;
#SAMPLESTART:12.8;
#SAMPLELENGTH:20;
#DISPLAYBPM:150;
#BPMS:0=150;
#BGCHANGES:;

//---------------dance-single - ----------------
#NOTES:
     dance-single:
     :
     Beginner:
     3:
     :
0000
0000
0000
0000
,
0000
0000
0000
0000
,
0000
0000
0000
0000
,
0010
0000
0001
0000
,
0200
0000
0300
0000
,
0020
0000
0030
0000
,
2000
0000
3000
0000
,
1001
0000
0110
0000
,
1001
0000
0001
0000
,
1001
0000
0100
0000
,
0110
0000
0010
0000
,
0110
0000
1000
0000
,
1001
0000
0010
0000
,
1001
0000
1000
0000
,
0110
0000
0001
0000
,
0110
0000
0100
0000
,
1001
0000
1000
1000
,
1000
0000
0010
0000
,
0110
0000
0100
0100
,
0100
0000
0001
0000
,
0010
0000
0010
0000
,
0001
0000
1000
0000
,
0010
0010
0010
0000
,
1001
0000
0110
0000
,
0020
0000
0030
0000
,
0200
0000
0300
0000
,
0002
0000
0003
0000
,
2000
0000
3000
0000
,
0002
0000
0003
0000
,
0020
0000
0030
0000
,
0200
0000
0300
0000
,
1001
0000
0110
0000
,
0010
0000
0000
0000
,
0001
0000
0000
0000
,
1000
0000
0000
0000
,
0100
0000
0000
0000
,
1001
0000
1000
0000
,
0110
0000
0001
0000
,
0100
0000
0010
0000
,
1001
0000
0110
0000
,
0001
0000
0001
0000
,
1000
1000
1000
0000
,
0010
0000
0010
0000
,
0100
0100
0100
0000
,
0010
0010
0010
0000
,
1000
0000
0001
0000
,
0001
0001
0001
0000
,
1001
0000
0110
0000
,
2000
0000
3000
0000
,
0002
0000
0003
0000
,
0200
0000
0300
0000
,
0020
0000
0030
0000
,
2000
0000
3000
0000
,
0002
0000
0003
0000
,
0200
0000
0300
0000
,
1001
0000
0110
0000
,
0020
0000
0030
0000
,
2000
0000
3000
0000
,
0002
0000
0003
0000
,
0100
0000
0010
0000
,
1001
0000
0110
0000
,
0001
0001
0001
0000
,
0020
0000
0030
0000
,
0002
0000
0003
0000
,
1000
0000
1000
0000
,
0001
0000
0001
0000
,
0100
0000
0100
0000
,
0010
0000
0010
0000
,
1000
1000
1000
0000
,
0100
0100
0100
0000
,
0010
0010
0010
0000
,
0110
0000
0001
0000
,
1001
0000
0000
0000
;

//---------------dance-single - ----------------
#NOTES:
     dance-single:
     :
     Easy:
     7:
     :
0000
0000
0000
0000
,
0000
0000
0000
0000
,
0000
0000
0000
0000
,
0010
0001
1000
0001
,
0200
0300
0110
0000
,
0002
0003
1001
0000
,
2000
3000
1001
0000
,
0110
0100
0020
0030
,
2001
3001
0100
1000
,
1002
0013
0001
1000
,
0120
0031
0100
0010
,
0210
0301
0100
1000
,
1200
1300
0001
0100
,
0102
0013
0001
1000
,
2010
3001
1000
0100
,
0021
0130
1000
0001
,
0220
0330
0001
0001
,
1000
0010
1000
0001
,
2002
3003
0100
0100
,
0001
0010
0001
1000
,
2200
3300
0022
0033
,
2000
3020
0230
0302
,
0013
0001
1000
0001
,
0101
0100
1001
0000
,
0020
0000
0000
0000
,
0032
0000
0000
0000
,
2003
0000
0000
0000
,
3200
0000
0000
0300
,
2000
3000
1100
0000
,
0001
0001
0202
0303
,
0200
0300
0110
0000
,
0202
0303
2020
3030
,
2000
0000
0010
3010
,
0002
0000
0100
0103
,
0020
0000
0001
0031
,
0200
0000
1000
1300
,
1002
0010
1000
0013
,
0200
0001
0010
0301
,
2000
0100
0010
3100
,
2000
3002
0023
0030
,
0011
0001
1000
0100
,
1100
1000
0010
0100
,
0110
0010
1000
0001
,
0011
0001
1000
0010
,
1010
1000
0001
0100
,
0110
0010
1000
0001
,
0010
0010
0001
1000
,
2002
3003
0220
0330
,
2000
0010
0001
3100
,
0020
0100
0001
1030
,
0200
1000
0001
0310
,
0002
0010
1000
0103
,
0020
0100
0001
1030
,
0002
1000
0100
0013
,
2000
0100
0010
3001
,
2200
3300
0202
0303
,
1001
0010
1000
0001
,
0011
0100
0010
1000
,
1100
0001
1000
0100
,
2020
3030
0022
0033
,
2002
3003
0220
0330
,
2000
3002
0023
0230
,
2300
0000
0000
3001
,
0220
0330
1001
0110
,
0002
0003
2000
3000
,
0020
0030
0200
0300
,
0002
0003
0020
0030
,
0200
0300
2000
3000
,
0010
0010
0100
0100
,
0001
0001
1000
1000
,
0002
0023
0230
2300
,
3010
0101
1100
0101
,
1001
0000
0000
0000
;

//---------------dance-single - ----------------
#NOTES:
     dance-single:
     :
     Medium:
     10:
     :
0000
0000
0000
0000
,
0000
0000
0000
0000
,
0000
0000
0000
0000
,
0020
0000
0031
1000
0001
0010
0100
0000
,
2100
0001
0010
3001
,
0102
1000
0010
1003
,
0210
1000
0001
1300
,
0010
1000
0001
0100
0200
0000
0300
0000
,
1002
0000
1003
0010
1000
0001
0100
0000
,
0201
0000
0310
1000
0100
0010
0001
0000
,
1020
0000
0130
0010
1000
0001
0010
0000
,
0021
0000
0031
1000
0010
1000
0100
0000
,
0120
0000
0031
1000
0001
1000
0100
0000
,
1200
0000
0310
0100
1000
0010
0100
0000
,
1002
0000
0013
0100
0010
0001
0010
0000
,
0201
0000
0301
1000
0100
0010
0001
0000
,
0220
0000
0330
0000
1000
0001
1000
0001
,
0100
0000
0010
1000
0000
0001
0001
0000
,
2002
0000
3003
0000
0100
0010
0100
0010
,
1000
0000
0001
0010
0000
0100
0100
0000
,
2100
3001
0102
1003
,
0011
1100
0101
1010
,
1000
0001
1000
0001
0100
0010
1000
0001
,
0100
0010
1000
0001
0002
0000
0003
0000
,
0020
0000
0000
0000
,
0002
0000
0000
0030
,
2000
0000
0000
0003
,
0200
0000
0000
3000
,
0320
0001
1000
0001
,
0130
0110
1001
0110
,
0002
1000
0100
1003
,
0022
0033
2200
3300
,
0002
0000
1000
0000
0013
1000
0001
0000
,
0200
0000
0010
0000
0301
0010
0100
0000
,
2000
0000
0001
0000
3100
0001
1000
0000
,
0020
0000
1000
0000
0130
1000
0010
0000
,
0102
1000
0010
0100
,
1003
0000
0000
0000
1100
0000
0000
0000
0001
0000
0000
0010
0000
0000
0001
0000
,
0200
0010
1000
0301
,
1000
0100
1000
0010
0020
0000
0030
0000
,
0110
0000
0000
0000
0110
0000
0000
0000
0001
0000
0000
1000
0000
0000
0001
0000
,
0011
0000
0000
0000
0011
0000
0000
0000
0100
0000
0000
1000
0000
0000
0100
0000
,
1100
0000
0000
0000
1100
0000
0000
0000
0010
0000
0000
0100
0000
0000
0010
0000
,
0110
0000
0000
0000
0110
0000
0000
0000
0001
0000
0000
0010
0000
0000
0001
0000
,
1000
0000
0100
0000
1000
0000
0000
0000
0010
0000
0000
0100
0000
0000
0001
0000
,
1001
0000
0000
0000
1001
0000
0000
0000
0010
0000
0000
1000
0000
0000
0100
0000
,
2000
3002
2003
3002
0013
0001
0100
0000
,
2010
0000
0001
0000
3010
0001
0200
0000
,
0301
0000
0000
0001
0100
0000
0000
0000
0010
0000
0000
0010
1000
0000
0000
0000
,
0100
0000
0000
0100
0010
0000
0000
0000
0001
0000
0000
0001
1000
0000
0000
0000
,
0100
0000
0000
0100
1000
0000
0000
0000
0001
0000
0000
0001
0010
0000
0000
0000
,
0001
0000
0000
0100
0010
0000
0000
1000
0001
0000
0000
0100
0010
0000
0000
0000
,
1000
0000
0000
0001
0100
0000
0000
0000
0010
0000
0000
1000
0100
0000
0000
0000
,
0001
0000
0000
1000
0010
0000
0000
0000
0100
0000
0000
0001
0010
0000
0000
0000
,
0001
0000
0000
0100
0010
0000
0000
1000
0001
0000
0000
0100
0010
0000
0000
0000
,
1000
0100
1000
0001
0022
0000
0033
0000
,
0001
0000
0000
0001
0100
0000
0000
0100
0001
0000
0000
0001
1000
0000
0000
0000
,
0100
0000
0000
0100
1000
0000
0000
1000
0001
0000
0000
0001
0100
0000
0000
0000
,
0010
0000
0000
0010
1000
0000
0000
1000
0001
0000
0000
0001
1000
0000
0000
0000
,
0010
0000
0000
0010
0000
0000
0000
0000
1000
0000
0001
0000
1000
0000
0100
0000
,
0200
0000
0000
0310
0001
0000
0000
0000
0200
0000
0000
0310
1000
0000
0000
0000
,
1001
0000
1001
0000
1000
0100
0010
0001
,
0200
0000
0000
0000
0000
0000
0000
0000
0000
0000
0320
0000
0000
2030
0000
0000
,
3001
0000
0000
0001
0000
0000
0001
0000
1000
0000
0100
0000
1000
0000
0001
0000
,
0021
0130
2100
3001
,
1002
0013
0102
1003
,
1020
0130
0210
0301
,
2001
3010
1200
1300
,
1010
0101
1010
0101
,
1100
0011
1100
0011
,
1000
0010
1000
0000
0001
0010
0001
0000
,
0110
0000
0000
0110
0000
0000
0110
0000
0002
0000
0000
0000
1003
0000
0100
0000
,
1001
0000
0000
0000
;

//---------------dance-single - ----------------
#NOTES:
     dance-single:
     :
     Hard:
     13:
     :
0000
0000
0000
0000
,
0000
0000
0000
0000
,
0000
0000
0000
0000
,
0020
0000
0031
1000
0001
0100
0001
1000
,
2100
0000
0000
0000
0001
0000
0000
0000
3100
0000
0000
0010
0000
0000
1000
0000
,
0102
0000
0010
0000
1003
0001
1000
0100
,
0210
0000
0001
0000
0310
0001
1000
0100
,
0010
0000
0001
1000
0001
1000
0001
0000
0200
0000
0000
0000
0310
0000
0100
0000
,
1002
0000
0000
0000
1003
0000
1000
0000
1000
0000
0010
0100
0010
0000
0000
0000
,
0102
0000
0000
0000
0013
0000
0010
0000
0010
0000
0001
1000
0001
0000
0000
0000
,
2010
0000
0000
0000
3100
0000
0100
0000
0100
0000
0010
0001
0010
0000
0000
0000
,
2001
0000
0000
0000
3001
0000
0001
0000
0001
0000
1000
0100
1000
0000
0000
0000
,
0120
0000
0000
0000
0031
0000
0001
0000
0001
0000
1000
0010
1000
0000
0000
0000
,
1200
0000
0000
0000
0310
0000
0010
0000
0010
0000
0001
0100
0001
0000
0000
0000
,
0021
0000
0000
0000
0130
0000
0100
0000
0100
0000
1000
0001
1000
0000
0000
0000
,
1020
0000
0000
0000
1030
0000
1000
0000
1000
0000
0100
0010
0100
0000
0000
0000
,
1002
0000
0000
0000
0013
0000
0000
0000
1000
0000
1000
0000
1000
0000
0001
0010
,
0001
0000
0100
0010
0000
0110
0110
0000
,
1020
0000
0000
0000
0130
0000
0000
0000
0001
0000
0001
0000
0001
0000
0010
0100
,
0010
0000
0001
1000
0000
0101
0101
0000
,
2010
0000
3001
0100
0120
0000
1030
0010
,
1001
1100
0110
0011
,
1000
0000
1000
0000
0001
0000
0001
0000
0010
0000
0010
0000
0001
1000
0001
0000
,
0102
0000
0000
0000
1003
0100
1000
0100
1000
0000
0001
0000
0000
0000
0000
0000
,
0020
0000
0000
0000
,
0032
2000
0000
0000
0000
0000
0000
0000
0000
0000
0000
0000
0000
0003
0000
0000
,
0200
0000
0000
3000
,
2300
0002
0000
0000
0000
0000
0000
0000
0000
0000
0000
0000
0000
0000
0000
3003
,
1002
0010
1000
0100
,
0013
0000
0000
0010
0000
0000
0010
0000
0002
0000
1000
0000
1003
0000
0100
0000
,
0020
0100
1000
0031
,
0120
0000
0000
0000
0130
0000
1000
0002
2000
0000
0000
0000
3003
0000
0000
0000
,
1000
0010
0000
1000
0010
0000
0000
0000
0100
0001
0000
0100
0001
0000
0000
0000
,
0010
0001
0000
0010
0001
0000
0000
0000
1000
0100
0000
1000
0100
0000
0000
0000
,
1000
0001
0000
1000
0001
0000
0000
0000
0100
0010
0000
0100
0010
0000
0000
0000
,
1000
0100
0000
0010
0001
0000
0000
0000
1000
0010
0000
0100
0001
0000
0000
0000
,
0010
0000
0000
0010
0001
0000
0000
0001
1000
0000
0000
1000
0010
0000
0000
0010
,
0100
0000
0000
0100
0001
0000
0000
0001
1000
0000
0000
1000
0100
0000
0000
0100
,
1000
0000
0000
1000
0001
0000
0000
0001
0100
0000
0000
0100
0010
0000
0000
0010
,
1000
0000
0100
0010
0100
0010
0100
0000
1000
0000
0000
0000
0000
0000
0001
1000
,
0001
0000
0010
0000
0001
0000
1000
0000
0001
0000
0100
0010
0000
0100
0010
0000
,
1000
0000
0100
0000
1000
0000
0001
0000
1000
0000
0010
0100
0000
0010
0100
0000
,
0001
0000
1000
0000
0001
0000
0100
0000
0001
0000
1000
0010
0000
1000
0010
0000
,
0100
0000
1000
0000
0100
0000
0010
0000
0100
0000
0001
1000
0000
0001
1000
0000
,
0100
1000
0100
0000
0010
0000
0000
0000
0001
0000
0100
0001
0000
0100
0001
0000
,
1000
0010
1000
0000
0001
0000
0000
0000
0100
0000
0010
0100
0000
0010
0100
0000
,
0002
0000
2003
0000
3002
0000
2003
0000
3010
1000
0000
1010
0000
0000
0100
0000
,
0012
0000
0000
0000
1003
0000
0001
0000
0200
0000
0000
0010
0000
0000
0310
0000
,
1000
0100
0000
0100
0010
0000
0000
0010
0001
0000
0000
0001
1000
0000
0000
0000
,
0010
1000
0000
1000
0001
0000
0000
0001
0100
0000
0000
0100
0010
0000
0000
0000
,
0100
0001
0000
0001
1000
0000
0000
1000
0010
0000
0000
0010
0100
0000
0000
0000
,
0001
0010
0000
0010
0100
0000
0000
0100
1000
0000
0000
1000
0001
0000
0000
0000
,
0010
0001
0000
0001
1000
0000
0000
1000
0100
0000
0000
0100
0010
0000
0000
0000
,
0001
0100
0000
0100
0010
0000
0000
0010
1000
0000
0000
1000
0001
0000
0000
0000
,
1000
0001
0000
0001
0100
0000
0000
0100
0010
0000
0000
0010
1000
0000
0000
0000
,
2200
0000
0000
0000
3000
0000
0000
0000
0310
0001
0010
0001
0010
0000
0000
0000
,
1001
0000
0000
0001
1000
0000
0000
0010
0100
0000
0000
0001
0010
0000
0000
0100
,
1000
0000
0000
0010
1000
0000
0000
0001
0100
0000
0000
0001
0010
0000
0000
0100
,
1000
0000
0000
0001
1000
0000
0000
0010
0100
0000
0000
0010
1000
0000
0000
0100
,
0001
0000
1000
0001
0000
0000
0010
0100
1000
0000
1000
0000
1000
0001
0100
0000
,
0210
0000
0000
0301
1000
0000
0010
0000
2010
0000
0000
3001
0010
0000
0100
0000
,
1100
0000
0000
1000
0001
0000
0000
0001
1000
0000
0100
1000
0010
0000
0010
0000
,
0110
0000
0000
0100
0001
0000
0000
1000
0100
0000
0020
0000
0000
0032
0000
0000
,
1003
0000
0010
1000
0000
0010
1000
0000
0001
0100
0001
0100
0001
0000
0010
0000
,
1002
0000
0000
1003
0100
0000
0010
0000
0021
0000
0000
0031
1000
0000
0010
0000
,
2010
0000
0000
3100
1000
0000
0001
0000
0201
0000
0000
0310
0100
0000
0001
0000
,
0012
0000
0000
1003
0001
0000
0010
0000
0120
0000
0000
0130
1000
0000
0001
0000
,
1200
0000
0000
0310
0001
0000
0100
0000
1020
0000
0000
1030
0001
0000
0010
0000
,
0011
1100
0101
1010
,
1100
0110
0011
1001
,
1000
0010
1000
0001
0010
1000
0010
0100
,
0110
0000
0000
0110
0000
0000
0110
0000
0001
1000
0001
1000
0001
0000
0100
0000
,
1001
0000
0000
0000
;
