#TITLE:Acid 8000;
#ARTIST:Fatboy Slim;
#BANNER:Acid 8000-bn.png;
#BACKGROUND:Acid 8000-bg.png;
#JACKET:Acid 8000-jacket.png;
#MUSIC:Acid 8000.ogg;
#OFFSET:-0.05;
#SAMPLESTART:83.14;
#SAMPLELENGTH:20;
#DISPLAYBPM:130;
#BPMS:0=129.7;
#STOPS:174=2.445;
#BGCHANGES:;

//---------------dance-single - ----------------
#NOTES:
     dance-single:
     :
     Beginner:
     3:
     :
0000
0000
0000
0000
,
0000
0000
0000
0000
,
0000
0000
0000
0000
,
0000
0000
0000
0000
,
1000
0000
0000
0000
,
0001
0000
0000
0000
,
0100
0000
0000
0000
,
0010
0000
0000
0000
,
0100
0000
0000
0000
,
0000
0000
0000
0000
,
0000
0000
0000
0000
,
0000
0000
0000
0000
,
0001
0001
0000
0000
,
1000
1000
0000
0000
,
0010
0010
0000
0000
,
0100
0100
0000
0000
,
0001
0001
0000
0000
,
0010
0010
0000
0000
,
0100
0100
0000
0000
,
1000
0000
0001
0000
,
0100
0000
0010
0000
,
0100
0000
0001
0000
,
0010
0000
0100
0000
,
1000
0000
0001
0000
,
1000
1000
0000
0000
,
0001
0001
0000
0000
,
0100
0100
0000
0000
,
0010
0000
1000
0000
,
0010
0000
0000
0000
,
0100
0000
0000
0000
,
0001
0000
0000
0000
,
1000
0000
0000
0000
,
0001
0000
0001
0000
,
0001
0000
0000
0000
,
1000
0000
1000
0000
,
1000
0000
0000
0000
,
0010
0000
0010
0000
,
0100
0000
0100
0000
,
1000
0000
0001
0000
,
1000
0000
0001
0000
,
1001
0000
0000
0000
,
0000
0000
0000
0000
,
0000
0000
0000
0000
,
0000
0000
0110
0001
,
0000
1000
0000
0010
,
0000
1001
0000
1000
,
0000
0100
0000
0010
,
0000
0110
0000
0001
,
0000
0010
0000
0100
,
0000
1001
0000
0010
,
0000
1000
0000
0001
,
0000
0110
0000
0001
,
0000
0010
0000
0100
,
0000
1001
0000
1000
,
0000
0010
0000
0100
,
0000
0110
0000
0001
,
0000
0010
0000
0001
,
0000
0100
0000
1000
,
0000
0010
0000
1000
,
0000
0100
0000
0010
,
0000
0000
0001
0000
,
0000
0000
1000
0000
,
0010
0000
0100
0000
,
0000
0001
0000
0010
;

//---------------dance-single - ----------------
#NOTES:
     dance-single:
     :
     Easy:
     6:
     :
0000
0000
0000
0000
,
0000
0000
0000
0000
,
0000
0000
0000
0000
,
0000
0000
0000
0000
,
2000
0000
0000
3000
,
0020
0000
0000
0030
,
0200
0000
0000
0300
,
0002
0000
0000
0003
,
0020
0000
0000
0030
,
0002
0000
0000
0003
,
2000
0000
0000
3000
,
0200
0000
0000
0300
,
1000
0001
0000
0100
,
0000
0010
0000
1000
,
0000
0100
0000
0010
,
0000
0001
0000
1000
,
0010
0100
0000
0001
,
0000
0010
0000
0001
,
0000
0100
0000
0010
,
1000
0100
1000
0001
,
0100
0000
0010
1000
,
0001
0000
0010
0001
,
0100
0000
0001
0010
,
1000
0000
0100
0010
,
0100
1000
0000
0001
,
1000
0010
0000
0100
,
0001
0010
0000
0100
,
1000
1000
0001
0001
,
0010
0000
0010
0000
,
0100
0000
0100
0000
,
1000
0000
0001
0000
,
1000
0000
0001
0000
,
1000
0100
1000
0000
,
0001
0100
0001
0000
,
1000
0010
1000
0000
,
0001
0010
0001
0000
,
0100
0010
0100
0010
,
1000
0001
1000
0001
,
0010
0001
1000
0100
,
1000
0010
0100
0001
,
2002
0000
0000
3003
,
0220
0000
0000
0330
,
2002
0003
0002
3000
,
2000
0000
3003
0000
0220
0330
0001
0000
,
0010
0001
0100
1000
,
0010
0220
0330
0010
,
1000
0100
0010
0001
,
1000
2002
3003
1000
,
0100
1000
0010
0100
,
0001
0220
0330
0001
,
0010
0001
0100
1000
,
0010
2002
3003
1000
,
0010
1000
0100
0010
,
0001
2002
3003
0100
,
0010
1000
0100
0010
,
0001
0220
0330
1000
,
0010
1000
0100
0010
,
0001
0100
0010
1000
,
0001
1000
0100
0010
,
0001
0100
0010
1000
,
0001
0100
0110
0010
,
1000
0100
1001
0010
,
0001
0100
1000
0010
,
1000
0100
0100
0020
,
0000
0000
0000
0000
,
0000
0000
0000
0000
,
0000
0000
0000
0030
;

//---------------dance-single - ----------------
#NOTES:
     dance-single:
     :
     Medium:
     10:
     :
0000
0000
0000
0000
,
0000
0000
0000
0000
,
0000
0000
0000
0000
,
0000
0000
0000
0000
,
0000
1000
0000
1000
,
0000
0001
0000
0001
,
0000
0100
0000
0100
,
0000
0010
0000
0010
,
2000
0000
0000
3000
,
0002
0000
0000
0003
,
0200
0000
0000
0300
,
0020
0000
0000
0000
1030
0001
1000
0001
,
0100
0000
0000
0000
0001
1000
0000
0000
0000
0100
0000
0000
0010
0000
0000
0000
,
0001
0000
0000
0000
1000
0010
0000
0000
0000
0100
0000
0000
0001
0000
0000
0000
,
0010
0000
0000
0000
0001
1000
0000
0000
0000
0100
0000
0000
0010
0000
0000
0000
,
0001
0000
0000
0000
0100
0010
0000
0000
0000
1000
0000
0000
1000
0000
0001
0000
,
0100
0000
0000
0000
0010
1000
0000
0000
0000
0001
0000
0000
1000
0000
0000
0000
,
0100
0000
0000
0000
0010
0001
0000
0000
0000
1000
0000
0000
0010
0000
0000
0000
,
0100
0000
0000
0000
0001
1000
0000
0000
0000
0010
0100
0000
0000
0000
0000
0001
,
0010
0000
0000
0000
0000
0100
1000
0000
0000
0000
0000
0010
1000
0000
0001
0000
,
1000
0000
0010
0100
0001
1000
0100
0000
,
0010
0000
0001
0100
0001
1000
0010
0000
,
1000
0000
0100
0010
0001
0100
0001
0000
,
0010
0000
0000
0000
0001
1000
0000
0000
0000
0100
1000
0000
0010
0000
0100
0000
,
0001
0000
0000
0000
0010
0001
0000
0000
0000
1000
0000
0010
0100
0000
0000
0000
,
0001
0000
0000
0000
1000
0000
1000
0000
0000
0010
0000
0100
0001
0000
0001
0000
,
0010
0000
0000
0000
0001
0000
1000
0000
0000
0010
0000
0100
0010
0000
1000
0000
,
0100
0010
0001
0010
0100
1000
0001
1000
,
0020
0130
0200
0301
,
0002
1003
2000
3100
,
0200
0310
0020
0031
,
0002
1003
2000
3010
,
0100
0001
0010
0000
0001
0000
1000
0000
,
0010
1000
0100
0000
1000
0000
0001
0000
,
0010
0100
1000
0000
0001
0000
0010
0000
,
0001
1000
0010
0000
1000
0000
0100
0000
,
1000
0010
0100
0000
0001
1000
0100
0000
,
0010
0001
1000
0000
0001
0010
0100
0000
,
1000
0100
1000
0000
0001
0100
0001
0000
,
1000
0010
1000
0000
0001
0010
0001
0000
,
2002
3000
0200
0003
,
0020
0300
2000
0030
,
3001
0010
0001
0100
,
0010
0000
1000
0000
0110
0001
0001
1000
,
0010
0000
1000
0000
0100
0000
0000
0010
0000
0000
0001
0000
0100
0000
0000
0010
,
0000
1000
2200
0000
3300
1000
1000
0001
,
0010
0000
0001
0000
0100
0000
0000
0010
0000
0000
1000
0000
0001
0000
0000
1000
,
0000
0010
2020
0000
3030
0100
0100
0010
,
1000
0000
0100
0000
1000
0000
0000
0001
0000
0000
0010
0000
0100
0000
0000
0010
,
0000
0001
0202
0000
0303
0010
0010
0100
,
0010
0000
1000
0000
0100
0000
0000
1000
0000
0000
0001
0000
1000
0000
0000
0100
,
0000
0010
0022
0000
0033
0001
0001
0010
,
0100
0000
1000
0000
0010
0000
0000
1000
0000
0000
0100
0000
1000
0000
0000
0001
,
0000
0100
0220
0000
0330
0010
0010
1000
,
0100
0000
1000
0000
0001
0000
0000
0010
0000
0000
0001
0000
0100
0000
0000
0010
,
0000
1000
2002
0000
3003
1000
1000
0010
,
1000
0000
0100
0000
0010
0000
0000
0001
0000
0000
1000
0000
0010
0000
0000
0100
,
0000
0000
0001
0000
1000
0000
0000
0100
0000
0000
1000
0000
0010
0000
0000
0010
,
0000
0000
0010
0000
1000
0000
0000
1000
0000
0000
1000
0000
0001
0000
0000
0001
,
0000
0000
0001
0000
0100
0000
0000
0100
0000
0000
0100
0000
0010
0000
0000
0000
,
1000
0000
0100
0000
0000
1000
0000
0000
0001
0000
0001
0000
0100
0000
0000
0000
,
0010
1000
0000
0100
1000
0001
0100
0000
,
0010
1000
0001
1000
0010
0010
0100
0000
,
0001
1000
0001
0100
0010
0010
0020
0000
,
0000
0000
0000
0000
,
0000
0000
0000
0000
,
0000
0000
0000
0030
;

//---------------dance-single - ----------------
#NOTES:
     dance-single:
     :
     Hard:
     13:
     :
0000
0000
0000
0000
,
0000
0000
0000
0000
,
0000
0000
0000
0000
,
0000
0000
0000
0000
,
1000
0020
0000
0000
0000
0000
0000
0000
,
0130
0002
0000
0000
0000
0000
0000
0000
,
0103
0020
0000
0000
0000
0000
0000
0000
,
1030
0002
0000
0000
0000
0000
0000
0000
,
0013
0010
0010
0010
,
0001
0001
0001
0001
,
1000
1000
1000
1000
,
0100
0100
0100
0100
,
1000
0000
0010
0000
1000
0001
0000
0000
0010
0000
0001
0100
0001
0000
0000
0000
,
0010
0000
0001
0000
0010
0100
0000
0000
1000
0000
0001
0100
0001
0000
0000
0000
,
0010
0000
0100
0000
0010
0001
0000
0000
1000
0000
0010
0100
0010
0000
0000
0000
,
1000
0000
0001
0000
1000
0100
0000
0000
0010
0000
0001
1000
0001
0000
0100
0000
,
0001
0000
0010
0000
0001
1000
0000
0000
0010
0000
1000
0100
1000
0000
0000
0000
,
0010
0000
0100
0000
0010
1000
0000
0000
0001
0000
1000
0100
1000
0000
0000
0000
,
0100
0000
0010
0000
0100
1000
0000
0000
0001
0000
0010
0100
0010
0000
0000
0001
,
1000
0000
0100
0000
1000
0001
1000
0000
0000
0000
0010
0100
0010
0000
1000
0000
,
0001
0000
0000
0000
0010
0001
0010
0000
0000
0000
0001
1000
0001
0000
0000
0000
,
0100
0000
0000
0000
0010
1000
0010
0000
0000
0000
1000
0001
1000
0000
0000
0000
,
0100
0000
0000
0000
0010
0001
0010
0000
0000
0000
0001
1000
0001
0000
0000
0000
,
1000
0000
0000
0000
0010
0100
0010
0000
0000
0000
1000
0100
1000
0000
0001
0000
,
0010
0000
0000
0000
0001
0100
0001
0000
0000
0000
0100
0010
0100
0000
0000
0000
,
0001
0000
0000
0000
1000
0010
1000
0000
0000
0000
0100
1000
0100
0000
0010
0000
,
0001
0000
0000
0000
0100
0001
0100
0000
0000
0000
0010
1000
0010
0000
0100
0000
,
0001
1000
1000
1000
0010
0010
0100
0100
,
0020
0130
0200
0301
,
0002
1003
2000
3100
,
0100
0010
0001
0000
0001
1000
0010
0000
,
0010
0100
0001
0000
0001
1000
0100
0000
,
0100
1000
0010
0000
0010
0100
0001
0000
,
0001
1000
0010
1000
0100
0010
0001
0000
,
1000
0010
1000
0100
0010
0001
0100
0000
,
0010
1000
0010
1000
0100
0010
0001
0000
,
1000
0001
0010
0001
0100
0010
1000
0000
,
0001
0010
0001
0100
0010
1000
0100
0000
,
1000
0010
1000
0001
0010
0100
0010
0001
,
0100
0010
1000
0001
1000
0100
0010
0001
,
2002
3000
0020
0030
,
0200
0003
0002
0300
,
1003
0010
1000
0001
0010
0100
1000
0010
,
0100
0001
0010
0100
0110
0001
0001
1000
,
0010
0000
1000
0000
0100
0000
0010
0000
0001
0000
0100
0000
0010
0000
1000
0001
,
0000
0001
0100
0000
1010
0000
0000
0100
1000
0000
0010
0000
0010
0000
0100
0000
,
0001
0000
1000
0000
0001
0000
0010
0000
0100
0000
1000
0000
0010
0000
1000
0001
,
0000
0001
0100
0000
0101
0000
0000
0001
1000
0000
0100
0000
0100
0000
0010
0000
,
0001
0000
0100
0000
0010
0000
1000
0000
0001
0000
0010
0000
0100
0000
1000
0010
,
0000
0100
0001
0000
0011
0000
0000
1000
0100
0000
1000
0000
1000
0000
0001
0000
,
0010
0000
0001
0000
0100
0000
0010
0000
1000
0000
0001
0000
0010
0000
0001
1000
,
0000
1000
0100
0000
1100
0000
0000
0010
1000
0000
0001
0000
0001
0000
0010
0000
,
0001
0000
0100
0000
0010
0000
1000
0000
0001
0000
1000
0000
0100
0000
0010
0001
,
0000
0001
1000
0000
1100
0000
0000
0001
1000
0000
0010
0000
0010
0000
0100
0000
,
0001
0000
0010
0000
0100
0000
1000
0000
0100
0000
0010
0000
0001
0000
1000
0001
,
0000
0001
0010
0000
0101
0000
0000
0010
1000
0000
0100
0000
0100
0000
1000
0000
,
0001
0010
0001
0100
0010
1000
0100
0001
,
0100
0010
0100
0001
0100
1000
0010
0100
,
0010
1000
0100
0001
0100
0010
0001
0100
,
0001
0010
1000
0010
0001
0100
0010
0000
,
1000
0100
1000
0100
1000
0000
0010
0100
0001
0000
0001
0000
0010
0000
0000
0000
,
0100
0000
0100
0000
1000
0010
1000
0010
1000
0000
0001
0000
0100
0000
0010
0000
,
1000
0001
1000
0001
1000
0000
0010
0100
0001
0000
0001
0000
1000
0000
0000
0000
,
0100
0010
0100
0000
1000
0000
0001
1000
0010
0000
0010
0000
0020
0000
0000
0000
,
0000
0000
0000
0000
,
0000
0000
0000
0000
,
0000
0000
0000
0030
;
