#VERSION:0.83;
#TITLE:ANTI ANTHEM;
#SUBTITLE:;
#ARTIST:BEMANI Sound Team "ZAQUVA";
#TITLETRANSLIT:;
#SUBTITLETRANSLIT:;
#ARTISTTRANSLIT:;
#GENRE:;
#ORIGIN:;
#CREDIT:;
#BANNER:ANTI ANTHEM.png;
#BACKGROUND:ANTI ANTHEM-bg.png;
#PREVIEWVID:;
#JACKET:ANTI ANTHEM-jacket.png;
#CDIMAGE:;
#DISCIMAGE:;
#LYRICSPATH:;
#CDTITLE:;
#MUSIC:ANTI ANTHEM.ogg;
#OFFSET:0.000000;
#SAMPLESTART:81.329002;
#SAMPLELENGTH:20.000000;
#SELECTABLE:YES;
#DISPLAYBPM:128.000000:175.000000;
#BPMS:0.000=175.000,
72.000=350.000,
75.000=175.000,
104.000=350.000,
107.000=175.000,
120.000=350.000,
123.000=175.000,
124.000=350.000,
125.000=175.000,
132.000=350.000,
133.000=175.000,
139.000=350.000,
140.000=175.000,
147.000=350.000,
148.000=175.000,
152.000=350.000,
155.000=175.000,
158.000=350.000,
158.500=175.000,
160.000=350.000,
160.500=175.000,
162.000=350.000,
162.500=175.000,
165.000=350.000,
165.500=175.000,
167.000=350.000,
167.500=175.000,
169.000=350.000,
169.500=175.000,
172.333=350.000,
173.000=175.000,
174.333=350.000,
175.000=175.000,
182.000=700.000,
190.000=128.000,
205.000=256.000,
207.000=128.000,
225.000=256.000,
226.000=128.000,
257.000=256.000,
259.000=128.000,
268.000=256.000,
271.000=128.000,
274.000=256.000,
275.000=128.000,
282.000=256.000,
283.000=128.000,
289.000=256.000,
291.000=128.000;
#STOPS:72.000=0.171,
73.000=0.171,
74.000=0.171,
104.000=0.171,
105.000=0.171,
106.000=0.171,
120.000=0.171,
121.000=0.171,
122.000=0.174,
124.000=0.171,
132.000=0.171,
139.000=0.173,
147.000=0.171,
152.000=0.171,
153.000=0.171,
154.000=0.171,
156.000=0.343,
158.000=0.086,
160.000=0.086,
162.000=0.086,
163.000=0.343,
165.000=0.086,
167.000=0.086,
169.000=0.086,
170.000=0.343,
172.333=0.114,
174.333=0.114,
177.000=0.343,
225.000=0.117,
225.500=0.117,
257.000=0.078,
257.333=0.078,
257.667=0.078,
258.000=0.078,
258.333=0.078,
258.667=0.078,
268.000=0.078,
268.333=0.078,
268.667=0.078,
269.000=0.078,
269.333=0.078,
269.667=0.078,
270.000=0.059,
270.250=0.059,
270.500=0.059,
270.750=0.059,
274.000=0.059,
274.250=0.059,
274.500=0.059,
274.750=0.059,
282.000=0.059,
282.250=0.059,
282.500=0.059,
282.750=0.059,
289.000=0.078,
289.333=0.078,
289.667=0.078,
290.000=0.078,
290.333=0.078,
290.667=0.078;
#DELAYS:;
#WARPS:;
#TIMESIGNATURES:0.000=4=4;
#TICKCOUNTS:0.000=4;
#COMBOS:0.000=1;
#SPEEDS:0.000=1.000=0.000=0;
#SCROLLS:0.000=1.000;
#FAKES:;
#LABELS:0.000=Song Start;
#BGCHANGES:;
#KEYSOUNDS:;
#ATTACKS:
;

//---------------dance-single - ----------------
#NOTEDATA:;
#CHARTNAME:;
#STEPSTYPE:dance-single;
#DESCRIPTION:;
#CHARTSTYLE:;
#DIFFICULTY:Beginner;
#METER:5;
#RADARVALUES:0.115401,0.214259,0.092561,0.151464,0.000000,96.000000,85.000000,11.000000,18.000000,0.000000,0.000000,0.000000,0.000000,0.000000,0.115401,0.214259,0.092561,0.151464,0.000000,96.000000,85.000000,11.000000,18.000000,0.000000,0.000000,0.000000,0.000000,0.000000;
#CREDIT:;
#DISPLAYBPM:128.000000:175.000000;
#NOTES:
0000
0000
0000
0000
,
0000
0000
0000
0000
,
0000
0000
0000
0000
,
0000
0000
0000
0000
,
0000
0000
0000
0000
,
0000
0000
0000
0000
,
0000
0000
0000
0000
,
0000
0000
0000
0000
,
0000
0000
0000
0000
,
1000
0000
0000
0000
,
0000
0000
0000
0000
,
0010
0000
0000
0000
,
0000
0000
0000
0000
,
0001
0000
0000
0000
,
0000
0000
0000
0000
,
0100
0000
0000
0000
,
0000
0000
0000
0000
,
1000
0000
0001
0000
,
2002
0000
3003
0000
,
0001
0000
0100
0000
,
0001
0000
0000
0000
,
0010
0000
0100
0000
,
1000
0000
0000
0000
,
1000
0000
0100
0000
,
1000
0000
0000
0000
,
0100
0000
0001
0000
,
0020
0000
0000
0030
,
0001
0000
0100
0000
,
0001
0000
0000
0000
,
1000
0000
0100
0000
,
2000
0000
0000
3000
,
1001
0000
0000
0000
,
0010
0000
0010
0000
,
1001
0000
0000
0000
,
0100
0000
0100
0000
,
0001
0000
1000
0000
,
0001
1000
0001
0000
,
0010
0000
0100
0000
,
0220
0000
0000
0000
,
0330
0020
0000
0030
,
0000
0020
0000
0030
,
0200
0000
0300
0000
,
0200
0000
0300
0002
,
0000
0003
0000
2000
,
0000
3000
0001
0000
,
1000
0000
2002
0000
,
0000
0000
0000
0000
,
0000
0000
3003
0000
,
0010
0000
2000
0000
,
0000
0000
3000
0000
,
0010
0000
0002
0000
,
0000
0000
0000
0003
,
0000
0001
0000
0100
,
0000
0010
0000
1000
,
0000
0100
0000
0010
,
0000
0001
0000
1001
,
0000
0000
0000
0010
,
0100
0010
0000
1001
,
0000
0000
0000
0100
,
0010
0100
0000
1001
,
0000
0000
0000
0001
,
0000
0010
0000
1000
,
0000
0000
0000
1000
,
0000
0010
0000
0001
,
0000
0000
0000
1001
,
0000
0000
0000
0200
,
0000
0000
0300
0020
,
0000
0000
0030
1001
,
0000
0000
0000
0010
,
0000
1000
0000
0001
,
0000
0000
0000
0100
,
0000
0001
0000
1000
,
0000
0000
0000
1001
,
0000
0000
0000
0000
;

//---------------dance-single - ----------------
#NOTEDATA:;
#CHARTNAME:;
#STEPSTYPE:dance-single;
#DESCRIPTION:;
#CHARTSTYLE:;
#DIFFICULTY:Easy;
#METER:9;
#RADARVALUES:0.347406,0.434408,0.210367,0.159879,0.000000,289.000000,264.000000,25.000000,19.000000,0.000000,0.000000,0.000000,0.000000,0.000000,0.347406,0.434408,0.210367,0.159879,0.000000,289.000000,264.000000,25.000000,19.000000,0.000000,0.000000,0.000000,0.000000,0.000000;
#CREDIT:;
#DISPLAYBPM:128.000000:175.000000;
#NOTES:
0000
0000
0000
0000
,
0000
0000
0000
0000
,
0000
0000
0000
0000
,
0000
0000
0000
0000
,
0000
0000
0000
0000
,
0000
0000
0000
0000
,
0000
0000
0000
0000
,
0000
0000
0000
0000
,
0000
0000
0000
0000
,
1000
0010
1000
0010
,
1000
0000
0100
0000
1000
0100
1000
0000
,
0001
0010
0001
0010
,
0001
0000
0100
0000
0001
0100
0001
0000
,
1000
0010
0001
0010
,
1000
0001
1000
1000
,
0001
0010
1000
0010
,
0001
1000
0001
0001
,
0010
0010
0100
0100
,
1000
0001
2002
3003
,
0001
0000
1000
0000
0001
1000
0001
0000
,
1000
0000
0001
0000
1000
0001
1000
0000
,
0010
0000
0100
0000
0010
0100
0010
0000
,
0100
0100
0100
0100
,
0001
0000
0010
0000
0001
0010
0001
0000
,
0010
0000
0001
0000
0010
0001
0010
0000
,
0100
0000
1000
0000
0100
1000
0100
0000
,
2002
0000
0000
3003
,
1000
0000
0010
0000
1000
0010
1000
0000
,
0100
0000
0010
0000
0100
0010
0100
0000
,
0010
0000
0001
0000
0100
0010
1000
0000
,
0002
0000
0000
0003
,
1001
0000
0001
0000
0001
0010
0001
0000
,
0100
0010
0100
0010
0100
0000
0000
0000
,
1001
0000
1000
0000
1000
0100
1000
0000
,
0100
0010
0100
0010
0100
0000
0000
0000
,
0011
0000
0001
0100
0001
0000
0000
0000
,
1010
0000
1000
0100
1000
0000
0000
0000
,
1000
1001
0001
1001
,
1000
1000
1000
0000
,
0110
1100
0000
0101
,
0000
1100
0000
0101
,
1010
0000
0011
0000
,
1010
0000
0011
0110
,
0000
1001
0000
0110
,
0000
0000
1001
0000
0001
0010
0100
0000
,
1000
0010
0100
0000
0002
0000
0000
0000
,
0000
0000
0000
0000
,
0000
0000
0003
0001
,
0100
0001
0100
0100
,
0100
0000
0010
0010
,
1000
0010
1000
1000
,
1000
2000
0000
3000
,
1000
0000
0010
0100
0010
0000
0100
0000
,
0100
0000
0001
1000
0001
0000
0010
0001
,
0010
0000
0100
1000
0100
0000
1000
0010
,
1000
0000
0001
0100
0001
1000
0001
0000
,
0000
0110
0110
1000
,
0100
0000
0010
0001
0010
0000
0001
0100
,
0001
0000
0010
0001
0010
0000
0001
0000
,
0100
0000
0010
1000
0010
0000
2000
0000
,
3200
0320
0032
1003
,
0001
0000
0100
0010
1000
0000
0100
0010
,
0001
0000
0100
0001
1000
0000
0010
0000
,
0100
0000
0001
1000
0001
0000
0100
0010
,
0100
2002
0000
3003
,
0001
0100
0100
0001
,
1000
0001
0110
1000
,
2000
3001
0002
0103
,
0010
0000
1000
0001
2000
0000
3010
0000
,
0010
0000
0100
0001
0010
0000
0100
1000
,
0010
0000
0100
0001
0200
0000
0310
0000
,
0010
0000
1000
0010
1000
0000
0001
0100
,
0001
0020
0100
0200
,
0000
0000
0000
0330
,
0000
0000
0000
0000
;

//---------------dance-single - ----------------
#NOTEDATA:;
#CHARTNAME:;
#STEPSTYPE:dance-single;
#DESCRIPTION:;
#CHARTSTYLE:;
#DIFFICULTY:Medium;
#METER:13;
#RADARVALUES:0.485647,0.713670,0.260855,0.513295,0.357624,404.000000,373.000000,31.000000,61.000000,0.000000,0.000000,0.000000,0.000000,0.000000,0.485647,0.713670,0.260855,0.513295,0.357624,404.000000,373.000000,31.000000,61.000000,0.000000,0.000000,0.000000,0.000000,0.000000;
#CREDIT:;
#DISPLAYBPM:128.000000:175.000000;
#NOTES:
0000
0000
0000
0000
,
0000
0000
0000
0000
,
0000
0000
0000
0000
,
0000
0000
0000
0000
,
0000
0000
0000
0000
,
0000
0000
0000
0000
,
0000
0000
0000
0000
,
0000
0000
0000
0000
,
0000
0000
0000
0000
,
1000
0000
1000
0000
0100
0010
0001
0000
,
0001
0000
0001
0000
0100
0001
0010
0000
,
0010
0000
0010
0000
0010
0100
1000
0000
,
0010
0000
0010
0000
0010
0100
0001
0000
,
0100
1010
0100
1010
,
0100
0011
0100
0011
,
1000
0100
0010
0001
0100
0010
1000
0000
,
0000
0000
1000
0010
0000
1000
0000
0000
0001
0000
0010
0000
0001
0000
0000
0000
,
0001
0010
0100
1000
,
0020
0030
0000
0000
0000
0000
0000
0000
0000
0000
0000
0000
0000
0000
0000
0000
0020
0030
0000
0000
0000
0000
0000
0000
0000
0000
0000
0000
0000
0000
0000
0000
0020
0030
0000
0000
0000
0000
0000
0000
0000
0000
0000
0000
0000
0000
0000
0000
1001
0000
0000
0000
0000
0000
0000
0000
0000
0000
0000
0000
0000
0000
0000
0000
,
0100
0000
0000
0000
0110
0000
0000
0001
0000
1000
0001
0000
1000
0000
0000
0000
,
0001
0000
0000
0000
0110
0000
0000
1000
0000
0001
1000
0000
0001
0000
0000
0000
,
1000
0000
0000
0000
0110
0000
0000
0010
0000
0100
0010
0000
0100
0000
0000
0000
,
0001
0000
0001
0010
0000
0010
0100
0000
0100
1000
0000
0000
,
0001
0000
0000
0000
0110
0000
0000
1000
0000
0100
1000
0000
0010
0000
0000
0000
,
1000
0000
0000
0000
0110
0000
0000
0001
0000
0100
0001
0000
0010
0000
0000
0000
,
0001
0100
0010
0000
1000
0100
0010
0000
,
0002
0003
0000
0000
0000
0000
0000
0000
0000
0000
0000
0000
0000
0000
0000
0000
2000
3000
0000
0000
0000
0000
0000
0000
0000
0000
0000
0000
0000
0000
0000
0000
0002
0003
0000
0000
0000
0000
0000
0000
0000
0000
0000
0000
0000
0000
0000
0000
1001
0000
0000
0000
0000
0000
0000
0000
0000
0000
0000
0000
0000
0000
0000
0000
,
0010
0000
0000
0000
0101
0000
0000
1000
0000
0001
0010
0000
0100
0000
0000
0000
,
1000
0000
0000
0000
0101
0000
0000
0010
0000
0100
0010
0000
1000
0000
0000
0000
,
0001
0000
0000
0000
0000
0000
0000
0000
0000
0000
0000
0000
1000
0000
0000
0000
0100
0000
0000
0000
1000
0000
0000
0000
0100
0000
0000
0000
0000
0000
0000
0000
0000
0000
0000
0000
0010
0000
0000
0001
0000
0000
0010
0000
0000
0000
0000
0000
,
0002
0003
0000
0000
0000
0000
0000
0000
0000
0000
0000
0000
0000
0000
0000
0000
0002
0003
0000
0000
0000
0000
0000
0000
0000
0000
0000
0000
0000
0000
0000
0000
0002
0000
0000
0000
0000
0000
0000
0000
0000
0000
0000
0000
0000
0000
0000
0000
0003
0000
0000
0000
0000
0000
0000
0000
0000
0000
0000
0000
0000
0000
0000
0000
,
2002
3003
0000
0000
0000
0000
0000
0000
0000
0000
0000
0000
0000
0000
0000
0000
1000
0000
0000
0000
0000
0000
0000
0000
0100
0000
0000
0000
0000
0000
0000
0000
1000
0000
0000
0000
0000
0000
0000
0000
0100
0000
0000
0000
0000
0000
0000
0000
1000
0000
0000
0000
0000
0000
0000
0000
0000
0000
0000
0000
0000
0000
0000
0000
,
0001
0000
0010
0000
0001
0000
0000
0000
0100
0000
0001
0000
0100
0001
0100
0000
,
0002
0003
0000
0000
0000
0000
0000
0000
0000
0000
0000
0000
0000
0000
0000
0000
0001
0000
0000
0000
0000
0000
0000
0000
0100
0000
0000
0000
0000
0000
0000
0000
0001
0000
0000
0000
0000
0000
0000
0000
0100
0000
0000
0000
0000
0000
0000
0000
0001
0000
0000
0000
0000
0000
0000
0000
0000
0000
0000
0000
0000
0000
0000
0000
,
1000
0000
0000
0000
0000
0000
0000
0000
0010
0000
0000
0000
0000
0000
0000
0000
1000
0000
0000
0000
0000
0000
0000
0000
0000
0000
0000
0000
0000
0000
0000
0000
0001
0000
0000
0000
1000
0000
0000
0000
0001
0000
0000
0000
0000
0000
0000
0000
2000
3000
0000
0000
0000
0000
0000
0000
0000
0000
0000
0000
0000
0000
0000
0000
,
0001
0000
0100
0000
0010
1000
0000
0010
0000
1000
0000
0010
1000
0000
0000
0000
,
1000
0000
0000
0000
0000
0000
0000
0000
0100
0000
0000
0000
0000
0000
0000
0000
0010
0000
0000
0000
0001
0000
0000
0000
0000
0000
0000
0000
0010
0000
0000
0000
0000
0000
0000
0000
0001
0000
0000
0000
0000
0000
0000
0000
0010
0000
0000
0000
0002
0003
0000
0000
0000
0000
0000
0000
0000
0000
0000
0000
0000
0000
0000
0000
,
0001
0000
0001
0010
0000
0001
1000
0000
1000
0010
0000
0000
,
0200
0300
0000
0000
0000
0000
0000
0000
0000
0000
0000
0000
0000
0000
0000
0000
0002
0003
0000
0000
0000
0000
0000
0000
0000
0000
0000
0000
0000
0000
0000
0000
0020
0000
0000
0000
0000
0000
0000
0000
0000
0000
0000
0000
0000
0000
0000
0000
0000
0000
0000
0000
0000
0000
0000
0000
0000
0000
0000
0000
0000
0000
0000
0000
,
2000
0000
0000
0000
3030
0000
0000
0000
0000
0000
0000
0000
0000
0000
0000
0000
1000
0000
0000
0000
0000
0000
0000
0000
0000
0000
0000
0000
0000
0000
0000
0000
2200
3300
0000
0000
0000
0000
0000
0000
0000
0000
0000
0000
0000
0000
0000
0000
0100
0000
0000
0000
0000
0000
0000
0000
0000
0000
0000
0000
0000
0000
0000
0000
,
0202
0303
0000
0000
0000
0000
0000
0000
0000
0000
0000
0000
0000
0000
0000
0000
0001
0000
0000
0000
0000
0000
0000
0000
0000
0000
0000
0000
0000
0000
0000
0000
0022
0033
0000
0000
0000
0000
0000
0000
0000
0000
0000
0000
0000
0000
0000
0000
0220
0000
0000
0000
0330
0000
0000
0000
0000
0000
0000
0000
0000
0000
0000
0000
,
1000
0000
0000
0000
0000
0000
0000
0000
0000
0000
0000
0000
0000
0000
0000
0000
2020
3030
0000
0000
0000
0000
0000
0000
0000
0000
0000
0000
0000
0000
0000
0000
0010
0000
0000
0000
0000
0000
0000
0000
0000
0000
0000
0000
0000
0000
0000
0000
0022
0033
0000
0000
0000
0000
0000
0000
0000
0000
0000
0000
0000
0000
0000
0000
,
0001
0000
0000
0000
0000
0000
0000
0000
0000
0000
0000
0000
0000
0000
0000
0000
0000
0000
0000
0000
0000
0000
0000
0000
0000
0000
0000
0000
0000
0000
0000
0000
0000
0000
0000
0000
0000
0000
0000
0000
0000
0000
0000
0000
0000
0000
0000
0000
0202
0000
0000
0303
0000
0000
0000
0000
0000
0000
0000
0000
0000
0000
0000
0000
0000
0000
0000
0000
0000
0000
0000
0000
0000
0000
0000
0000
0000
0000
0000
0000
0000
0000
0000
0000
0000
0000
0000
0000
0000
0000
0000
0000
0000
0000
0000
0000
0220
0000
0000
0000
0000
0000
0000
0000
0000
0000
0000
0000
0330
0000
0000
0000
0000
0000
0000
0000
0000
0000
0000
0000
0000
0000
0000
0000
0000
0000
0000
0000
0000
0000
0000
0000
0000
0000
0000
0000
0000
0000
0000
0000
0000
0000
0000
0000
0001
0000
0000
0000
0000
0000
0000
0000
0000
0000
0000
0000
0000
0000
0000
0000
0000
0000
0000
0000
0000
0000
0000
0000
0000
0000
0000
0000
0000
0000
0000
0000
0010
0000
0000
0000
0000
0000
0000
0000
0000
0000
0000
0000
0000
0000
0000
0000
,
0000
0000
0000
0000
0002
0003
0000
0000
0000
0000
0000
0000
1000
0000
0000
0000
0000
0000
0000
0000
0010
0000
0000
0000
0000
0000
0000
0000
2000
3000
0000
0000
0000
0000
0000
0000
0001
0000
0000
0000
0000
0000
0000
0000
1000
0000
0000
0000
,
0000
0000
0000
0000
0001
0000
0000
0000
0000
0000
0000
0000
2000
0000
0000
3000
0000
0000
0000
0000
0000
0000
0000
0000
0001
0000
0000
0000
0000
0000
0000
0000
0000
0010
0000
0000
0001
0000
0000
0000
0000
0000
0100
0000
0000
0000
0000
0000
,
0010
0000
1000
0000
0010
0000
0100
0001
0200
0000
0000
0000
0000
0000
0000
0000
,
0000
0000
0000
0000
,
0000
0000
0301
0001
,
0010
0010
0100
1000
,
0100
0000
1000
1000
,
0010
0010
0100
0001
,
0100
0001
0020
0000
0000
0000
0031
0010
,
0100
0000
0100
1000
0010
0000
1000
0100
,
0010
0000
0010
0001
0100
0000
0001
0010
,
1000
0000
1000
0010
0001
0000
1000
0100
,
0010
0000
0001
0000
0100
0000
0010
0000
0100
0001
0100
0010
1000
0000
0000
0000
,
0000
0000
0200
0300
0110
0000
1000
0100
,
1000
0010
0000
0000
0100
0001
0000
0010
0000
0010
0000
0000
0100
1000
0000
0010
,
0000
0010
0000
0000
1000
0100
0000
0010
0000
0001
0000
0000
0001
0000
1000
0000
,
0010
0100
0000
0000
0010
1000
0000
0100
0000
0100
0000
0020
0000
0000
0001
0000
,
0000
0000
1030
0010
0000
0001
0000
0010
0000
0100
1000
0000
0010
0000
1000
0000
,
0000
0011
0000
1010
0000
0011
0000
1100
,
0000
0101
0000
1100
0000
0101
0001
1000
,
0010
0100
0000
0000
0001
0000
1000
0000
0100
0010
0000
0000
0001
0000
0100
0000
,
0010
0100
0000
0000
0002
0000
0000
0000
2003
0000
0000
0000
3002
0000
0000
0000
,
0000
0203
0000
0310
,
0010
0000
0100
0010
1001
0000
0010
1000
,
0200
0300
0000
0000
2000
3000
0000
0000
0200
0300
0000
0000
2000
3000
0000
0000
0002
0003
0000
0000
0200
0300
0000
0000
0002
0000
0000
0000
0000
0000
0000
0000
0000
0000
0000
0000
0013
0000
0000
0000
0000
0000
0100
0000
0000
0000
0000
0000
,
1000
0001
1000
0100
0020
0000
0031
0100
,
0010
1000
0000
0010
1000
0000
0100
0000
0010
0001
0000
0010
0001
0000
1000
0000
,
0001
0100
0000
0010
1000
0000
0001
0000
0002
0000
0000
0000
1003
0000
0100
0000
,
0010
0100
0010
0000
0001
0000
0100
0000
0010
0100
0010
0000
1000
0001
0010
0000
,
0001
0000
0000
1000
0000
0000
0010
0000
0000
0000
0000
0000
0200
0300
0000
0000
0002
0003
0000
0000
0200
0300
0000
0000
0020
0030
0000
0000
2000
3000
0000
0000
0002
0003
0000
0000
2000
0000
0000
0000
0000
0000
0000
0000
0000
0000
0000
0000
,
0000
0000
0000
3000
,
0000
0000
0000
0000
;

//---------------dance-single - ----------------
#NOTEDATA:;
#CHARTNAME:;
#STEPSTYPE:dance-single;
#DESCRIPTION:;
#CHARTSTYLE:;
#DIFFICULTY:Hard;
#METER:15;
#RADARVALUES:0.699620,0.992932,0.227196,0.647930,0.862504,582.000000,555.000000,27.000000,77.000000,0.000000,0.000000,0.000000,0.000000,0.000000,0.699620,0.992932,0.227196,0.647930,0.862504,582.000000,555.000000,27.000000,77.000000,0.000000,0.000000,0.000000,0.000000,0.000000;
#CREDIT:;
#DISPLAYBPM:128.000000:175.000000;
#NOTES:
0000
0000
0000
0000
,
0000
0000
0000
0000
,
0000
0000
0000
0000
,
0000
0000
0000
0000
,
0000
0000
0000
0000
,
0000
0000
0000
0000
,
0000
0000
0000
0000
,
0000
0000
0000
0000
,
0000
0000
0000
0000
,
1000
0000
0001
0010
0000
0001
0000
1000
0100
0000
0010
0000
0100
0000
1000
0001
,
1000
0000
0010
0100
0000
0010
0000
0100
0010
0000
1000
0000
0001
0000
0100
0000
,
0001
0000
1000
0100
0000
1000
0000
0001
0010
0000
0100
0000
0010
0000
0001
1000
,
0001
0000
0100
0010
0000
0100
0000
0010
0100
0000
0001
0000
1000
0000
0010
0000
,
1000
0000
0100
0010
0000
0010
0000
0001
1000
0000
0100
0010
0000
0010
0000
0001
,
1000
0000
0010
0100
0000
0100
0000
0001
1000
0000
0010
0100
0000
0100
0000
0001
,
1000
0000
0100
0010
0001
0000
0100
0010
1000
0010
1000
0010
0100
0001
0100
0001
,
0000
0000
1000
0001
0000
0001
0000
1000
0001
0000
0001
0000
1001
0000
0000
0000
,
0001
0010
1000
0100
,
0022
0033
0000
0000
0000
0000
0000
0000
0000
0000
0000
0000
0000
0000
0000
0000
2020
3030
0000
0000
0000
0000
0000
0000
0000
0000
0000
0000
0000
0000
0000
0000
2200
3300
0000
0000
0000
0000
0000
0000
0000
0000
0000
0000
0000
0000
0000
0000
0101
0000
0000
0000
0000
0000
0000
0000
0000
0000
0000
0000
0000
0000
0000
0000
,
0010
0000
1000
0100
1000
0000
0001
0010
0000
0001
0010
0000
0001
0000
0000
0000
,
0010
0000
0001
0100
0001
0000
1000
0010
0000
1000
0010
0000
1000
0000
0000
0000
,
0001
0000
0100
0010
1000
0000
0100
0010
0000
0100
0010
0000
0001
0000
0000
0000
,
1000
0000
0000
0000
0010
0000
0000
0000
0100
0000
0000
0000
0001
0000
0000
0000
0010
0000
0000
0000
0100
0000
0000
0000
1000
0000
0000
0000
0010
0000
0000
0000
0100
0000
0000
0000
0001
0000
0000
1000
0000
0000
0001
0000
0000
1000
0000
0000
,
0001
0000
0100
0010
1000
0000
0100
0010
0000
0001
0100
0000
0001
0000
0001
0000
,
1000
0000
0010
0100
0001
0000
0010
0100
0000
1000
0010
0000
1000
0000
1000
0000
,
0010
0000
0000
0000
0000
0000
0100
0000
0000
0000
0000
0000
0001
0000
0000
0000
1000
0000
0000
0000
0001
0000
0000
0000
0010
0000
0000
0000
0000
0000
0100
0000
0000
0000
0000
0000
1000
0000
0000
0001
0000
0000
1000
0000
0000
0001
0000
0000
,
2000
3000
0000
0000
0000
0000
0000
0000
0000
0000
0000
0000
0000
0000
0000
0000
2200
3300
0000
0000
0000
0000
0000
0000
0000
0000
0000
0000
0000
0000
0000
0000
0022
0033
0000
0000
0000
0000
0000
0000
0000
0000
0000
0000
0000
0000
0000
0000
1001
0000
0000
0000
0000
0000
0000
0000
0000
0000
0000
0000
0000
0000
0000
0000
,
0010
0000
1000
0100
0010
0000
0001
0100
0000
0010
1000
0000
0100
0000
0100
0000
,
1000
0000
0010
0100
0001
0000
1000
0100
0000
0010
0001
0000
0100
0000
0100
0010
,
0100
0000
0000
0000
0000
0000
0001
0000
0000
0000
0000
0000
1000
0000
0000
0000
0100
0000
0000
0000
0001
0000
0000
0000
0100
0000
0000
1000
0000
0000
0100
0000
0000
1000
0000
0000
0001
0000
0000
0010
0000
0000
0100
0000
0000
1000
0000
0000
,
0002
0003
0000
0000
0000
0000
0000
0000
0000
0000
0000
0000
0000
0000
0000
0000
0022
0033
0000
0000
0000
0000
0000
0000
0000
0000
0000
0000
0000
0000
0000
0000
2200
3300
0000
0000
0000
0000
0000
0000
0000
0000
0000
0000
0000
0000
0000
0000
0110
0000
0000
0000
0000
0000
0000
0000
0000
0000
0000
0000
0000
0000
0000
0000
,
2002
3003
0000
0000
0000
0000
0000
0000
0000
0000
0000
0000
0000
0000
0000
0000
1000
0000
0000
0000
0000
0000
0000
0000
1000
0000
0000
0000
0000
0000
0000
0000
0100
0000
0000
0000
0000
0000
0000
0000
0100
0000
0000
0000
0000
0000
0000
0000
0010
0000
0000
0000
0000
0000
0000
0000
0010
0000
0000
0000
0001
0000
0000
0000
,
0010
0000
0010
0000
0001
0000
0001
0000
0100
0000
0100
0000
0010
1000
0001
0100
,
0020
0030
0000
0000
0000
0000
0000
0000
0000
0000
0000
0000
0000
0000
0000
0000
0100
0000
0000
0000
0000
0000
0000
0000
0100
0000
0000
0000
0000
0000
0000
0000
0010
0000
0000
0000
0000
0000
0000
0000
0010
0000
0000
0000
0000
0000
0000
0000
1000
0000
0000
0000
0000
0000
0000
0000
1000
0000
0000
0000
0001
0000
0000
0000
,
1000
0000
0000
0000
0000
0000
0000
0000
1000
0000
0000
0000
0000
0000
0000
0000
0100
0000
0000
0000
0000
0000
0000
0000
0100
0000
0000
0000
0000
0000
0000
0000
0010
0000
0000
0000
0100
0000
0000
0000
1000
0000
0000
0000
0001
0000
0000
0000
0020
0030
0000
0000
0000
0000
0000
0000
0000
0000
0000
0000
0000
0000
0000
0000
,
0110
0000
0010
0000
0001
1000
0000
0100
0000
0010
0000
0001
1000
0000
0010
0000
,
0110
0000
0000
0000
0000
0000
0000
0000
0010
0000
0000
0000
0000
0000
0000
0000
1000
0000
0000
0000
0001
0000
0000
0000
0000
0000
0000
0000
0100
0000
0000
0000
0000
0000
0000
0000
0010
0000
0000
0000
0000
0000
0000
0000
1000
0000
0000
0000
0002
0003
0000
0000
0000
0000
0000
0000
0000
0000
0000
0000
0000
0000
0000
0000
,
0100
0000
0100
0010
0000
0010
1000
0000
1000
0001
0100
0010
,
2000
3000
0000
0000
0000
0000
0000
0000
0000
0000
0000
0000
0000
0000
0000
0000
2002
3003
0000
0000
0000
0000
0000
0000
0000
0000
0000
0000
0000
0000
0000
0000
2200
3000
0000
0000
0000
0000
0000
0000
0000
0000
0000
0000
0000
0000
0000
0000
0000
0000
0000
0000
0000
0000
0000
0000
0000
0000
0000
0000
0000
0000
0000
0000
,
0002
0000
0000
0000
0303
0000
0000
0000
0000
0000
0000
0000
0000
0000
0000
0000
0101
0000
0000
0000
0000
0000
0000
0000
0000
0000
0000
0000
0001
0000
0000
0000
0200
0300
0000
0000
0000
0000
0000
0000
0010
0000
0000
0000
0000
0000
0000
0000
1000
0000
0000
0000
0000
0000
0000
0000
0000
0000
0000
0000
1000
0000
0000
0000
,
0200
0300
0000
0000
0000
0000
0000
0000
0010
0000
0000
0000
0000
0000
0000
0000
0001
0000
0000
0000
0000
0000
0000
0000
0000
0000
0000
0000
0001
0000
0000
0000
2000
3000
0000
0000
0000
0000
0000
0000
0001
0000
0000
0000
0000
0000
0000
0000
0200
0000
0000
0000
0300
0000
0000
0000
0000
0000
0000
0000
0000
0000
0000
0000
,
1010
0000
0000
0000
0000
0000
0000
0000
0000
0000
0000
0000
1000
0000
0000
0000
0020
0030
0000
0000
0000
0000
0000
0000
0100
0000
0000
0000
0000
0000
0000
0000
0001
0000
0000
0000
0000
0000
0000
0000
0000
0000
0000
0000
0001
0000
0000
0000
0020
0030
0000
0000
0000
0000
0000
0000
0100
0000
0000
0000
0000
0000
0000
0000
,
1000
0000
0000
0000
0000
0000
0000
0000
0000
0000
0000
0000
0000
0000
0000
0000
0000
0000
0000
0000
0000
0000
0000
0000
0000
0000
0000
0000
0000
0000
0000
0000
0000
0000
0000
0000
1000
0000
0000
0000
0000
0000
0000
0000
0000
0000
0000
0000
0002
0000
0000
0003
0000
0000
0000
0000
0000
0000
0000
0000
0000
0000
0000
0000
0000
0000
0000
0000
0000
0000
0000
0000
1000
0000
0000
0000
0000
0000
0000
0000
0000
0000
0000
0000
0000
0000
0000
0000
0000
0000
0000
0000
0000
0000
0000
0000
0020
0000
0000
0000
0000
0000
0000
0000
0000
0000
0000
0000
0030
0000
0000
0000
0000
0000
0000
0000
0000
0000
0000
0000
0000
0000
0000
0000
0000
0000
0000
0000
0000
0000
0000
0000
0000
0000
0000
0000
0000
0000
0000
0000
0000
0000
0000
0000
1000
0000
0000
0000
0000
0000
0000
0000
0000
0000
0000
0000
0000
0000
0000
0000
0000
0000
0000
0000
0000
0000
0000
0000
0000
0000
0000
0000
0000
0000
0000
0000
0100
0000
0000
0000
0000
0000
0000
0000
0000
0000
0000
0000
0000
0000
0000
0000
,
0000
0000
0000
0000
2200
3300
0000
0000
0000
0000
0000
0000
0001
0000
0000
0000
0000
0000
0000
0000
0100
0000
0000
0000
0000
0000
0000
0000
0202
0303
0000
0000
0000
0000
0000
0000
0001
0000
0000
0000
0000
0000
0000
0000
0001
0000
0000
0000
,
1000
0000
0000
0000
0001
0000
0000
0000
1000
0000
0000
0000
0002
0000
0000
0003
0000
0000
0000
0000
0000
0000
0000
0000
1000
0000
0000
0000
0000
0000
0000
0000
0000
1000
0000
0000
0100
0000
0000
0000
0000
0000
0010
0000
0000
0001
0000
0000
,
0100
0000
0010
0000
1000
0001
0010
0100
2000
0000
0000
0000
0000
0000
0000
0000
,
0000
0000
0000
0000
,
0000
0000
3001
0001
,
1000
1000
0001
1000
,
0001
0000
1000
0000
0001
0010
0100
0000
,
1000
0010
0100
0000
0001
0100
0010
0000
,
1000
0100
0020
0000
0000
0000
0031
0100
,
0001
0000
0100
0000
0010
0000
1000
0000
0010
1000
0010
0000
1000
0000
0100
0000
,
1000
0000
0100
0000
0010
0000
0001
0000
0010
0001
0010
0000
0001
0100
0010
0000
,
0100
0010
1000
0000
0100
0010
0001
0000
1000
0100
0010
0000
0100
1000
0010
1000
,
0100
0010
0001
1000
0010
0100
0001
0100
0010
1000
0100
0010
0001
0000
0000
0000
,
0000
0000
0000
0000
0000
0000
0000
0000
0000
0000
0000
0000
0000
0000
0000
0000
0200
0300
0000
0000
0000
0000
0000
0000
0020
0030
0000
0000
0000
0000
0000
0000
1001
0000
0000
0000
0000
0000
0000
0000
0000
0000
0000
0000
0000
0000
0000
0000
0110
0000
0000
0000
0000
0000
0000
0000
1000
0000
0000
0000
0000
0000
0000
0000
,
0001
1000
0000
1000
0100
0010
0000
0100
0000
0100
0000
0000
1000
0010
0000
1000
,
0000
1000
0000
0000
0001
0100
0000
0001
0000
0101
0000
0000
1000
0000
0100
0000
,
0010
0001
0000
0001
0100
0010
0000
1000
0000
0010
0000
1000
0100
0010
0100
1000
,
0010
0100
0001
0010
0000
0100
0000
1000
0000
0001
1000
0000
0110
0000
0001
0000
,
1000
0001
0000
0001
0010
0000
0100
0000
1000
0010
0000
0010
1000
0000
0010
0000
,
0100
0001
0000
0001
1000
0010
0000
1000
0000
1010
0000
0000
0001
0000
0010
0000
,
0100
1000
0000
1000
0010
0000
0100
0000
0001
0100
0000
0100
0010
1000
0010
0000
,
0100
0000
0000
0000
0000
0000
0001
0000
0000
0000
0000
0000
0010
0000
0000
0000
0000
0000
0000
0000
0000
0000
0000
0000
0002
0003
0000
0000
0000
0000
0000
0000
0200
0300
0000
0000
0000
0000
0000
0000
2000
3000
0000
0000
0000
0000
0000
0000
0200
0300
0000
0000
0000
0000
0000
0000
0002
0003
0000
0000
0000
0000
0000
0000
2000
3000
0000
0000
0000
0000
0000
0000
0002
0000
0000
0000
0000
0000
0000
0000
0000
0000
0000
0000
0000
0000
0000
0000
0000
0000
0000
0000
0000
0000
0000
0000
,
0010
0100
0103
0010
,
0010
0000
0100
0010
1001
0000
0001
1000
,
0002
0000
0000
0000
0003
0000
0000
0000
0000
0000
0000
0000
0000
0000
0000
0000
0020
0000
0000
0000
0030
0000
0000
0000
0000
0000
0000
0000
0000
0000
0000
0000
2000
0000
0000
0000
3000
0000
0000
0000
0000
0000
0000
0000
0000
0000
0000
0000
0020
0000
0000
0000
0030
0000
0000
0000
0000
0000
0000
0000
0000
0000
0000
0000
0002
0000
0000
0000
0003
0000
0000
0000
0000
0000
0000
0000
0000
0000
0000
0000
0200
0000
0000
0000
0300
0000
0000
0000
0000
0000
0000
0000
0000
0000
0000
0000
2000
0000
0000
3000
0000
0000
0000
0000
0000
0000
0000
0000
0200
0000
0000
0300
0000
0000
0000
0000
0000
0000
0000
0000
0002
0000
0000
0003
0000
0000
0000
0000
0000
0000
0000
0000
0020
0000
0000
0030
0000
0000
0000
0000
0000
0000
0000
0000
0100
0000
0000
0000
0000
0000
0000
0000
0000
0000
0000
0000
0000
0000
0000
0000
0000
0000
0000
0000
0000
0000
0000
0000
1000
0000
0000
0000
0000
0000
0000
0000
0000
0000
0000
0000
0010
0000
0000
0000
0000
0000
0000
0000
0000
0000
0000
0000
,
0000
0000
0000
0000
0100
0000
0000
0000
0001
0000
0000
0000
0010
0000
0000
0000
0001
0000
0000
0000
0000
0000
0000
0000
1000
0000
0000
0000
0100
0000
0000
0000
0020
0030
0000
0000
0200
0300
0000
0000
0020
0030
0000
0000
0200
0300
0000
0000
0010
0000
0000
0000
0000
0000
0000
0000
0001
0000
0000
0000
0000
0000
0000
0000
,
1000
0100
1000
0100
1000
0000
0010
0000
0100
0001
0100
0001
0100
0000
0010
0000
,
1000
0000
0000
0000
0100
0000
0000
0000
0010
0000
0000
0000
0001
0000
0000
0000
1000
0000
0000
0000
0010
0000
0000
0000
0100
0000
0000
0000
0001
0000
0000
0000
0020
0030
0000
0000
2000
3000
0000
0000
0020
0030
0000
0000
0002
0003
0000
0000
1000
0000
0000
0000
0000
0000
0000
0000
0100
0000
0000
0000
0010
0000
0000
0000
,
0100
1000
0010
0100
0001
0010
0001
1000
0100
1000
0001
0010
0100
1000
0100
1000
,
0010
0000
0000
0000
0000
0000
0100
0000
0000
0000
0000
0000
0010
0000
0000
0000
0000
0000
0100
0000
0000
0000
0000
0000
0020
0030
0000
0000
0000
0000
0000
0000
0020
0030
0000
0000
0000
0000
0000
0000
0020
0030
0000
0000
0000
0000
0000
0000
0200
0300
0000
0000
0000
0000
0000
0000
0200
0300
0000
0000
0000
0000
0000
0000
0200
0300
0000
0000
0000
0000
0000
0000
2002
0000
0000
0000
0000
0000
0000
0000
0000
0000
0000
0000
0000
0000
0000
0000
0000
0000
0000
0000
0000
0000
0000
0000
,
0000
0000
0000
3003
,
0000
0000
0000
0000
;

//---------------dance-double - ----------------
#NOTEDATA:;
#CHARTNAME:;
#STEPSTYPE:dance-double;
#DESCRIPTION:;
#CHARTSTYLE:;
#DIFFICULTY:Easy;
#METER:9;
#RADARVALUES:0.346204,0.434408,0.210367,0.151464,0.000000,288.000000,263.000000,25.000000,18.000000,0.000000,0.000000,0.000000,0.000000,0.000000,0.346204,0.434408,0.210367,0.151464,0.000000,288.000000,263.000000,25.000000,18.000000,0.000000,0.000000,0.000000,0.000000,0.000000;
#CREDIT:;
#DISPLAYBPM:128.000000:175.000000;
#NOTES:
00000000
00000000
00000000
00000000
,
00000000
00000000
00000000
00000000
,
00000000
00000000
00000000
00000000
,
00000000
00000000
00000000
00000000
,
00000000
00000000
00000000
00000000
,
00000000
00000000
00000000
00000000
,
00000000
00000000
00000000
00000000
,
00000000
00000000
00000000
00000000
,
00000000
00000000
00000000
00000000
,
10000000
01000000
10000000
01000000
,
00100000
00000000
00010000
00000000
00100000
00001000
00100000
00000000
,
00001000
00010000
00001000
00010000
,
00000100
00000000
00001000
00000000
00000100
00001000
00000100
00000000
,
00000010
00000001
00000100
00000010
,
00001000
00000100
00010000
00001000
,
00100000
00010000
01000000
00100000
,
10000000
00010000
00110000
00000000
,
00100000
00100000
00001000
00001000
,
00010000
00001000
00022000
00033000
,
00010000
00000000
00000100
00000000
00001000
00000010
00001000
00000000
,
00000001
00000000
00000100
00000000
00000010
00000100
00000010
00000000
,
00000100
00000000
00001000
00000000
00010000
00001000
00010000
00000000
,
00001000
00001000
00010000
00010000
,
01000000
00000000
10000000
00000000
00010000
00100000
00010000
00000000
,
01000000
00000000
00100000
00000000
01000000
00001000
01000000
00000000
,
00001000
00000000
00010000
00000000
00000010
00001000
00000010
00000000
,
00000220
00000000
00000000
00000330
,
00001000
00000000
00000010
00000000
00000100
00000001
00000100
00000000
,
00000010
00000000
00010000
00000000
00001000
00010000
00001000
00000000
,
00100000
00000000
00010000
00000000
01000000
00010000
01000000
00000000
,
00200000
00000000
00000000
00300000
,
01100000
00000000
10000000
00000000
01000000
00100000
00010000
00000000
,
00100000
00001000
00100000
00001000
00010000
00000000
00000000
00000000
,
00011000
00000000
00010000
00000000
00000010
00001000
00000100
00000000
,
00000010
00000001
00000010
00000001
00000010
00000000
00000000
00000000
,
00000011
00000000
00000001
00000100
00000001
00000000
00000000
00000000
,
00001100
00000000
00000100
00010000
00000100
00000000
00000000
00000000
,
00010000
00010000
00001000
00001000
,
00100000
00100000
00100000
00000000
,
01100000
11000000
00000000
00110000
,
00000000
00101000
00000000
00011000
,
00010010
00000000
00001010
00000000
,
00000110
00000000
00001001
00000011
,
00000000
00000110
00000000
00010100
,
00000000
00000000
00011000
00000000
00001000
00100000
00010000
00000000
,
00100000
01000000
10000000
00000000
00010000
00000000
00000000
00000000
,
00000000
00000000
00000000
00000000
,
00000000
00000000
00000000
00010000
,
00100000
00010000
00100000
00001000
,
00010000
00000000
00000010
00001000
,
00000010
00000100
00000001
00001000
,
00000001
00000002
00000000
00000003
,
00000001
00000000
00000100
00000010
00000100
00000000
00001000
00000000
,
00010000
00000000
00001000
00010000
00001000
00000000
01000000
00010000
,
01000000
00000000
00100000
10000000
00100000
00000000
10000000
01000000
,
00100000
00000000
00001000
00010000
00001000
00010000
00001000
00000000
,
00000000
00011000
00011000
00000100
,
00001000
00000000
00000010
00001000
00000010
00000000
00000100
00000001
,
00000100
00000000
00000001
00001000
00000001
00000000
00000010
00000000
,
00000100
00000000
00010000
00000100
00010000
00000000
00002000
00000000
,
02003000
03020000
00230000
01300000
,
10000000
00000000
00100000
01000000
00100000
00000000
00010000
00001000
,
00010000
00000000
00000100
00000010
00000100
00000000
00001000
00000000
,
00000001
00000000
00000100
00000010
00001000
00000000
00000100
00010000
,
00001000
00022000
00000000
00033000
,
00001000
00010000
00010000
00100000
,
01000000
00100000
01100000
10000000
,
20000000
30010000
00020000
00130000
,
00001000
00000000
00010000
00001000
00020000
00000000
00030100
00000000
,
00000100
00000000
00001000
00000010
00000100
00000000
00000001
00000100
,
00000010
00000000
00001000
00000100
00020000
00000000
00031000
00000000
,
00001000
00000000
01000000
00010000
00100000
00000000
01000000
10000000
,
00100000
00010000
00001000
00022000
,
00000000
00000000
00000000
00033000
,
00000000
00000000
00000000
00000000
;

//---------------dance-double - ----------------
#NOTEDATA:;
#CHARTNAME:;
#STEPSTYPE:dance-double;
#DESCRIPTION:;
#CHARTSTYLE:;
#DIFFICULTY:Medium;
#METER:12;
#RADARVALUES:0.468818,0.713670,0.361831,0.454392,0.252440,390.000000,347.000000,43.000000,54.000000,0.000000,0.000000,0.000000,0.000000,0.000000,0.468818,0.713670,0.361831,0.454392,0.252440,390.000000,347.000000,43.000000,54.000000,0.000000,0.000000,0.000000,0.000000,0.000000;
#CREDIT:;
#DISPLAYBPM:128.000000:175.000000;
#NOTES:
00000000
00000000
00000000
00000000
,
00000000
00000000
00000000
00000000
,
00000000
00000000
00000000
00000000
,
00000000
00000000
00000000
00000000
,
00000000
00000000
00000000
00000000
,
00000000
00000000
00000000
00000000
,
00000000
00000000
00000000
00000000
,
00000000
00000000
00000000
00000000
,
00000000
00000000
00000000
00000000
,
00000001
00000000
00000010
00000000
00000001
00000100
00000001
00000000
,
00000100
00001000
00010000
00010000
,
00100000
00000000
10000000
00000000
01000000
10000000
01000000
00000000
,
10000000
01000000
00010000
00001000
,
00000010
00000010
00000001
00000101
,
00000100
00000100
00001000
00011000
,
00010000
00100000
00010000
00000000
00100000
10000000
00010000
01000000
,
00000000
00000000
00001000
00010000
00000000
00001000
00000000
00000000
00010000
00000000
00000000
00000000
00011000
00000000
00000000
00000000
,
00001000
00010000
00100000
10000000
,
02000000
03000000
00000000
00000000
00000000
00000000
00000000
00000000
00000000
00000000
00000000
00000000
00000000
00000000
00000000
00000000
02000000
03000000
00000000
00000000
00000000
00000000
00000000
00000000
00000000
00000000
00000000
00000000
00000000
00000000
00000000
00000000
02000000
03000000
00000000
00000000
00000000
00000000
00000000
00000000
00000000
00000000
00000000
00000000
00000000
00000000
00000000
00000000
10010000
00000000
00000000
00000000
00000000
00000000
00000000
00000000
00000000
00000000
00000000
00000000
00000000
00000000
00000000
00000000
,
00100000
00000000
00000000
00000000
00101000
00000000
00000000
00010000
00000000
00001000
00010000
00000000
00001000
00000000
00000000
00000000
,
00000010
00000000
00000000
00000000
00000110
00000000
00000000
00001000
00000000
00000001
00001000
00000000
00000001
00000000
00000000
00000000
,
00000100
00000000
00000000
00000000
00001010
00000000
00000000
00000100
00000000
00010000
00000100
00000000
00010000
00000000
00000000
00000000
,
00001000
00000000
00001000
00010000
00000000
00010000
00001000
00000000
00001000
00010000
00000000
00000000
,
00001000
00000000
00000000
00000000
01010000
00000000
00000000
00100000
00000000
10000000
00100000
00000000
10000000
00000000
00000000
00000000
,
01000000
00000000
00000000
00000000
00110000
00000000
00000000
00001000
00000000
00010000
00001000
00000000
00010000
00000000
00000000
00000000
,
00001000
00000010
00000001
00000000
00000001
00000100
00001000
00000000
,
00020000
00030000
00000000
00000000
00000000
00000000
00000000
00000000
00000000
00000000
00000000
00000000
00000000
00000000
00000000
00000000
00002000
00003000
00000000
00000000
00000000
00000000
00000000
00000000
00000000
00000000
00000000
00000000
00000000
00000000
00000000
00000000
00020000
00030000
00000000
00000000
00000000
00000000
00000000
00000000
00000000
00000000
00000000
00000000
00000000
00000000
00000000
00000000
00011000
00000000
00000000
00000000
00000000
00000000
00000000
00000000
00000000
00000000
00000000
00000000
00000000
00000000
00000000
00000000
,
00100000
00000000
00000000
00000000
01010000
00000000
00000000
00100000
00000000
10000000
01000000
00000000
00100000
00000000
00000000
00000000
,
00001000
00000000
00000000
00000000
00011000
00000000
00000000
00000100
00000000
00001000
00000010
00000000
00000100
00000000
00000000
00000000
,
00000001
00000010
00001000
00000000
00010000
01000000
10000000
00000000
,
00200000
00300000
00000000
00000000
00000000
00000000
00000000
00000000
00000000
00000000
00000000
00000000
00000000
00000000
00000000
00000000
00200000
00300000
00000000
00000000
00000000
00000000
00000000
00000000
00000000
00000000
00000000
00000000
00000000
00000000
00000000
00000000
00200000
00000000
00000000
00000000
00000000
00000000
00000000
00000000
00000000
00000000
00000000
00000000
00000000
00000000
00000000
00000000
00300000
00000000
00000000
00000000
00000000
00000000
00000000
00000000
00000000
00000000
00000000
00000000
00000000
00000000
00000000
00000000
,
02200000
03300000
00000000
00000000
00000000
00000000
00000000
00000000
00000000
00000000
00000000
00000000
00000000
00000000
00000000
00000000
10010000
00000000
00000000
00000000
00000000
00000000
00000000
00000000
00000000
00000000
00000000
00000000
00000000
00000000
00000000
00000000
10000000
00000000
00000000
00000000
00000000
00000000
00000000
00000000
01000000
00000000
00000000
00000000
00000000
00000000
00000000
00000000
00010000
00000000
00000000
00000000
00000000
00000000
00000000
00000000
00000000
00000000
00000000
00000000
00000000
00000000
00000000
00000000
,
01000000
00010000
00001000
00000000
00010000
00001000
00010000
00000000
,
00022000
00033000
00000000
00000000
00000000
00000000
00000000
00000000
00000000
00000000
00000000
00000000
00000000
00000000
00000000
00000000
00001000
00000000
00000000
00000000
00000000
00000000
00000000
00000000
00000010
00000000
00000000
00000000
00000000
00000000
00000000
00000000
00000001
00000000
00000000
00000000
00000000
00000000
00000000
00000000
00000010
00000000
00000000
00000000
00000000
00000000
00000000
00000000
00000001
00000000
00000000
00000000
00000000
00000000
00000000
00000000
00000000
00000000
00000000
00000000
00000000
00000000
00000000
00000000
,
00000100
00000010
00001000
00000010
00000200
00000000
00000300
00000000
,
00000110
00001000
00011000
01000000
,
01100000
00000000
00000000
00000000
00000000
00000000
00000000
00000000
00000000
00000000
00000000
00000000
00000000
00000000
00000000
00000000
10000000
00000000
00000000
00000000
00000000
00000000
00000000
00000000
00000000
00000000
00000000
00000000
00000000
00000000
00000000
00000000
01000000
00000000
00000000
00000000
00000000
00000000
00000000
00000000
00100000
00000000
00000000
00000000
00000000
00000000
00000000
00000000
00002000
00003000
00000000
00000000
00000000
00000000
00000000
00000000
00000000
00000000
00000000
00000000
00000000
00000000
00000000
00000000
,
00010000
00000000
00010000
00001000
00000000
00001000
00010000
00000000
00010000
00000100
00000000
00000100
,
00002000
00003000
00000000
00000000
00000000
00000000
00000000
00000000
00000000
00000000
00000000
00000000
00000000
00000000
00000000
00000000
00000020
00000030
00000000
00000000
00000000
00000000
00000000
00000000
00000000
00000000
00000000
00000000
00000000
00000000
00000000
00000000
00000100
00000000
00000000
00000000
00000000
00000000
00000000
00000000
00000000
00000000
00000000
00000000
00000000
00000000
00000000
00000000
00000000
00000000
00000000
00000000
00000000
00000000
00000000
00000000
00000000
00000000
00000000
00000000
00000000
00000000
00000000
00000000
,
00002200
00000000
00000000
00000000
00003300
00000000
00000000
00000000
00000000
00000000
00000000
00000000
00000000
00000000
00000000
00000000
01010000
00000000
00000000
00000000
00000000
00000000
00000000
00000000
00000000
00000000
00000000
00000000
00000000
00000000
00000000
00000000
00000200
00000300
00000000
00000000
00000000
00000000
00000000
00000000
00000000
00000000
00000000
00000000
00000000
00000000
00000000
00000000
00001100
00000000
00000000
00000000
00000000
00000000
00000000
00000000
00000000
00000000
00000000
00000000
00000000
00000000
00000000
00000000
,
02000000
03000000
00000000
00000000
00000000
00000000
00000000
00000000
00000000
00000000
00000000
00000000
00000000
00000000
00000000
00000000
01010000
00000000
00000000
00000000
00000000
00000000
00000000
00000000
00000000
00000000
00000000
00000000
00000000
00000000
00000000
00000000
00000200
00000300
00000000
00000000
00000000
00000000
00000000
00000000
00000000
00000000
00000000
00000000
00000000
00000000
00000000
00000000
00002200
00000000
00000000
00000000
00003300
00000000
00000000
00000000
00000000
00000000
00000000
00000000
00000000
00000000
00000000
00000000
,
00001010
00000000
00000000
00000000
00000000
00000000
00000000
00000000
00000000
00000000
00000000
00000000
00000000
00000000
00000000
00000000
00200000
00300000
00000000
00000000
00000000
00000000
00000000
00000000
00000000
00000000
00000000
00000000
00000000
00000000
00000000
00000000
00110000
00000000
00000000
00000000
00000000
00000000
00000000
00000000
00000000
00000000
00000000
00000000
00000000
00000000
00000000
00000000
00000020
00000030
00000000
00000000
00000000
00000000
00000000
00000000
00000000
00000000
00000000
00000000
00000000
00000000
00000000
00000000
,
00001010
00000000
00000000
00000000
00000000
00000000
00000000
00000000
00000000
00000000
00000000
00000000
00000000
00000000
00000000
00000000
00200000
00300000
00000000
00000000
00000000
00000000
00000000
00000000
00000000
00000000
00000000
00000000
00000000
00000000
00000000
00000000
00220000
00000000
00000000
00000000
00330000
00000000
00000000
00000000
00000000
00000000
00000000
00000000
00000000
00000000
00000000
00000000
01100000
00000000
00000000
00000000
00000000
00000000
00000000
00000000
00000000
00000000
00000000
00000000
00000000
00000000
00000000
00000000
,
00000000
00011000
00000000
00000110
,
00000000
00000000
00000000
00000000
00002002
00003003
00000000
00000000
00000001
00000000
00000000
00000100
00000001
00000000
00001000
00000000
,
00000100
00010000
00001000
00100000
00010000
00000000
00000000
00000000
,
00000000
00000000
00000000
00000000
,
00000000
00000000
00010000
00100000
,
00010000
00000000
10000000
01000000
,
10000000
00000000
01000000
00010000
,
00001000
00000000
00010000
00001000
,
00000010
00000100
00000020
00000000
00000000
00000000
00000031
00000100
,
00000001
00000000
00001000
00000100
00001000
00000000
00000010
00010000
,
00000010
00000000
00010000
00001000
00010000
00000000
00001000
00100000
,
00010000
00000000
10000000
01000000
00100000
00000000
00010000
00100000
,
00001000
00000000
00010000
00000000
00000100
00000000
00001000
00000000
00000010
00000100
00000001
00000100
00000010
00000000
00000000
00000000
,
00000000
00000000
00000200
00000300
00001001
00000000
00000010
00001000
,
00000100
00001000
00000000
00000000
00000100
00010000
00000000
00001000
00000000
00001000
00000000
00000000
00100000
00010000
00000000
01000000
,
00000000
01000000
00000000
00000000
00100000
10000000
00000000
00010000
00000000
10000000
00000000
00000000
10000000
00000000
01000000
00000000
,
00100000
00010000
00000000
00000000
00100000
00001000
00000000
00010000
00000000
00010000
00000000
00000200
00000000
00000000
00000001
00000000
,
00000000
00000000
00001300
00000001
00000000
00000100
00000000
00000010
00000000
00000100
00001000
00000000
00000000
00000000
00011000
00000000
,
00000000
00110000
00000000
10100000
00000000
11000000
00000000
01010000
,
00000000
00011000
00000000
00001010
00000000
00000011
00000001
00000100
,
00000010
00001010
00000100
00010000
00001000
00011000
00100000
00010000
,
01000000
00100000
20000000
00000000
30020000
00000000
00230000
00000000
,
00000000
00302000
00000000
00013000
,
00001000
00000000
00010000
00001000
00011000
00000000
00001000
00010000
,
00000020
00000030
00000000
00000000
00020000
00030000
00000000
00000000
00000020
00000030
00000000
00000000
00002000
00003000
00000000
00000000
00000200
00000300
00000000
00000000
00002000
00003000
00000000
00000000
00000020
00000000
00000000
00000000
00000000
00000000
00000000
00000000
00000000
00000000
00000000
00000000
00000130
00000000
00000000
00000000
00000000
00000000
00000001
00000000
00000000
00000000
00000000
00000000
,
00001000
00000010
00010000
00001000
02000000
00000000
03100000
00100000
,
10000000
01000000
10000000
00000000
00010000
00000000
00010000
00000000
01000000
00010000
01000000
00000000
00010000
00000000
00010000
00000000
,
00100000
00001000
00100000
00000000
00001000
00000000
00010000
00000000
00000200
00000000
00000000
00000000
00000310
00000000
00000001
00000000
,
00000100
00000010
00001000
00000000
00000100
00000000
00010000
00000000
00001000
00010000
01000000
00000000
10000000
00100000
01000000
00000000
,
00010000
00000000
00000000
00100000
00000000
00000000
00001000
00000000
00000000
00000000
00000000
00000000
00020000
00030000
00000000
00000000
00000200
00000300
00000000
00000000
00002000
00003000
00000000
00000000
00000200
00000300
00000000
00000000
00000020
00000030
00000000
00000000
00000002
00000003
00000000
00000000
00002000
00000000
00000000
00000000
00000000
00000000
00000000
00000000
00000000
00000000
00000000
00000000
,
00000000
00000000
00000000
00003000
,
00000000
00000000
00000000
00000000
;

//---------------dance-double - ----------------
#NOTEDATA:;
#CHARTNAME:;
#STEPSTYPE:dance-double;
#DESCRIPTION:;
#CHARTSTYLE:;
#DIFFICULTY:Hard;
#METER:16;
#RADARVALUES:0.601048,0.837786,0.126220,0.563783,0.584820,500.000000,485.000000,15.000000,67.000000,0.000000,0.000000,0.000000,0.000000,0.000000,0.601048,0.837786,0.126220,0.563783,0.584820,500.000000,485.000000,15.000000,67.000000,0.000000,0.000000,0.000000,0.000000,0.000000;
#CREDIT:;
#DISPLAYBPM:128.000000:175.000000;
#NOTES:
00000000
00000000
00000000
00000000
,
00000000
00000000
00000000
00000000
,
00000000
00000000
00000000
00000000
,
00000000
00000000
00000000
00000000
,
00000000
00000000
00000000
00000000
,
00000000
00000000
00000000
00000000
,
00000000
00000000
00000000
00000000
,
00000000
00000000
00000000
00000000
,
00000000
00000000
00000000
00000000
,
10000000
00000000
01000000
00100000
00000000
00010000
00000000
00100000
01000000
00000000
00100000
00000000
00010000
00000000
00000000
00000000
,
00001000
00000000
00000010
00000100
00000000
00000010
00000000
00001000
00000001
00000000
00000001
00000000
00000100
00000000
00000000
00000000
,
00000010
00000000
00000100
00001000
00000000
00010000
00000000
00001000
00100000
00000000
00010000
00000000
01000000
00000000
00000000
00000000
,
10000000
00000000
01000000
00100000
00000000
10000000
00000000
00010000
10000000
00000000
00100000
00000000
00010000
00000000
00000000
00000000
,
00001000
00000100
00000001
00000000
00000001
00000010
00001000
00000000
,
00010000
01000000
10000000
00000000
10000000
00100000
00010000
00000000
,
00001000
00000000
00000100
00000001
00000010
00000000
00000100
00001000
00000100
00010000
00001000
00100000
00010000
01000000
00100000
10000000
,
00000000
00000000
01000000
00100000
00000000
00100000
00000000
00001000
00010000
00000000
00010000
00000000
00011000
00000000
00000000
00000000
,
00001000
00000010
00000001
00001000
,
00002000
00003000
00000000
00000000
00000000
00000000
00000000
00000000
00000000
00000000
00000000
00000000
00000000
00000000
00000000
00000000
00020000
00030000
00000000
00000000
00000000
00000000
00000000
00000000
00000000
00000000
00000000
00000000
00000000
00000000
00000000
00000000
20000000
30000000
00000000
00000000
00000000
00000000
00000000
00000000
00000000
00000000
00000000
00000000
00000000
00000000
00000000
00000000
10010000
00000000
00000000
00000000
00000000
00000000
00000000
00000000
00000000
00000000
00000000
00000000
00000000
00000000
00000000
00000000
,
00100000
10000000
01000000
00010000
00001000
00010000
00100000
01000000
,
00100000
00010000
00001000
00000010
00000100
00010000
00001000
00000100
,
00000001
00000010
00001000
00010000
00001000
00000100
00000001
00000010
,
00000001
00000000
00000000
00000000
00000000
00000000
00000000
00000000
00000001
00000000
00000000
00000000
00001000
00000000
00000000
00000000
00000000
00000000
00000000
00000000
00001000
00000000
00000000
00000000
00010000
00000000
00000000
00000000
00000000
00000000
00000000
00000000
00010000
00000000
00000000
00000000
10000000
00000000
00000000
00010000
00000000
00000000
10000000
00000000
00000000
00010000
00000000
00000000
,
10000000
01000000
00100000
00010000
01000000
00100000
00010000
00001000
,
00100000
00010000
00001000
00000100
00010000
00001000
00000100
00000010
,
00001000
00000000
00000000
00000000
00000000
00000000
00000100
00000000
00000000
00000000
00000000
00000000
00000010
00000000
00000000
00000000
00000001
00000000
00000000
00000000
00000010
00000000
00000000
00000000
00000001
00000000
00000000
00000000
00000000
00000000
00000100
00000000
00000000
00000000
00000000
00000000
00000010
00000000
00000000
00000100
00000000
00000000
00000010
00000000
00000000
00000100
00000000
00000000
,
00000020
00000030
00000000
00000000
00000000
00000000
00000000
00000000
00000000
00000000
00000000
00000000
00000000
00000000
00000000
00000000
00002000
00003000
00000000
00000000
00000000
00000000
00000000
00000000
00000000
00000000
00000000
00000000
00000000
00000000
00000000
00000000
00020000
00030000
00000000
00000000
00000000
00000000
00000000
00000000
00000000
00000000
00000000
00000000
00000000
00000000
00000000
00000000
01100000
00000000
00000000
00000000
00000000
00000000
00000000
00000000
00000000
00000000
00000000
00000000
00000000
00000000
00000000
00000000
,
01000000
00010000
00100000
01000000
00010000
00000100
00001000
00000010
,
00000100
00001000
00010000
00100000
01000000
00100000
00010000
00001000
,
00000010
00000000
00000000
00000000
00000000
00000000
00000001
00000000
00000000
00000000
00000000
00000000
00000100
00000000
00000000
00000000
00000010
00000000
00000000
00000000
00001000
00000000
00000000
00000000
00000100
00000000
00000000
00000000
00000000
00000000
00000010
00000000
00000000
00000001
00000000
00000000
00000010
00000000
00000000
00000000
00000000
00000000
00000001
00000000
00000000
00001000
00000000
00000000
,
00000002
00000003
00000000
00000000
00000000
00000000
00000000
00000000
00000000
00000000
00000000
00000000
00000000
00000000
00000000
00000000
00002000
00003000
00000000
00000000
00000000
00000000
00000000
00000000
00000000
00000000
00000000
00000000
00000000
00000000
00000000
00000000
00020000
00030000
00000000
00000000
00000000
00000000
00000000
00000000
00000000
00000000
00000000
00000000
00000000
00000000
00000000
00000000
10000000
00000000
00000000
00000000
00000000
00000000
00000000
00000000
00000000
00000000
00000000
00000000
00000000
00000000
00000000
00000000
,
20020000
30030000
00000000
00000000
00000000
00000000
00000000
00000000
00000000
00000000
00000000
00000000
00000000
00000000
00000000
00000000
10000000
00000000
00000000
00000000
00000000
00000000
00000000
00000000
10000000
00000000
00000000
00000000
00000000
00000000
00000000
00000000
01000000
00000000
00000000
00000000
00000000
00000000
00000000
00000000
01000000
00000000
00000000
00000000
00000000
00000000
00000000
00000000
00010000
00000000
00000000
00000000
00000000
00000000
00000000
00000000
00010000
00000000
00000000
00000000
00001000
00000000
00000000
00000000
,
00010000
00000000
00001000
00000000
00000010
00000000
00000010
00000000
00000001
00000000
00000001
00000000
00001000
00000001
00001000
00000001
,
00002000
00003000
00000000
00000000
00000000
00000000
00000000
00000000
00000000
00000000
00000000
00000000
00000000
00000000
00000000
00000000
00000001
00000000
00000000
00000000
00000000
00000000
00000000
00000000
00000001
00000000
00000000
00000000
00000000
00000000
00000000
00000000
00000100
00000000
00000000
00000000
00000000
00000000
00000000
00000000
00000100
00000000
00000000
00000000
00000000
00000000
00000000
00000000
00001000
00000000
00000000
00000000
00000000
00000000
00000000
00000000
00001000
00000000
00000000
00000000
00010000
00000000
00000000
00000000
,
00001000
00000000
00000000
00000000
00000000
00000000
00000000
00000000
00010000
00000000
00000000
00000000
00000000
00000000
00000000
00000000
00100000
00000000
00000000
00000000
00000000
00000000
00000000
00000000
00100000
00000000
00000000
00000000
00000000
00000000
00000000
00000000
01000000
00000000
00000000
00000000
00100000
00000000
00000000
00000000
01000000
00000000
00000000
00000000
00100000
00000000
00000000
00000000
02000000
03000000
00000000
00000000
00000000
00000000
00000000
00000000
00000000
00000000
00000000
00000000
00000000
00000000
00000000
00000000
,
00100000
00000000
10000000
00000000
00010000
00100000
00000000
00001000
00000000
00010000
00000000
00000010
00001000
00000000
00000001
00000000
,
00001000
00000000
00000000
00000000
00000000
00000000
00000000
00000000
00000100
00000000
00000000
00000000
00000000
00000000
00000000
00000000
00010000
00000000
00000000
00000000
00001000
00000000
00000000
00000000
00000000
00000000
00000000
00000000
01000000
00000000
00000000
00000000
00000000
00000000
00000000
00000000
00010000
00000000
00000000
00000000
00000000
00000000
00000000
00000000
10000000
00000000
00000000
00000000
02000000
03000000
00000000
00000000
00000000
00000000
00000000
00000000
00000000
00000000
00000000
00000000
00000000
00000000
00000000
00000000
,
10000000
00000000
10000000
00010000
00000000
00010000
00001000
00000000
00001000
00000001
00000000
00000000
,
00000220
00000330
00000000
00000000
00000000
00000000
00000000
00000000
00000000
00000000
00000000
00000000
00000000
00000000
00000000
00000000
00002000
00003000
00000000
00000000
00000000
00000000
00000000
00000000
00000000
00000000
00000000
00000000
00000000
00000000
00000000
00000000
00020000
00000000
00000000
00000000
00000000
00000000
00000000
00000000
00000000
00000000
00000000
00000000
00000000
00000000
00000000
00000000
00000000
00000000
00000000
00000000
00000000
00000000
00000000
00000000
00000000
00000000
00000000
00000000
00000000
00000000
00000000
00000000
,
02000000
00000000
00000000
00000000
03030000
00000000
00000000
00000000
00000000
00000000
00000000
00000000
00000000
00000000
00000000
00000000
01100000
00000000
00000000
00000000
00000000
00000000
00000000
00000000
00000000
00000000
00000000
00000000
10000000
00000000
00000000
00000000
00200000
00300000
00000000
00000000
00000000
00000000
00000000
00000000
00000000
00000000
00000000
00000000
00000000
00000000
00000000
00000000
01100000
00000000
00000000
00000000
00000000
00000000
00000000
00000000
00000000
00000000
00000000
00000000
00010000
00000000
00000000
00000000
,
00200000
00300000
00000000
00000000
00000000
00000000
00000000
00000000
00000000
00000000
00000000
00000000
00000000
00000000
00000000
00000000
00011000
00000000
00000000
00000000
00000000
00000000
00000000
00000000
00000000
00000000
00000000
00000000
00000100
00000000
00000000
00000000
00002000
00003000
00000000
00000000
00000000
00000000
00000000
00000000
00000000
00000000
00000000
00000000
00000000
00000000
00000000
00000000
00000020
00000000
00000000
00000000
00000030
00000000
00000000
00000000
00000000
00000000
00000000
00000000
00000000
00000000
00000000
00000000
,
00000110
00000000
00000000
00000000
00000000
00000000
00000000
00000000
00000000
00000000
00000000
00000000
00000001
00000000
00000000
00000000
00000200
00000300
00000000
00000000
00000000
00000000
00000000
00000000
00000000
00000000
00000000
00000000
00000000
00000000
00000000
00000000
00001010
00000000
00000000
00000000
00000000
00000000
00000000
00000000
00000000
00000000
00000000
00000000
00000010
00000000
00000000
00000000
00020000
00030000
00000000
00000000
00000000
00000000
00000000
00000000
00000000
00000000
00000000
00000000
00000000
00000000
00000000
00000000
,
00011000
00000000
00000000
00000000
00000000
00000000
00000000
00000000
00000000
00000000
00000000
00000000
00000000
00000000
00000000
00000000
00000000
00000000
00000000
00000000
00000000
00000000
00000000
00000000
00000000
00000000
00000000
00000000
00000000
00000000
00000000
00000000
00000000
00000000
00000000
00000000
01000000
00000000
00000000
00000000
00000000
00000000
00000000
00000000
00000000
00000000
00000000
00000000
00020000
00000000
00000000
00030000
00000000
00000000
00000000
00000000
00000000
00000000
00000000
00000000
00000000
00000000
00000000
00000000
00000000
00000000
00000000
00000000
00000000
00000000
00000000
00000000
00000000
00000000
00000000
00000000
00000000
00000000
00000000
00000000
00000000
00000000
00000000
00000000
00000000
00000000
00000000
00000000
00000000
00000000
00000000
00000000
00000000
00000000
00000000
00000000
00200000
00000000
00000000
00000000
00000000
00000000
00000000
00000000
00000000
00000000
00000000
00000000
00300000
00000000
00000000
00000000
00000000
00000000
00000000
00000000
00000000
00000000
00000000
00000000
00000000
00000000
00000000
00000000
00000000
00000000
00000000
00000000
00000000
00000000
00000000
00000000
00000000
00000000
00000000
00000000
00000000
00000000
00000000
00000000
00000000
00000000
00000000
00000000
01000000
00000000
00000000
00000000
00000000
00000000
00000000
00000000
00000000
00000000
00000000
00000000
00000000
00000000
00000000
00000000
00000000
00000000
00000000
00000000
00000000
00000000
00000000
00000000
00000000
00000000
00000000
00000000
00000000
00000000
00000000
00000000
10000000
00000000
00000000
00000000
00000000
00000000
00000000
00000000
00000000
00000000
00000000
00000000
00000000
00000000
00000000
00000000
,
00000000
00000000
00000000
00000000
00200000
00300000
00000000
00000000
00000000
00000000
00000000
00000000
00010000
00000000
00000000
00000000
00000000
00000000
00000000
00000000
00001000
00000000
00000000
00000000
00000000
00000000
00000000
00000000
00000200
00000300
00000000
00000000
00000000
00000000
00000000
00000000
00000001
00000000
00000000
00000000
00000000
00000000
00000000
00000000
00000010
00000000
00000000
00000000
,
00000000
00000000
00000000
00000000
00001000
00000000
00000000
00000000
00010000
00000000
00000000
00000000
00002000
00000000
00000000
00003000
00000000
00000000
00000000
00000000
00000000
00000000
00000000
00000000
00010000
00000000
00000000
00000000
00000000
00000000
00000000
00000000
00000000
00010000
00000000
00000000
00001000
00000000
00000000
00000000
00000000
00000000
01000000
00000000
00000000
00000000
00000000
00000000
,
00010000
00100000
01000000
00000000
10000000
00100000
01000000
00010000
01000000
00000000
00000000
00000000
00000000
00000000
00000000
00000000
,
00000000
00000000
00000000
00000000
,
00000000
00000000
01000000
01000000
,
00100000
00100000
00010000
00010000
,
00001000
00010000
00001000
00000000
00000010
00000000
00000010
00000000
,
00000100
00000100
00010000
00010000
,
00001000
00010000
00002000
00000000
00000000
00000000
00013000
00001000
,
00010000
00000100
00001000
00000010
00000100
00000000
00000001
00000010
,
00000001
00000000
00000100
00000000
00000010
00000000
00001000
00000000
00000100
00000000
00000000
00000000
00001000
00000100
00010000
00000000
,
00001000
00000000
00100000
00000000
00010000
01000000
00100000
00000000
01000000
00000000
00010000
00000000
10000000
01000000
10000000
00100000
,
01000000
00010000
00100000
00001000
00010000
00000100
00001000
00000010
00000100
00000001
00001000
00000100
00000010
00000000
00000000
00000000
,
00000000
00000000
00000000
00000000
00000000
00000000
00000000
00000000
00000000
00000000
00000000
00000000
00000000
00000000
00000000
00000000
00000002
00000003
00000000
00000000
00000000
00000000
00000000
00000000
00002000
00003000
00000000
00000000
00000000
00000000
00000000
00000000
00001100
00000000
00000000
00000000
00000000
00000000
00000000
00000000
00000000
00000000
00000000
00000000
00000000
00000000
00000000
00000000
00000100
00000000
00000000
00000000
00000000
00000000
00000000
00000000
00001000
00000000
00000000
00000000
00000000
00000000
00000000
00000000
,
00000100
00000001
00000000
00000001
00000100
00010000
00000000
00001000
00000000
00001000
00000000
00000000
00010000
00001000
00000000
00010000
,
00000000
00100000
00000000
00000000
00001000
00100000
00000000
10000000
00000000
10000000
00000000
00000000
01000000
00000000
00100000
00000000
,
10000000
00100000
00000000
00100000
00001000
00010000
00000000
00000100
00000000
00001000
00000000
00000020
00000000
00000000
00000001
00000000
,
00000000
00000000
00001030
00000010
00000000
00000100
00000000
00001000
00000000
00010000
00001000
00000000
00010000
00000000
00100000
00000000
,
01000000
00100000
00000000
00100000
10000000
00000000
01000000
00000000
00100000
00001000
00000000
00001000
00010000
00000000
00000010
00000000
,
00001000
00000100
00000000
00000100
00000010
00000001
00000000
00000100
00000000
00000110
00000000
00000000
00000001
00000000
00000100
00000000
,
00001000
00000000
00000100
00000000
00001000
00000000
00010000
00000000
00001000
00000000
00010000
00000000
00100000
10000000
01000000
00000000
,
00100000
00000000
00000000
00000000
00000000
00000000
00010000
00000000
00000000
00000000
00000000
00000000
01000000
00000000
00000000
00000000
00000000
00000000
00000000
00000000
00000000
00000000
00000000
00000000
00200000
00300000
00000000
00000000
00000000
00000000
00000000
00000000
00020000
00030000
00000000
00000000
00000000
00000000
00000000
00000000
00002000
00003000
00000000
00000000
00000000
00000000
00000000
00000000
00000200
00000300
00000000
00000000
00000000
00000000
00000000
00000000
00000002
00000003
00000000
00000000
00000000
00000000
00000000
00000000
00000020
00000030
00000000
00000000
00000000
00000000
00000000
00000000
00002000
00000000
00000000
00000000
00000000
00000000
00000000
00000000
00000000
00000000
00000000
00000000
00000000
00000000
00000000
00000000
00000000
00000000
00000000
00000000
00000000
00000000
00000000
00000000
,
00010000
00000100
01003000
00100000
,
00100000
00000000
01000000
00100000
10010000
00000000
00100000
00100000
,
20000000
00000000
30000000
00000000
00000000
00000000
00000000
00000000
00000000
00000000
00000000
00000000
00000000
00000000
00000000
00000000
02000000
00000000
03000000
00000000
00000000
00000000
00000000
00000000
00000000
00000000
00000000
00000000
00000000
00000000
00000000
00000000
00020000
00000000
00030000
00000000
00000000
00000000
00000000
00000000
00000000
00000000
00000000
00000000
00000000
00000000
00000000
00000000
00002000
00000000
00003000
00000000
00000000
00000000
00000000
00000000
00000000
00000000
00000000
00000000
00000000
00000000
00000000
00000000
00000200
00000000
00000300
00000000
00000000
00000000
00000000
00000000
00000000
00000000
00000000
00000000
00000000
00000000
00000000
00000000
00000002
00000000
00000003
00000000
00000000
00000000
00000000
00000000
00000000
00000000
00000000
00000000
00000000
00000000
00000000
00000000
00000020
00000000
00000000
00000030
00000000
00000000
00000000
00000000
00000000
00000000
00000000
00000000
00002000
00000000
00000000
00003000
00000000
00000000
00000000
00000000
00000000
00000000
00000000
00000000
00020000
00000000
00000000
00030000
00000000
00000000
00000000
00000000
00000000
00000000
00000000
00000000
00002000
00000000
00000000
00003000
00000000
00000000
00000000
00000000
00000000
00000000
00000000
00000000
00010000
00000000
00000000
00000000
00000000
00000000
00000000
00000000
00000000
00000000
00000000
00000000
00000000
00000000
00000000
00000000
00000000
00000000
00000000
00000000
00000000
00000000
00000000
00000000
00001000
00000000
00000000
00000000
00000000
00000000
00000000
00000000
00000000
00000000
00000000
00000000
00000000
00000000
00000000
00000000
00000000
00000000
00000000
00000000
00000000
00000000
00000000
00000000
,
00100000
00000000
00000000
00000000
01000000
00000000
00000000
00000000
00000000
00000000
00000000
00000000
01000000
00000000
00000000
00000000
10000000
00000000
00000000
00000000
00000000
00000000
00000000
00000000
00100000
00000000
00000000
00000000
00000000
00000000
00000000
00000000
00020000
00030000
00000000
00000000
00002000
00003000
00000000
00000000
00020000
00030000
00000000
00000000
00002000
00003000
00000000
00000000
00010000
00000000
00000000
00000000
00000000
00000000
00000000
00000000
00001000
00000000
00000000
00000000
00000000
00000000
00000000
00000000
,
00000010
00000001
00000000
00000001
00000100
00000000
00001000
00000000
00010000
00001000
00000000
00001000
00010000
00000000
00100000
00000000
,
10000000
00000000
00000000
00000000
01000000
00000000
00000000
00000000
00000000
00000000
00000000
00000000
01000000
00000000
00000000
00000000
00100000
00000000
00000000
00000000
00000000
00000000
00000000
00000000
00001000
00000000
00000000
00000000
00000000
00000000
00000000
00000000
00020000
00030000
00000000
00000000
00002000
00003000
00000000
00000000
00020000
00030000
00000000
00000000
00002000
00003000
00000000
00000000
00010000
00000000
00000000
00000000
00000000
00000000
00000000
00000000
01000000
00000000
00000000
00000000
00000000
00000000
00000000
00000000
,
00010000
00000000
00001000
00000000
00000010
00000000
00000100
00000000
00001000
00000001
00001000
00000000
00000001
00000100
00000010
00000000
,
00010000
00000000
00000000
00000000
00000000
00000000
00001000
00000000
00000000
00000000
00000000
00000000
01000000
00000000
00000000
00000000
00000000
00000000
00000000
00000000
00000000
00000000
00000000
00000000
00020000
00030000
00000000
00000000
00000000
00000000
00000000
00000000
00200000
00300000
00000000
00000000
00000000
00000000
00000000
00000000
00002000
00003000
00000000
00000000
00000000
00000000
00000000
00000000
00020000
00030000
00000000
00000000
00000000
00000000
00000000
00000000
00000020
00000030
00000000
00000000
00000000
00000000
00000000
00000000
00000200
00000300
00000000
00000000
00000000
00000000
00000000
00000000
00002020
00000000
00000000
00000000
00000000
00000000
00000000
00000000
00000000
00000000
00000000
00000000
00000000
00000000
00000000
00000000
00000000
00000000
00000000
00000000
00000000
00000000
00000000
00000000
,
00000000
00000000
00000000
00003030
,
00000000
00000000
00000000
00000000
;

//---------------dance-single - ----------------
#NOTEDATA:;
#CHARTNAME:;
#STEPSTYPE:dance-single;
#DESCRIPTION:;
#CHARTSTYLE:;
#DIFFICULTY:Challenge;
#METER:18;
#RADARVALUES:0.980911,1.272194,1.110737,0.302928,1.215921,816.000000,684.000000,132.000000,36.000000,0.000000,0.000000,0.000000,0.000000,0.000000,0.980911,1.272194,1.110737,0.302928,1.215921,816.000000,684.000000,132.000000,36.000000,0.000000,0.000000,0.000000,0.000000,0.000000;
#CREDIT:;
#DISPLAYBPM:128.000000:175.000000;
#NOTES:
// measure 0
0000
0000
0000
0000
,  // measure 1
0000
0000
0000
0000
,  // measure 2
0000
0000
0000
0000
,  // measure 3
0000
0000
0000
0000
,  // measure 4
0000
0000
0000
0000
,  // measure 5
0000
0000
0000
0000
,  // measure 6
0000
0000
0000
0000
,  // measure 7
0000
0000
0000
0000
,  // measure 8
0000
0000
0000
0000
,  // measure 9
0101
0000
0001
1000
0000
0010
0000
1000
0100
0000
0010
0000
0001
0000
1000
0200
,  // measure 10
0000
0000
1300
0100
1000
0000
0001
0100
0001
0000
0010
0000
0100
0000
0010
0000
,  // measure 11
1100
0000
0001
0100
0000
0010
0000
1000
0100
0000
1000
0000
0010
0000
0100
0002
,  // measure 12
0000
0000
1003
0010
1000
0000
0001
0010
0001
0000
0100
0000
0001
0100
0010
1000
,  // measure 13
0100
0000
1000
0010
0000
0100
0000
0001
0010
0000
0100
1000
0000
0001
0000
0010
,  // measure 14
0001
0000
1000
0100
0000
0010
0000
0100
1000
0000
0001
1000
0000
0001
0000
0010
,  // measure 15
0001
0100
0010
1000
0100
1000
0010
0100
0001
1000
0001
1000
0010
0100
0001
0010
,  // measure 16
0100
0000
1000
0001
0000
0100
0000
0010
1000
0000
0100
0000
0010
0000
0001
0000
,  // measure 17
0100
0010
1000
0001
1000
0010
0001
0010
1000
0001
0100
1000
0001
0100
0010
0100
,  // measure 18
0110
0000
1001
0000
0110
0000
0101
1100
,  // measure 19
1001
0000
0010
0100
0010
0000
1000
0100
0001
0100
1000
0001
0010
0000
0001
1000
,  // measure 20
0100
0000
0010
0001
0010
0000
0001
0100
1000
0100
0001
1000
0010
0100
0001
1000
,  // measure 21
0010
0000
1000
0001
1000
0000
0100
0001
0100
0010
0100
1000
0100
0000
0010
0001
,  // measure 22
1000
0000
0000
0000
1000
0000
0000
0000
1000
0000
0000
0000
0001
0000
0000
0000
0001
0000
0000
0000
0001
0000
0000
0000
0100
0000
0000
0000
0100
0000
0000
0000
0100
0000
0000
0000
0001
0000
0000
0010
0000
0000
0100
0000
0000
1000
0000
0000
,  // measure 23
1010
0000
0001
0010
0100
0000
1000
0001
0010
1000
0010
0100
0010
0000
0001
1000
,  // measure 24
0100
0000
1000
0010
0100
0000
0001
1000
0100
0001
0100
0010
0001
1000
0010
0100
,  // measure 25
0110
0000
0000
0000
0000
0000
0110
0000
0000
0000
0000
0000
0001
0000
0000
0000
0100
0000
0000
0000
1000
0000
0000
0000
1001
0000
0000
0000
0000
0000
1001
0000
0000
0000
0000
0000
0010
0000
0000
1000
0000
0000
0001
0000
0000
0100
0000
0000
,  // measure 26
0110
0000
0001
0000
0011
0000
1000
0000
1100
0000
0010
0000
1001
0100
0010
0100
,  // measure 27
1001
0000
0001
1000
0010
0000
1000
0100
0001
0100
0010
1000
0010
0000
0001
0100
,  // measure 28
0010
0000
1000
0001
0100
0000
0001
0010
1000
0010
0001
0100
0010
1000
0001
0100
,  // measure 29
0101
0000
0000
0000
0000
0000
0101
0000
0000
0000
0000
0000
0010
0000
0000
0000
0010
0000
0000
0000
0010
0000
0000
0000
1010
0000
0000
0000
0000
0000
1010
0000
0000
0000
0000
0000
1000
0000
0000
0001
0000
0000
1000
0000
0000
0100
0000
0000
,  // measure 30
1100
0000
1000
0000
1001
0000
0001
0000
0011
0000
0010
0000
0100
1000
0001
0100
,  // measure 31
0220
0000
0000
0330
0101
0000
0110
0000
1010
0000
1100
0000
1001
0000
1000
0001
,  // measure 32
0010
0000
0010
0000
0011
0000
1100
0000
0101
0000
0110
0000
1000
0100
0010
0001
,  // measure 33
2002
0000
0000
3003
1100
0000
0110
0000
0011
0000
1001
0000
0110
0000
1000
0100
,  // measure 34
0001
0000
0001
0000
0011
0000
0011
0000
1000
0001
0100
0010
0110
0000
0000
0000
,  // measure 35
1010
0000
1010
0000
0001
0001
0000
1000
0000
0100
0000
1000
0010
0000
1100
0000
,  // measure 36
1001
0000
0011
0000
0100
0100
0000
1000
0000
0001
0000
1000
0010
0000
0000
0000
,  // measure 37
0101
0000
0001
1100
0000
1000
0101
0000
0010
1000
0001
0100
,  // measure 38
0110
0000
1010
0000
0101
1000
0110
0000
,  // measure 39
2002
0000
0000
3003
2010
0001
0000
3100
1000
0000
0011
0000
1200
0001
0000
1300
,  // measure 40
0100
0000
0110
0000
0012
1000
0000
0013
0001
0000
1100
0000
2002
0000
0000
3003
,  // measure 41
0102
0010
0000
1003
0001
0000
1100
0000
0120
1000
0000
0130
0010
0000
0011
0000
,  // measure 42
2001
0000
0000
0100
0000
0000
0000
0000
0000
3010
0000
0000
1000
0000
0000
0000
0000
0000
0101
0000
0000
0000
0000
0000
0220
0000
0000
0000
0000
0000
0000
0000
0000
0330
0000
0000
1010
0000
0000
0000
0100
0000
0000
0000
0001
0000
0000
0000
,  // measure 43
1000
0010
0000
1001
1000
0001
0010
0100
0000
1000
0100
0001
,  // measure 44
1000
0000
0000
0000
0010
0000
0000
0000
0001
0000
0000
0000
0220
0000
0000
0000
0000
0000
0000
0000
0000
0330
0000
0000
0201
0000
0000
0010
0000
0000
0000
0000
0000
1300
0000
0000
0100
0000
0000
0000
0000
0000
0001
0000
0000
1000
0000
0000
,  // measure 45
0010
0000
0010
0000
1000
0100
0010
0001
2002
0000
0000
0000
0000
0000
0000
0000
,  // measure 46
0000
0000
0000
0000
,  // measure 47
0000
0000
0000
0000
0000
0003
0000
0000
3010
0000
1000
0001
0000
1000
0000
0100
,  // measure 48
0010
0001
0000
1000
0000
0100
0000
0000
1000
0010
0000
0100
0000
0001
0000
0000
,  // measure 49
0010
0001
0000
0100
0000
0010
0000
0000
1000
0000
0100
1000
0000
0001
0000
0010
,  // measure 50
0001
1000
0000
0001
0000
0100
0000
0020
0000
0000
0000
0000
0000
0000
0130
0010
,  // measure 51
0000
0000
0000
1000
0000
0000
0000
0000
0000
0001
0000
0000
1000
0000
0000
0000
0100
0000
0000
0000
0010
0000
0000
0000
0001
0000
0000
0000
0100
0000
0000
0000
0010
0000
0000
0000
1000
0000
0000
0000
0000
0000
0010
0000
0000
0100
0000
0000
,  // measure 52
0010
1000
0001
0010
0100
0000
1000
0010
0100
0001
0010
0100
1000
0000
0001
1000
,  // measure 53
0010
0100
0000
0100
0001
1000
0000
1100
0000
0101
0000
0100
0010
1000
0001
1000
,  // measure 54
0100
0001
0010
1000
0010
0100
0001
0100
1000
0001
0100
0010
1000
0010
0100
0001
,  // measure 55
0010
0001
0100
1000
0100
0010
0001
1000
0010
0001
1000
0100
0020
0000
0000
0000
,  // measure 56
0031
0000
0000
0000
0011
0000
0110
0000
2200
0000
0000
3300
1001
0000
0110
0000
,  // measure 57
1000
0100
0010
0001
0100
0010
1000
0001
0010
0100
1000
0000
0001
0100
0010
1000
,  // measure 58
0100
0010
0001
0000
1000
0001
0010
0001
0100
0010
1000
0000
1010
0000
0101
0000
,  // measure 59
0010
0100
1000
0001
1000
0010
0000
1001
0000
0101
0000
0021
1000
0000
0100
0000
,  // measure 60
1000
0000
0001
0031
0000
0010
0000
0001
0000
1000
0100
0000
1100
0000
0101
0000
,  // measure 61
0010
0001
1000
0100
1100
0000
0011
0000
0100
0010
1000
0001
0011
0000
1010
0000
,  // measure 62
1000
0100
0010
0001
0100
0010
1000
0001
0010
0100
1000
0000
1001
0000
0110
0000
,  // measure 63
1000
0010
0001
0100
0110
0000
1010
0000
0001
0010
1000
0100
1100
0000
1001
0000
,  // measure 64
0001
0000
0000
1000
0000
0000
0100
0000
0000
0010
0000
0000
0001
0000
0000
0000
0001
0000
0000
0000
0001
0000
0000
0000
1000
0000
0000
0000
1000
0000
0000
0000
1000
0000
0000
0000
1100
0000
0000
0000
0000
0000
0010
0000
0000
1000
0000
0000
,  // measure 65
0000
0100
0000
0010
0001
0000
0100
0000
0010
0000
1000
0001
0101
0000
0000
0000
,  // measure 66
1100
0000
0000
0000
0101
0000
1001
0000
2200
0000
0000
3300
0110
0000
0110
0000
,  // measure 67
0001
0000
0000
0000
0101
0000
0000
0000
0101
0000
0000
0000
1000
0000
0000
0000
1100
0000
0000
0000
1100
0000
0000
0000
0010
0000
0000
0010
0000
0000
0100
0000
0000
0100
0000
0000
0001
0000
0000
0000
0000
0000
0010
0000
0000
1000
0000
0000
,  // measure 68
0010
0100
0010
0001
0020
0000
0230
0000
1300
1000
0001
0001
0101
0000
1010
0000
,  // measure 69
0001
1000
0100
0010
0011
0000
1100
0000
0010
0100
0001
1000
1001
0000
0110
0000
,  // measure 70
1000
0100
0001
0010
1000
0001
0100
0010
0100
0100
0100
0100
1001
0000
0011
1000
,  // measure 71
0001
0100
0010
1000
1100
0000
0101
0010
0100
0001
1000
0100
1010
0000
0110
0001
,  // measure 72
1000
0000
0000
0001
0000
0000
0010
0000
0000
0100
0000
0000
1100
0000
0000
0000
1100
0000
0000
0000
1100
0000
0000
0000
0101
0000
0000
0000
0101
0000
0000
0000
0101
0000
0000
0000
1001
0000
0000
0000
0000
0000
0001
0000
0000
2000
0000
0000
,  // measure 73
0000
3020
0000
0230
0000
0302
0000
1003
0001
0010
0100
1000
1001
0000
0000
0000
;
