#TITLE:AM-3P -303 BASS MIX-;
#ARTIST:KTz (remixed by U1);
#BANNER:AM-3P -303 BASS MIX-.png;
#BACKGROUND:AM-3P -303 BASS MIX--bg.png;
#JACKET:AM-3P -303 BASS MIX--jacket.png;
#MUSIC:AM-3P -303 BASS MIX-.ogg;
#SAMPLESTART:24.008;
#SAMPLELENGTH:20;
#DISPLAYBPM:130;
#BPMS:0=130.435,4=129.995;
#BGCHANGES:;

//---------------dance-single - ----------------
#NOTES:
     dance-single:
     :
     Beginner:
     4:
     :
0000
0000
0000
0000
,
0000
0000
0000
0000
,
0000
0000
0000
0000
,
0000
0000
0000
0000
,
1000
0000
0001
0000
,
1000
1000
1000
0000
,
1000
1000
1000
0000
,
1000
1000
1000
0000
,
1000
0000
1000
0000
,
0001
0001
0001
0000
,
0001
0001
0001
0000
,
0001
0001
0001
0000
,
0001
0000
0001
0000
,
1000
1000
1000
0000
,
0001
0001
0001
0000
,
1001
1001
1001
0000
,
0110
0000
0110
0000
,
1000
1000
1000
0000
,
0001
0001
0001
0000
,
1001
1001
1001
0000
,
0110
0000
0110
0000
,
0010
0000
0010
0000
,
1000
0000
0001
0000
,
0010
0000
0010
0000
,
1000
0000
0001
0000
,
0100
0000
0100
0000
,
1000
0000
0001
0000
,
0100
0000
0100
0000
,
1000
0000
0001
0000
,
0100
0100
0100
0000
,
1000
0000
0000
0000
,
0001
0000
0000
0000
,
1000
0000
0000
0000
,
0001
0000
0000
0000
,
1001
0000
0100
0000
,
1001
0000
0100
0000
,
1001
0000
0100
0000
,
1001
0000
0100
0000
,
1001
0000
0100
0000
,
1001
0000
0100
0000
,
1001
0000
0100
0000
,
0100
0100
0100
0100
,
0100
0000
0010
0000
,
0100
0000
0010
0000
,
0100
0000
0010
0000
,
0100
0100
0100
0100
,
0100
0000
0000
0000
,
1000
0000
0000
0000
,
0010
0000
0000
0000
,
0001
0000
0000
0000
,
0000
0000
0000
0000
;

//---------------dance-single - ----------------
#NOTES:
     dance-single:
     :
     Easy:
     4:
     :
0000
0000
0000
0000
,
0000
0000
0000
0000
,
0000
0000
0000
0000
,
0000
0000
0000
0000
,
0100
0000
0010
0010
,
1001
0100
0000
0001
,
0000
0100
0000
1000
,
0000
0001
0000
0010
,
0000
1000
0000
0001
,
0000
0100
0000
0010
,
0100
0000
0010
1000
,
0100
0000
1000
0001
,
0100
0100
0010
0010
,
0000
1000
1000
1000
,
0000
0001
0001
0001
,
0000
1000
0100
0100
,
0000
0001
0100
0100
,
0010
1000
0100
0000
,
0010
0001
0100
0000
,
0001
0100
1000
0000
,
1000
0100
0001
0001
,
1001
0000
0010
0100
,
1000
0000
0001
0100
,
0010
0000
1000
0001
,
0100
0000
0001
1000
,
0100
0000
0010
0010
,
0001
0000
0010
1001
,
0000
0100
0010
0010
,
1000
0100
0001
0100
,
1000
0010
0100
1001
,
0100
0000
0000
0000
,
0010
0000
0000
0000
,
0001
0000
0000
0000
,
0100
0000
0000
0000
,
1001
0100
0100
0000
,
1001
0010
0010
0000
,
1001
1000
0100
0000
,
1001
0001
0100
0000
,
1001
0010
0100
0000
,
1000
0001
1000
0000
,
0010
0100
0010
0000
,
1000
0100
0001
0100
,
0010
1000
1001
0000
,
0001
0100
0110
0000
,
1000
0100
1001
0000
,
0001
0100
1001
0100
,
1000
0000
0100
0000
,
0001
0000
0100
0000
,
0010
0000
0010
0000
,
0100
0000
0100
0000
,
0000
0000
0000
0000
;

//---------------dance-single - ----------------
#NOTES:
     dance-single:
     :
     Medium:
     9:
     :
0000
0000
0000
0000
,
0000
0000
0000
0000
,
0000
0000
0000
0000
,
0000
0000
0000
0000
,
0000
0000
0000
0000
,
0010
1000
0001
0000
0000
1000
0001
0000
,
0010
0001
0100
0000
0000
0010
0100
0000
,
0001
0100
0010
0000
0000
1000
0001
0000
,
0100
0010
1000
0000
0000
0100
0010
0100
,
0001
1000
0010
0000
0000
0010
0001
0100
,
0010
1000
0100
0000
0000
0100
1000
0010
,
0100
0001
0010
0000
0000
1000
0001
1000
,
0001
0100
0010
0100
0010
1000
0001
0000
,
0010
0000
0000
0001
0000
0000
0100
0000
0000
0000
1000
0000
0001
0000
0100
0000
,
0010
0000
0000
1000
0000
0000
0100
0000
0000
0000
0001
0000
1000
0000
0100
0000
,
0010
0000
0000
0001
0000
0000
1000
0000
0000
0000
0100
0000
1000
0000
0000
0000
,
0001
0000
0000
0010
0000
0000
0100
0000
0000
0000
1000
0000
0001
0000
0000
0000
,
0100
0000
0000
0010
0000
0000
1000
0000
0000
0000
0010
0000
0001
0000
0100
0000
,
0100
0000
0000
0001
0000
0000
1000
0000
0000
0000
1000
0000
0010
0000
0100
0000
,
0001
0000
0000
0001
0000
0000
0001
0000
0000
0000
1000
0000
0100
0000
0010
0000
,
0001
1000
0010
0100
0001
1000
0100
0000
,
1001
0000
0000
0010
0000
0000
0001
0000
0000
0000
0100
0000
0010
0000
0000
0000
,
1001
0000
0000
0010
0000
0000
0100
0000
0000
0000
1000
0000
0100
0000
0000
0000
,
0101
0000
0000
1000
0000
0000
0100
0000
0000
0000
0001
0000
0100
0000
0000
0000
,
1100
0000
0000
0010
0000
0000
0100
0000
0000
0000
1000
0000
0001
0000
0000
0000
,
0010
0001
0010
0000
1000
0100
1000
0000
,
0100
0001
1000
0000
0010
1000
0100
0000
,
1000
0001
1000
0000
0001
1000
0001
0000
,
0010
0000
0010
0100
1000
0000
1000
0001
,
0100
0100
0010
0010
,
1001
0000
0000
0000
,
0010
0001
0100
1000
,
0010
0000
0000
0000
,
0010
0100
0001
1000
,
0100
1001
0010
0100
,
0010
0001
0010
0001
0000
1000
0100
0000
,
0010
1001
0100
1000
,
0010
1000
0001
0100
0000
0010
0100
0000
,
1000
0000
0000
0001
0000
0000
1000
0000
0000
0000
0010
0000
1000
0000
0000
0000
,
0001
0100
0001
0100
0000
0010
0001
0000
,
0100
0000
0000
0010
0000
0000
1000
0000
0000
0000
0001
0000
0100
0000
0000
0000
,
1010
1100
0101
0011
,
1001
0000
0000
0000
0000
0100
0100
0000
,
1001
0000
0010
0000
0000
0100
0100
0000
,
1001
0000
0100
0000
0000
0010
0010
0000
,
1000
0001
0010
0001
1000
0100
0100
0000
,
0010
0000
1000
0000
,
0100
0000
0001
0000
,
0010
0000
0100
0000
,
0001
0000
1000
0000
,
0000
0000
0000
0000
;

//---------------dance-single - ----------------
#NOTES:
     dance-single:
     :
     Hard:
     10:
     :
0000
0000
0000
0000
,
0000
0000
0000
0000
,
0000
0000
0000
0000
,
0000
0000
0000
0000
,
0000
0000
0000
0000
,
0010
0000
0000
0100
0000
0000
1001
0000
0000
0000
1000
0000
0001
0000
0000
0000
,
0010
0000
0000
1000
0000
0000
0101
0000
0000
0000
0010
0000
1000
0000
0000
0000
,
0001
0000
0000
0100
0000
0000
0011
0000
0000
0000
0100
0000
0010
0000
0000
0000
,
1000
0000
0000
0010
0000
0000
0101
0000
0000
0000
0001
0000
0010
0000
0000
0000
,
1001
0000
0000
0100
0000
0000
0001
0000
0000
0000
0010
0000
0100
0000
0000
0000
,
1001
0000
0000
0010
0000
0000
1000
0000
0000
0000
0010
0000
0001
0000
0000
0000
,
1100
0000
0000
0010
0000
0000
0100
0000
0000
0000
1000
0000
0001
0000
0000
0000
,
0010
0100
1000
0001
0100
0010
1000
0000
,
0010
0000
0000
0100
0000
0000
0100
0000
0000
0000
1000
0000
0100
0000
0010
0000
,
0001
0000
0000
1000
0000
0000
1000
0000
0000
0000
0010
0000
0100
0000
0100
0000
,
1000
0000
0000
0010
0000
0000
0010
0000
0000
0000
0100
0000
0001
0000
0001
0000
,
0010
0000
0000
0100
0000
0000
0100
0000
0000
0000
0001
0000
0100
0000
0010
0000
,
1000
0000
0000
0001
0000
0000
0001
0000
0000
0000
0010
0000
0100
0000
0100
0000
,
0001
0000
0000
0010
0000
0000
0010
0000
0000
0000
0100
0000
1000
0000
1000
0000
,
0010
0000
0000
0100
0000
0000
0100
0000
0000
0000
0001
0000
1000
0000
0000
0000
,
0010
0010
0100
0100
0001
0000
1100
0000
,
0001
0010
0001
0010
0001
0100
0100
0000
,
1000
0010
1000
0010
1000
0100
0100
0000
,
0010
0001
1000
0100
1000
0001
0100
0010
,
0100
0001
0010
0100
1000
0001
0100
0000
,
1010
0000
0101
0000
0010
0001
0100
0000
,
0011
0000
1100
0000
0010
1000
0100
0000
,
0011
0000
1010
0000
0001
0100
0100
0000
,
1010
0101
0011
1100
,
0010
0001
0010
0001
1000
0100
1000
0000
,
0010
0000
1000
0001
,
0100
0000
0001
1000
,
0001
0000
0010
0100
,
1000
0000
0100
0010
,
1001
0100
0010
0001
1000
0001
0100
0000
,
1010
0100
0001
0010
0100
1000
0100
0000
,
0011
0100
1000
0010
0100
0001
0100
0000
,
1100
0010
0001
1000
0100
0010
0100
0000
,
1001
0000
0000
0100
0000
0000
1001
0000
0000
0000
0100
0000
0010
0000
0000
0000
,
1001
0000
0000
0010
0000
0000
0101
0000
0000
0000
0010
0000
1000
0000
0000
0000
,
0011
0000
0000
0100
0000
0000
1100
0000
0000
0000
0100
0000
0001
0000
0000
0000
,
0010
0100
1000
0001
0100
0010
1000
0000
,
0010
0001
0000
0100
0000
0000
0001
0000
0000
0000
1000
0000
0100
0000
0010
0000
,
0100
1000
0000
0010
0000
0000
0100
0000
0000
0000
0001
0000
0100
0000
0100
0000
,
0010
1000
0000
0100
0000
0000
0010
0000
0000
0000
0001
0000
1000
0000
0100
0000
,
1000
0001
0010
1000
0010
0001
0100
0000
,
0010
0000
1000
0000
,
0100
0000
0010
0000
,
0001
0000
1000
0000
,
0100
0000
0001
0000
,
0000
0000
0000
0000
;

//---------------dance-single - ----------------
#NOTES:
     dance-single:
     :
     Challenge:
     13:
     :
0000
0000
0000
0000
,
0000
0000
0000
0000
,
0000
0000
0000
0000
,
0000
0000
0001
0000
0000
0000
0000
0000
0000
0000
0000
0010
0000
0000
0010
0000
0000
0001
1000
0000
0000
0000
0000
0000
,
0000
0000
0100
0000
0000
0000
0000
0000
0000
0000
0000
1000
0000
0000
1000
0000
0000
0001
0100
0000
0000
0000
0000
0000
,
1010
0000
0000
0000
0000
0101
0000
0000
0000
1010
0000
0000
0000
0000
0001
1000
0000
0000
1000
0000
0000
0100
0000
0000
,
1100
0000
0000
0000
0000
0011
0000
0000
0000
1100
0000
0000
0000
0000
0010
1000
0000
0000
1000
0000
0000
0001
0000
0000
,
0101
0000
0000
0000
0000
1100
0000
0000
0000
0101
0000
0000
0000
0000
0010
0100
0000
0000
0100
0000
0000
0001
0000
0000
,
0011
0000
0000
0000
0000
1010
0000
0000
0000
0011
0000
0000
0000
0000
0100
0010
0000
0000
0010
0000
0000
1000
0000
0000
,
1001
0000
0000
0000
0000
0110
0000
0000
0000
1001
0000
0000
0000
0000
1000
0100
0000
0000
0100
0000
0000
0010
0000
0000
,
0110
0000
0000
0000
0000
1001
0000
0000
0000
0110
0000
0000
0000
0000
0001
1000
0000
0000
1000
0000
0000
0010
0000
0000
,
2000
0000
0000
0000
0000
3002
0000
0000
0000
0203
0000
0000
0000
0000
0310
1000
0000
0000
1000
0000
0000
0001
0000
0000
,
1000
0000
0100
1000
0000
0100
1000
0000
0000
0001
0000
0100
0000
0000
0100
0001
0000
0000
0020
0000
0000
0000
0000
0000
,
0031
0000
1000
0000
0000
0000
0100
0000
0000
0000
0000
1000
0000
0000
0001
0000
0000
0100
0010
0000
0000
0010
0000
0000
,
1000
0000
0010
0000
0000
0000
0100
0000
0000
0000
0000
0010
0000
0000
1000
0000
0000
0001
0100
0000
0000
0001
0000
0000
,
0010
0000
0100
0000
0000
0000
1000
0000
0000
0000
0000
0001
0000
0000
0001
0000
0000
0010
0100
0000
0000
1000
0000
0000
,
0001
0000
0010
0001
0000
0010
0001
0000
0000
1000
0000
0100
0000
0000
0100
1000
0000
0000
0010
0000
0000
0100
0000
0000
,
0001
0000
1000
0000
0000
0000
0100
0000
0000
0000
0000
0010
0000
0000
0001
0000
0000
1000
0010
0000
0000
0100
0000
0000
,
0001
0000
0010
0000
0000
0000
0001
0000
0000
0000
0000
0100
0000
0000
0100
0000
0000
0010
1000
0000
0000
1000
0000
0000
,
0100
0000
1000
0000
0000
0000
0001
0000
0000
0000
0000
1000
0000
0000
0010
0000
0000
0100
0001
0000
0000
0010
0000
0000
,
0100
0000
1000
0010
0000
1000
0100
0000
1000
0010
0000
1000
0100
0000
1000
0010
0000
1000
0100
0000
0000
0100
0000
0000
,
1000
0000
0000
0001
0000
0000
0010
0000
0000
0100
0000
1000
0000
0000
1000
0000
0000
0010
0100
0000
0000
0001
0000
0000
,
0010
0002
0203
0320
2030
3200
2300
3001
,
0010
0000
0000
1100
0000
0000
1100
0000
0000
1000
0000
0001
0000
0000
0001
1000
0000
0000
0100
0000
0000
0010
0000
0000
,
0001
0000
0000
0100
0000
0000
0010
0000
0000
1000
0000
0100
0000
0000
0100
0020
0000
0000
0032
0000
0000
1003
0000
0000
,
0010
0000
0000
1000
0000
0000
0100
0000
0000
1000
0000
0001
0000
0000
0001
0000
0000
0010
0001
0000
0000
0100
0000
0000
,
0010
2000
3002
0023
0032
0203
0320
1030
,
0100
0000
0000
0011
0000
0000
0011
0000
0000
0001
0000
1000
0000
0000
0010
0100
0000
0000
0001
0000
1000
0010
0000
0000
,
0210
0001
0301
0100
0120
1000
1030
0100
,
1010
0101
1010
0101
,
0010
0000
0001
0000
0000
0000
1000
0000
0000
0000
0000
0100
0000
0000
0100
0000
0000
1000
0001
0000
0000
0000
0000
0010
,
0001
0000
0010
0000
0000
0000
0100
0000
0000
0000
0000
0010
0000
0000
0001
0000
0000
1000
0100
0000
0000
0000
0000
1000
,
0001
0000
1000
0000
0000
0000
0010
0000
0000
0000
0000
0100
0000
0000
0100
0000
0000
0001
1000
0000
0000
0000
0000
0010
,
0100
0000
0010
0000
0000
0000
1000
0000
0000
0000
0000
0100
0000
0000
0010
0000
0000
0001
1000
0000
0000
0000
0000
0000
,
1100
0000
0000
0000
0000
0110
0000
0000
0000
0011
0000
0000
1000
0000
0010
0100
0000
0010
1000
0000
0000
0001
0000
0000
,
0101
0000
0000
0000
0000
1001
0000
0000
0000
1010
0000
0000
0100
0000
0001
1000
0000
0001
0100
0000
0000
0010
0000
0000
,
1001
0000
0000
0000
0000
0110
0000
0000
0000
1001
0000
0000
1000
0000
0001
0010
0000
0001
1000
0000
0000
0100
0000
0000
,
1001
0000
0000
0000
0000
1010
0000
0000
0000
0101
0000
0000
0010
0000
0001
0010
0000
0100
1000
0000
0000
0001
0000
0000
,
0011
0000
0000
0000
0000
1100
0000
0000
0000
0101
0000
0000
1000
0000
0100
0010
0000
0001
0010
0000
0000
0100
0000
0000
,
1100
0000
0000
0000
0000
0011
0000
0000
0000
1100
0000
0000
0010
0000
1000
0001
0000
0100
0001
0000
0000
1000
0000
0000
,
1001
0000
0000
0000
0000
1010
0000
0000
0000
0011
0000
0000
0010
0000
0001
0010
0000
0100
1000
0000
0000
0001
0000
0000
,
1000
0000
0010
0100
0000
0010
1000
0000
0000
0100
0000
0010
0000
0000
0010
0001
0000
0000
1001
0000
0000
0100
0000
0000
,
0001
0000
0000
0010
0000
0001
0100
0000
0000
0000
0000
0010
1000
0000
0100
1000
0000
0000
0000
0000
1000
0001
0000
0100
,
0000
0000
0001
0010
0000
0001
0010
0000
0100
1000
0000
0000
0000
0000
0000
0000
0000
0010
0100
0000
0010
0000
0000
0000
,
0000
0000
1000
0100
0000
1000
0001
0000
0000
0000
0000
0010
0001
0000
0010
0100
0000
0000
0000
0000
1000
0001
0000
0100
,
0001
0000
0010
0000
0000
0011
0000
0000
0110
0000
0000
1100
0000
0000
1000
0010
0000
1000
0010
0000
0100
0001
0000
0000
,
2002
0000
0000
0000
3003
0001
0000
0001
2000
0000
0000
0000
3000
0100
0000
0100
,
0020
0000
0000
0000
0030
0001
0000
0001
0200
0000
0000
0000
0300
0010
0000
0010
,
2000
0000
0000
0000
3000
0100
0000
0100
2000
0000
0000
0000
3000
0001
0000
0001
,
0020
0000
0000
0000
0030
0001
0000
0001
0200
0000
0000
0000
0300
0110
0000
0110
;

//---------------dance-double - ----------------
#NOTES:
     dance-double:
     :
     Easy:
     5:
     :
00000000
00000000
00000000
00000000
,
00000000
00000000
00000000
00000000
,
00000000
00000000
00000000
00000000
,
00000000
00000000
00000000
00000000
,
00000000
00000000
00000000
00000000
,
00010000
00001000
00000000
00010000
,
00001000
00010000
00000000
00010000
,
00100000
01000000
00000000
10000000
,
01000000
00100000
00000000
01000000
,
00010000
00001000
00000000
00000010
,
00000001
00000100
00000000
00001000
,
00010000
01000000
00000000
00100000
,
00010000
00001000
00000100
00000000
,
00000001
00000010
00000000
00000001
,
00000100
00000010
00000000
00000001
,
00000100
00001000
00000000
00010000
,
01000000
10000000
00000000
00100000
,
00100000
01000000
00000000
00010000
,
00000010
00000001
00000000
00000001
,
00000010
00000100
00000000
00000100
,
00010000
00001000
00010000
01000000
,
10010000
00000000
00100000
00000000
,
00010000
00000000
00000100
00000000
,
00000010
00000000
00000001
00000000
,
00000100
00000000
00001000
00000000
,
00010000
00000000
01000000
00000000
,
10000000
00000000
00100000
00000000
,
00010000
00000000
00001000
00000000
,
00000100
00001000
00000100
00000001
,
00000100
00000001
00000100
00001000
,
00001001
00000000
00000000
00000000
,
00000100
00000000
00000000
00000000
,
00001000
00000000
00000000
00000000
,
00010000
00000000
00000000
00000000
,
00001000
00000001
00000100
00000100
,
00000010
00010000
00001000
00001000
,
00010000
01000000
10000000
10000000
,
00100000
01000000
00010000
00010000
,
10000000
01000000
00010000
00001000
,
00000100
00000001
00001000
00001000
,
00000001
00000001
00000100
00000100
,
00001001
00001000
00000100
00010000
,
00011000
00010000
00000000
01000000
,
00000000
10000000
00000000
00100000
,
00000000
01000000
00000000
00010000
,
00100000
00100000
01000000
01000000
,
10010000
00000000
00000000
00000000
,
00000000
00000000
00000000
00000000
,
01000000
00000000
00010000
00000000
,
00001000
00000000
00010000
00000000
,
00000000
00000000
00000000
00000000
;

//---------------dance-double - ----------------
#NOTES:
     dance-double:
     :
     Medium:
     8:
     :
00000000
00000000
00000000
00000000
,
00000000
00000000
00000000
00000000
,
00000000
00000000
00000000
00000000
,
00000000
00000000
00000000
00000000
,
00000000
00000000
00000000
00000000
,
00100000
01000000
00100000
00000000
00010000
00000000
10000000
00000000
,
00010000
00100000
00001000
00000000
00010000
00000000
00000100
00000000
,
00000010
00000001
00000100
00000000
00000010
00000000
00001000
00000000
,
00000100
00010000
00001000
00000000
01000000
00000000
00100000
00000000
,
10000000
00010000
10000000
00000000
00100000
00000000
01000000
00000000
,
00010000
00100000
01000000
00000000
00010000
00000000
00001000
00000000
,
00001000
00000100
00000001
00000000
00000010
00000000
00000100
00000000
,
00001000
00000001
00000100
00000000
00000001
00001000
00000100
00000000
,
00000010
00000100
00000000
00010000
00000000
00001000
00010000
00000000
,
00000010
00001000
00000000
00000100
00000000
00010000
00001000
00000000
,
00010000
00001000
00000000
00100000
00000000
00010000
01000000
00000000
,
00100000
10000000
00000000
01000000
00000000
00010000
00001000
00000000
,
01000000
00100000
00000000
10000000
00000000
00100000
10000000
00000000
,
01000000
00010000
00000000
00001000
00000000
00010000
00001000
00000000
,
00000010
00000001
00000000
00001000
00000000
00000100
00000010
00000000
,
00001001
00000101
00001100
00000110
,
00000001
00000001
00000000
00000100
00000000
00001000
00000000
00010000
,
00000000
01000000
00000000
10000000
00000000
00010000
00000000
00100000
,
01000000
01000000
00000000
10000000
00000000
00100000
00000000
00010000
,
00000000
00001000
00000000
00010000
00000000
00000100
00000000
00000010
,
00000001
00000001
00000000
00001000
00000000
00000010
00000000
00000100
,
00000000
00001000
00000000
00010000
00000000
01000000
00000000
00100000
,
00000000
00010000
00000000
10000000
00000000
01000000
00000000
00100000
,
00010000
00010000
10000000
10000000
,
00100000
00010000
00001000
00010000
,
00001000
00000000
00010000
00000000
,
01000000
00000000
00100000
00000000
,
00010000
00000000
00001000
00000000
,
00000100
00000000
00000010
00000000
,
00000100
00000001
00001000
00000100
00000000
00000010
00001000
00000000
,
00010000
00001000
01000000
00010000
00000000
01000000
00010000
00000000
,
00000100
00010000
00001000
00000100
00000000
00000001
00000100
00000000
,
00000001
00000010
00000100
00010000
00000000
00001000
00010000
00000000
,
00000100
00010000
00001000
01000000
00000000
00100000
01000000
00000000
,
00100000
10000000
01000000
00010000
00000000
00100000
01000000
00000000
,
01000000
00100000
10000000
00010000
00000000
01000000
00010000
00000000
,
00010000
01000000
10000000
01000000
00010000
00001000
00010000
00000000
,
00011000
00000000
00000000
00000000
,
00010000
00001000
00000100
00000010
00000000
00001000
00000100
00000000
,
00000001
00001000
00000100
00000010
00000000
00001000
00010000
00000000
,
00010000
01000000
10000000
01000000
00010000
01000000
10000000
00000000
,
00010000
00000000
00100000
00000000
,
00001000
00000000
00010000
00000000
,
00000010
00000000
00001000
00000000
,
00000100
00000000
00010000
00000000
,
00000000
00000000
00000000
00000000
;

//---------------dance-double - ----------------
#NOTES:
     dance-double:
     :
     Hard:
     10:
     :
00000000
00000000
00000000
00000000
,
00000000
00000000
00000000
00000000
,
00000000
00000000
00000000
00000000
,
00000000
00000000
00000000
00000000
,
00000000
00000000
00000000
00000000
,
00000010
00000001
00001000
00000100
00000000
00010000
00001000
00010000
,
00100000
10000000
00010000
01000000
00000000
00100000
10000000
01000000
,
00100000
00010000
10000000
01000000
00000000
00010000
00001000
00010000
,
00000010
00001000
00000001
00000100
00000000
00000010
00001000
00000100
,
00000010
00000001
00001000
00000100
00000000
00010000
00001000
00010000
,
00100000
10000000
00010000
01000000
00000000
00100000
10000000
01000000
,
00100000
00010000
10000000
01000000
00000000
00010000
00001000
00010000
,
00000010
00001000
00000010
00001000
00000001
00000100
00000001
00000000
,
00001000
00000000
00000000
00000100
00000000
00000000
00000100
00000000
00000000
00000000
00000010
00000000
00000100
00000000
00000000
00000000
,
00000001
00000000
00000000
00000010
00000000
00000000
00000010
00000000
00000000
00000000
00000100
00000000
00001000
00000000
00000000
00000000
,
00010000
00000000
00000000
00000100
00000000
00000000
00000100
00000000
00000000
00000000
00001000
00000000
00010000
00000000
00000000
00000000
,
01000000
00000000
00000000
10000000
00000000
00000000
10000000
00000000
00000000
00000000
00100000
00000000
00010000
00000000
00000000
00000000
,
10000000
00000000
00000000
01000000
00000000
00000000
01000000
00000000
00000000
00000000
00010000
00000000
01000000
00000000
00000000
00000000
,
00100000
00000000
00000000
10000000
00000000
00000000
10000000
00000000
00000000
00000000
00010000
00000000
00001000
00000000
00000000
00000000
,
00010000
00000000
00000000
00000100
00000000
00000000
00000100
00000000
00000000
00000000
00001000
00000000
00010000
00000000
00000100
00000000
,
00000010
00000001
00000100
00000001
00000010
00000001
00000100
00000000
,
00001001
00000000
00000100
00000000
00001000
00010000
00001000
00000000
,
01000000
00000000
00100000
00000000
10000000
00010000
01000000
00000000
,
00100000
00000000
01000000
00000000
00100000
00010000
00001000
00000000
,
00000100
00000000
00000001
00000000
00001000
00000001
00000100
00000000
,
00001001
00000000
00000100
00000000
00000001
00001000
00000001
00000000
,
00000100
00000000
00001000
00000000
00010000
00001000
00010000
00000000
,
00010000
00000000
01000000
00000000
10000000
00010000
10000000
00000000
,
01100000
00000000
00100000
01000000
10010000
00000000
00010000
00100000
,
00011000
00001000
00010000
00010000
,
00011000
00000000
00000000
00000000
,
00000010
00000000
00000100
00000000
,
00000001
00000000
00000100
00000000
,
00000100
00000000
00000010
00000000
,
00001001
00000000
00000000
00000100
00000000
00000000
00000010
00000000
00000000
00000000
00001000
00000000
00010000
00000000
00000000
00000000
,
00010000
00000000
00000000
00100000
00000000
00000000
10000000
00000000
00000000
00000000
01000000
00000000
10000000
00000000
00000000
00000000
,
01100000
00000000
00000000
00001000
00000000
00000000
00010000
00000000
00000000
00000000
00000100
00000000
00000010
00000000
00000000
00000000
,
00000001
00000000
00000000
00000100
00000000
00000000
00000010
00000000
00000000
00000000
00001000
00000000
00000001
00000000
00000000
00000000
,
00000010
00000001
00001000
00000000
00000011
00000000
00001100
00000000
,
00010000
00001000
00010000
00000000
01010000
00000000
11000000
00000000
,
00100000
10000000
00010000
00000000
10100000
00000000
01010000
00000000
,
00010000
10000000
00100000
01000000
00010000
10000000
01000000
00000000
,
10010000
00010000
00100000
01000000
10000000
00010000
01000000
00100000
,
10000000
01000000
00010000
00001000
00010000
00000100
00000010
00000001
,
00001000
00000010
00000100
00001000
00010000
00001000
00100000
01000000
,
10000000
00100000
01000000
00010000
10000000
00010000
01000000
00100000
,
10000000
00000000
01000000
00000000
,
00010000
00000000
00001000
00000000
,
00000100
00000000
00000001
00000000
,
00001000
00000000
00000100
00000000
,
00000000
00000000
00000000
00000000
;
