#VERSION:0.83;
#TITLE:ALIV3;
#SUBTITLE:;
#ARTIST:TH3 B3AT C0ND\\/CTOR;
#TITLETRANSLIT:;
#SUBTITLETRANSLIT:;
#ARTISTTRANSLIT:;
#GENRE:;
#ORIGIN:;
#TAGS:;
#CREDIT:;
#BANNER:ALIV3-bn.png;
#BACKGROUND:ALIV3-bg.png;
#PREVIEWVID:;
#JACKET:ALIV3-jacket.png;
#CDIMAGE:;
#DISCIMAGE:;
#LYRICSPATH:;
#CDTITLE:;
#MUSIC:ALIV3.ogg;
#OFFSET:0.000000;
#SAMPLESTART:43.125000;
#SAMPLELENGTH:20.000000;
#SELECTABLE:YES;
#DISPLAYBPM:128.000000;
#BPMS:0.000000=128.000000;
#STOPS:;
#DELAYS:;
#WARPS:;
#TIMESIGNATURES:0.000000=4=4;
#TICKCOUNTS:0.000000=4;
#COMBOS:0.000000=1;
#SPEEDS:0.000000=1.000000=0.000000=0;
#SCROLLS:0.000000=1.000000;
#FAKES:;
#LABELS:0.000000=Song Start;
#BGCHANGES:;
#KEYSOUNDS:;
#ATTACKS:
;

//---------------dance-single - ----------------
#NOTEDATA:;
#CHARTNAME:;
#CHARTHASH:0:
#STEPSTYPE:dance-single;
#BANNER:;
#DESCRIPTION:;
#CHARTSTYLE:;
#DIFFICULTY:Medium;
#METER:12;
#METERF:0.000000;
#RADARVALUES:0.449767,0.449336,0.158499,0.201726,0.198124,437.000000,415.000000,22.000000,28.000000,0.000000,0.000000,0.000000,0.000000,0.000000,0.449767,0.449336,0.158499,0.201726,0.198124,437.000000,415.000000,22.000000,28.000000,0.000000,0.000000,0.000000,0.000000,0.000000;
#CREDIT:;
#DISPLAYBPM:128.000000;
#NOTES:
0000
0000
0000
0000
,
0000
0000
0000
0000
,
0000
0000
0000
0000
,
0000
0000
0000
0000
,
0011
0000
0000
0000
0000
0000
0000
1100
0000
0000
0000
0000
0000
0000
0000
0000
,
0000
0000
1010
0000
0000
0000
0000
0101
0000
0000
0000
0000
0000
0000
0000
0000
,
0011
0000
0000
0000
0000
0000
0000
1010
0000
0000
0000
0000
0000
0000
0000
0000
,
0000
0000
0101
0000
0000
0000
0000
1100
0000
0000
0000
0000
0000
0000
0000
0000
,
1000
0010
1000
0001
0000
0010
0100
1000
,
0000
0000
0100
0000
0010
0000
0002
0000
0000
0000
0100
0000
0000
0103
0000
0000
,
0010
1000
0001
0010
0000
0001
0100
1000
,
0000
0000
0010
0000
1000
0000
0200
0000
0000
0000
0010
0000
0000
0310
0000
0000
,
0001
0010
0001
0100
0000
1000
0010
1000
,
0000
0000
0100
0000
1000
0000
0020
0000
0000
0000
0100
0000
0000
0130
0000
0000
,
0001
1000
0001
0010
0000
0100
1000
0001
,
0000
0100
0010
2000
0000
3001
0100
0010
,
1000
0000
0000
0000
0010
0000
0000
0010
0000
0000
0010
0000
0000
0010
0000
0000
,
0100
0000
0000
0000
0001
0000
0000
0001
0000
0000
0001
0000
0000
0001
0000
0000
,
0001
0000
0000
0000
1000
0000
0000
1000
0000
0000
1000
0000
0000
1000
0000
0000
,
0010
0000
0000
0000
0100
0000
0000
0100
0000
0000
0100
0000
0000
0100
0000
0000
,
0001
0010
1000
0000
0001
0100
0010
0000
,
1000
0001
0010
0000
0100
1000
0010
0000
,
1000
0001
1000
0001
0100
0010
0100
0010
,
1000
0000
1100
0000
0101
0000
0010
0100
,
0020
0000
0000
0000
0031
0000
0000
1000
0000
0000
0010
0000
0000
0100
0000
0000
,
0010
0000
0000
1000
0000
0000
0100
0000
0010
0000
0001
0000
0000
1000
0000
0000
,
0110
0000
0000
0000
0001
0000
0000
0100
0000
0000
0010
0000
0000
1000
0000
0000
,
0100
0000
0000
0010
0000
0000
0001
0000
0000
0000
1100
0000
0000
0000
0001
0100
,
0002
0000
0013
0001
1000
0010
1000
0001
,
0100
0000
0000
0010
0000
0000
1000
0000
0100
0000
1000
0000
0000
0001
0000
0000
,
1001
0000
0010
1000
0001
0010
0001
0100
,
0010
0000
0000
1000
0000
0000
0001
0000
0000
0000
1010
0000
0000
0101
0000
0000
,
1100
0000
0000
0000
0001
0000
0000
1000
0000
0000
0010
0000
0000
0100
0000
0000
,
0010
0000
0000
1000
0000
0000
0001
0000
0010
0000
0001
0000
0000
0100
0000
0000
,
1010
0000
0010
1000
0001
1000
0100
0010
,
0001
0000
0000
0100
0000
0000
0010
0000
0000
0000
1001
0000
0000
0000
0100
0010
,
0100
0000
0000
0000
0001
0000
0010
0000
0001
0000
0100
0000
0000
0010
0000
0000
,
1000
0000
0000
0100
0000
0000
0010
0000
0001
0000
0100
0000
0000
1000
0000
0000
,
0110
0000
0000
0000
0001
0000
0000
0010
0000
0000
0001
0000
0000
0100
0000
0000
,
1000
0010
1000
0001
0010
0100
1000
0001
,
0100
0000
0000
0000
0000
0000
0220
0000
0000
0030
0000
0000
0301
0000
1000
0000
,
0001
0010
0001
0100
0000
0010
1000
0001
,
0000
0000
1000
0000
0100
0000
0020
0000
0000
0000
0001
0000
0000
0130
0000
0000
,
0010
0001
0100
0010
0000
1000
0001
1000
,
0000
0000
0100
0000
0010
0000
0002
0000
0000
0000
0100
0000
0000
1003
0000
0000
,
0001
1000
0100
0010
0000
0010
0001
0100
,
0000
0000
1000
0000
0001
0000
2000
0000
0000
0000
0100
0000
0000
3010
0000
0000
,
0100
0000
1000
0001
0010
0000
0001
0100
,
1000
0000
0010
1000
0001
1000
0100
0010
,
0001
0000
0000
0000
0100
0000
0000
0100
0000
0000
0100
0000
0000
0100
0000
0000
,
0010
0000
0000
0000
1000
0000
0000
1000
0000
0000
1000
0000
0000
1000
0000
0000
,
1000
0000
0000
0000
0001
0000
0000
0001
0000
0000
0001
0000
0000
0001
0000
0000
,
1000
0000
0000
0000
0010
0000
0000
0010
0000
0000
0010
0000
0000
0010
0000
0000
,
0100
0010
1000
0000
0001
0010
1000
0000
,
0100
0010
0001
0000
0001
0100
1000
0000
,
0010
0100
0010
0100
0001
1000
0001
1000
,
0100
0000
0011
0000
1100
0000
0001
1000
,
0002
0000
0103
0010
1000
0010
0100
0001
,
0010
0100
0010
0001
0100
0010
1000
0001
,
0200
0000
0301
0010
0001
0100
0010
1000
,
0100
0000
0010
0000
0100
0000
1000
0000
0010
0000
0200
0000
0000
0000
0301
1000
,
0002
0000
0013
0100
1000
0010
1000
0001
,
1000
0100
0010
0001
0100
0010
1000
0001
,
2000
0000
3100
0010
0001
0100
0001
0010
,
1000
0000
0100
0000
0010
0000
0001
0000
0100
0000
0020
0000
0000
2030
0000
0000
,
3200
0000
1300
0010
1000
0001
0010
0100
,
1000
0000
0001
0000
0100
0000
0010
0000
1000
0000
0002
0000
0000
2003
0000
0000
,
3020
0000
0130
0010
0001
0100
0010
1000
,
0001
0000
1000
0000
0100
0000
1000
0000
0010
0000
0200
0000
0000
0000
0301
1000
,
0002
0000
0013
0001
1000
0001
0010
0100
,
1000
0000
0010
0000
0100
0000
0001
0000
0010
0000
0200
0000
0000
2300
0000
0000
,
3020
0000
1030
0001
1000
0100
0010
0001
,
0100
0010
0100
0001
0010
0100
1000
0010
,
0200
0000
0000
0310
0000
0000
0000
0000
;

//---------------dance-single - ----------------
#NOTEDATA:;
#CHARTNAME:;
#CHARTHASH:2147483647:
#STEPSTYPE:dance-single;
#BANNER:;
#DESCRIPTION:;
#CHARTSTYLE:;
#DIFFICULTY:Hard;
#METER:14;
#METERF:0.000000;
#RADARVALUES:0.639143,0.660788,0.273771,0.014409,0.749269,621.000000,583.000000,38.000000,2.000000,0.000000,0.000000,0.000000,0.000000,0.000000,0.639143,0.660788,0.273771,0.014409,0.749269,621.000000,583.000000,38.000000,2.000000,0.000000,0.000000,0.000000,0.000000,0.000000;
#CREDIT:;
#DISPLAYBPM:128.000000;
#NOTES:
0000
0000
0000
0000
,
0000
0000
0000
0000
,
0000
0000
0000
0000
,
0000
0000
0000
0000
,
0001
0000
0100
0000
1000
0000
0000
0010
0000
0010
0000
0000
1000
0000
0001
0000
,
0010
0000
0100
0000
1000
0000
0000
0001
0000
0001
0000
0000
0100
0000
0010
0000
,
0100
0000
0001
0000
0010
0000
0000
1000
0000
1000
0000
0000
0100
0000
0010
0000
,
0001
0000
1000
0000
0010
0000
0000
0100
0000
0100
0000
0000
0010
0000
1000
0000
,
1001
0000
0010
0000
1000
0000
0100
0010
0000
0000
0001
0000
0000
1000
0000
0000
,
0100
0000
0010
0000
0001
0000
1000
0001
0000
0000
0100
0000
0000
0010
0000
0000
,
1000
0000
0100
0000
1000
0000
0001
0010
0000
0000
0001
0000
0000
0100
0000
0000
,
0010
0000
1000
0000
0001
0000
0010
0001
0000
0000
0100
0000
0000
1000
0000
0000
,
0010
0000
1000
0000
0100
0000
1000
0001
0000
0001
0100
0000
0000
0010
0000
0000
,
1000
0000
0001
0000
0010
0000
0001
0100
0000
0100
0010
0000
0000
1000
0000
0000
,
0100
0000
0010
0000
0001
0000
0100
0010
0000
1000
0001
0000
0000
1000
0000
0000
,
0100
0000
0010
0000
0100
0000
1000
0010
0000
1000
0001
0000
0000
0001
0000
0000
,
0110
0000
0010
0000
0001
0000
0000
1000
0000
0000
0010
0000
0000
0100
0000
0000
,
0001
0000
0010
0000
1000
0000
0000
0100
0000
0000
0010
0000
0000
0001
0000
0000
,
0100
0000
0001
0000
0010
0000
0000
0100
0000
0000
1000
0000
0000
0001
0000
0000
,
1000
0000
0001
0000
0100
0000
0000
0010
0000
0000
1000
0000
0000
0100
0000
0000
,
0010
0100
1000
0001
1000
0001
0010
0100
,
0100
1000
0010
0001
0010
1000
0100
0001
,
0100
0010
0001
1000
1000
0010
0001
0100
,
0010
0000
0000
0000
0110
0000
0000
0000
1001
0000
0000
0000
1000
0001
1000
0001
,
1000
0000
0000
0000
0010
0100
0010
0100
0000
0000
0001
0000
0000
1000
0000
0000
,
0100
0000
0010
0001
0000
0001
1000
0000
0010
0000
1010
0000
0000
0101
0000
0000
,
1100
0000
0000
0000
0001
0010
0001
0010
0000
0000
0100
0000
0000
1000
0000
0000
,
0010
0000
0100
0001
0000
0001
1000
0000
0100
0000
0011
0000
0000
0001
1000
0001
,
1000
0000
0000
0000
0010
0100
0010
0100
0000
0000
0001
0000
0000
0010
0000
0000
,
0100
0000
1000
0001
0000
0001
0100
0000
0010
0000
1010
0000
0000
0101
0000
0000
,
1100
0000
0000
0000
0001
0010
0001
0010
0000
0000
0100
0000
0000
1000
0000
0000
,
0010
0000
1000
0100
0000
0100
0010
0000
0001
0000
1010
0000
0000
0010
0000
0010
,
0100
0000
0000
0000
0001
0000
1000
0001
0000
0010
0100
0000
1000
0010
1000
0010
,
1000
0000
0100
0010
0000
0010
0001
0000
0100
0000
0110
0000
0000
1001
0000
0000
,
0110
0000
0000
0000
0001
0000
0010
0100
0000
0100
1000
0000
0001
1000
0001
1000
,
0001
0000
0010
0001
0000
1000
0010
0000
0100
0000
1010
0000
0000
0001
1000
0001
,
1000
0000
0000
0000
0100
0010
0100
0010
0000
0001
1000
0000
0001
0100
0001
0100
,
0001
0000
0010
0100
0000
0100
1000
0000
0001
0000
0101
0000
0000
1100
0000
0000
,
0011
0000
0000
0000
0001
0100
0001
0100
0000
0010
1000
0000
0100
1000
0100
1000
,
0100
0010
0001
0100
0010
1000
0001
1000
,
0210
0000
0000
0000
0000
0000
0320
0000
0000
0000
0000
0000
0031
1000
0001
1000
,
0001
0000
0000
0000
0010
0000
0001
1000
0000
0001
0100
0000
0000
0010
0000
0000
,
1000
0000
0000
0000
0100
0000
0010
0001
0000
1000
0001
0000
0000
0100
0000
0000
,
0010
0000
0000
0000
0100
0000
0010
1000
0000
0001
1000
0000
0000
0100
0000
0000
,
0010
0000
0000
0000
0001
0000
0100
0010
0000
1000
0001
0000
0000
0100
0000
0000
,
0010
0000
1000
0000
0001
0000
1000
0100
0000
0100
0010
0000
0010
0001
0000
0000
,
0100
0000
0001
0000
0010
0000
0001
1000
0000
1000
0010
0000
0010
0100
0000
0000
,
0001
0000
1000
0000
0010
0000
0100
0001
0000
0001
1000
0000
1000
0100
0000
0000
,
0010
0000
0000
0000
0001
0000
0100
0010
0000
1000
0001
0000
1000
0100
1000
0100
,
1000
0000
0001
0000
0010
0000
0100
1000
0000
0001
1000
0000
0010
0100
0000
0000
,
0100
0000
0001
0000
0010
0000
0100
1000
0000
0001
1000
0000
0010
0100
0000
0000
,
0001
0000
0010
0000
1000
0000
0100
0010
0000
0100
1000
0000
0001
0010
0000
0000
,
0100
0000
1000
0000
0010
0000
0100
0001
0000
0010
0100
0000
1000
0001
0000
0000
,
0010
1000
0100
0001
1000
0001
0100
0010
,
0100
0010
0001
0001
1000
0010
0100
1000
,
0010
1000
0100
0100
0001
0001
1000
0010
,
0100
0000
0000
0000
0110
0000
0000
0000
1001
0000
0000
0000
1000
0001
1000
0001
,
1000
0000
0000
0000
0010
1000
0010
0100
0000
0100
0001
0000
0001
0010
0000
0100
,
1000
0000
0010
0100
0000
0100
0001
0000
1000
0001
0010
0000
0000
0011
0000
0000
,
1010
0000
0000
0000
0100
0010
0100
0001
0000
0001
1000
0000
1000
0010
0000
0010
,
0100
0000
0001
1000
0000
1000
0100
0000
0010
0000
1100
0000
0000
0001
0010
0001
,
0100
0000
0000
0000
0010
1000
0001
0010
0000
0001
1000
0000
0100
1000
0000
0001
,
1000
0000
0010
0100
0000
0010
1000
0000
0100
0010
0001
0000
0000
0101
0000
0000
,
1100
0000
0000
0000
0001
0010
0001
0010
0000
0010
0100
0000
0100
1000
0000
1000
,
0001
0000
0100
0010
0000
0010
1000
0001
1000
0000
0110
0000
0000
0100
0001
0100
,
0001
0000
0000
0000
1010
0000
0010
0100
0000
0010
1000
0000
0100
0010
0001
1000
,
0001
0000
0100
0010
0000
1000
0001
1000
0100
0000
0110
0000
0000
0011
0000
0000
,
1001
0000
0000
0000
1000
0100
1000
0100
0000
0010
0001
0000
0100
0010
0100
0001
,
1000
0000
0010
0100
0000
0100
0001
0010
0100
0000
1010
0000
0000
0001
1000
0100
,
1000
0000
0000
0000
0010
0100
0010
1000
0000
1000
0001
0010
0001
0100
0000
0100
,
0010
0000
1000
0001
0000
0001
1000
0100
0010
0000
0011
0000
0000
0101
0000
0000
,
1001
0000
0000
0000
0010
0000
1000
0010
0000
0100
0001
1000
0001
0010
0000
0100
,
1000
0000
0010
0100
0000
0100
0001
1000
0001
0000
1010
0000
0000
0010
0001
1000
,
0100
0000
0000
0011
0000
0000
0000
0000
;

//---------------dance-single - ----------------
#NOTEDATA:;
#CHARTNAME:;
#CHARTHASH:1914655429:
#STEPSTYPE:dance-single;
#BANNER:;
#DESCRIPTION:;
#CHARTSTYLE:;
#DIFFICULTY:Challenge;
#METER:18;
#METERF:0.000000;
#RADARVALUES:0.924235,0.872241,0.043227,0.201726,1.458913,898.000000,892.000000,6.000000,28.000000,0.000000,0.000000,0.000000,0.000000,0.000000,0.924235,0.872241,0.043227,0.201726,1.458913,898.000000,892.000000,6.000000,28.000000,0.000000,0.000000,0.000000,0.000000,0.000000;
#CREDIT:;
#DISPLAYBPM:128.000000;
#NOTES:
0000
0000
0000
0000
,
0000
0000
0000
0000
,
0000
0000
0000
0000
,
0000
0000
0000
0000
,
0011
0000
0001
1000
0010
0000
1000
0100
0000
0010
0000
0001
1000
0000
0100
0000
,
1000
0010
1000
0010
0100
0001
0010
0100
0000
1000
0000
0001
1000
0000
0010
0000
,
1100
0000
0100
0010
0001
0000
1000
0001
0000
1000
0000
0001
0010
0000
0100
0000
,
1000
0001
1000
0001
0010
0100
1000
0001
0000
0100
0000
0010
1000
0000
0001
0000
,
1001
0000
0010
0100
0001
0000
1000
0010
0000
0010
1000
0001
1000
0100
1000
0000
,
0010
0100
0010
0100
0010
1000
0010
0001
0000
0001
0100
1000
0001
1000
0100
0000
,
0001
0000
0010
0100
1000
0000
0001
0010
0000
0001
1000
0100
0010
0100
1000
0000
,
0100
1000
0001
0100
0010
1000
0100
0001
0000
0001
0100
1000
0010
1000
0001
0000
,
1010
0000
0001
0100
0001
0000
1000
0010
0000
1000
0100
0010
0001
1000
0001
0000
,
1000
0100
0010
0001
1000
0001
0100
0010
0000
0100
0001
1000
0001
0100
0010
0000
,
0001
0000
0010
1000
0001
0000
0100
1000
0000
1000
0010
1000
0001
0100
0010
0000
,
0100
0001
0100
0001
0010
0100
0001
1000
0000
1000
0001
1000
0010
0100
0001
1000
,
0001
0000
0010
0000
0100
0000
1000
0001
1000
0001
1000
0000
0010
0100
0000
0100
,
1000
0000
0010
0000
0001
0000
0010
0100
1000
0001
1000
0000
0100
0001
0000
0001
,
0010
0000
0100
0000
0001
0000
0100
1000
0100
1000
0001
0000
0010
0001
0000
0100
,
1000
0000
0100
0000
0001
0000
0010
0100
1000
0001
0010
0000
0100
1000
0000
1000
,
0001
0100
1000
0010
1000
0010
0100
0001
,
0010
0001
0100
1000
0010
0100
1000
0001
,
0100
0001
0010
0100
0010
1000
0010
0001
1000
0001
1000
0100
1000
0001
0100
0010
,
1000
0001
0100
0001
1000
0001
0100
0001
1000
0001
0100
0001
1000
0100
0010
0001
,
0200
0000
0000
0000
0301
0010
0100
1000
0010
0100
0001
1000
0100
0010
0100
1000
,
0001
0000
0010
0000
0100
0000
1000
0000
0000
0000
1000
0001
1000
0000
0010
0000
1000
0000
0100
0000
0010
0000
0001
0000
0100
0000
0010
0000
1000
0000
0001
0000
,
0020
0000
0000
0000
0031
1000
0001
0010
0100
1000
0010
1000
0100
0010
0100
1000
,
0001
0010
0100
1000
0000
0001
1000
0010
1000
0100
0020
0000
0031
1000
0100
1000
,
0002
0000
0000
0000
0013
0001
1000
0001
0010
1000
0010
0100
0010
1000
0010
0001
,
0100
0000
0010
0000
1000
0000
0001
0000
0000
0000
1000
0100
1000
0000
0001
0000
1000
0000
0010
0000
0100
0000
1000
0000
0100
0000
0001
0000
0010
0000
0001
0000
,
0200
0000
0000
0000
1300
0100
0001
1000
0010
0001
1000
0100
0001
1000
0010
0001
,
0100
0001
0010
1000
0000
0100
0010
0001
0100
0010
2000
0000
3001
1000
0010
0100
,
0002
0000
0000
0000
0013
0000
0001
1000
0000
1000
0100
0010
0001
1000
0001
0100
,
0020
0000
0000
0000
1030
0000
0100
0000
0000
0000
0100
0000
0010
0001
0010
0000
0200
0000
0000
0000
1300
0000
0001
0000
1000
0000
0010
0000
0100
0000
0001
0000
,
2000
0000
0000
0000
3010
1000
0001
1000
0100
0010
0100
0010
0001
0100
0001
0010
,
1000
0001
1000
0100
0000
0100
0010
0001
1000
0010
0200
0000
0301
1000
0100
1000
,
0020
0000
0000
0000
0130
0001
1000
0100
1000
0001
0100
0001
1000
0100
1000
0001
,
0100
0000
0010
0000
1000
0000
0001
0000
0000
0000
0010
0100
0010
0000
0001
0000
1000
0000
0010
0000
0100
0000
0001
0000
1000
0000
0100
0000
0010
0000
0001
0000
,
0200
0000
0000
0000
0301
0010
1000
0001
0100
1000
0001
0010
1000
0001
0100
1000
,
0010
0001
0100
1000
0100
1000
0001
0100
0010
1000
0001
0010
0100
1000
0001
0010
,
0100
0000
0000
0000
0000
0000
0000
0000
0000
0000
0000
0000
0000
0000
0000
0000
0000
0000
2020
0000
0000
0000
0000
0000
0000
0000
0000
0000
0000
0000
0000
0030
0000
0000
0000
0000
3001
0000
0000
1000
0000
0000
0001
0000
0000
1000
0000
0000
,
0001
0000
1000
0001
0010
0000
0100
1000
0000
1000
0100
0010
0001
1000
0100
0000
,
0001
0010
0001
1000
0010
0100
0010
0001
0000
1000
0100
1000
0001
0010
0100
0000
,
1000
0000
0010
1000
0100
0000
0001
0010
0000
1000
0001
0010
0001
1000
0100
0000
,
0001
1000
0100
1000
0010
0001
0100
1000
0000
0001
0010
0001
0010
0100
1000
0000
,
0010
0000
1000
0010
1000
0000
0100
0001
0000
0100
0010
1000
0001
0100
0010
0000
,
0001
0010
1000
0100
0010
1000
0001
1000
0000
0010
0001
0010
0100
1000
0001
0000
,
0100
0000
0001
1000
0010
0000
1000
0001
0000
0001
0100
0010
0100
1000
0100
0000
,
0001
0010
0001
1000
0001
0100
0010
0001
0000
0010
0001
1000
0100
0001
1000
0001
,
1000
0000
0010
0000
0100
0000
0001
0010
0000
0010
1000
0000
0100
0001
1000
0001
,
1000
0000
0010
0000
0001
0000
0100
0010
0001
1000
0100
0000
0010
1000
0001
1000
,
0001
0000
0010
0000
0100
0000
1000
0010
1000
0001
0100
0000
0010
0001
0100
0010
,
1000
0000
0100
0000
0001
0000
0010
1000
0010
0100
0001
0000
0100
1000
0001
0100
,
0010
0100
1000
0001
1000
0100
0010
0001
,
0010
1000
0100
0001
0010
1000
0100
0001
,
0010
1000
0100
0010
0001
0100
0010
0001
1000
0100
0001
1000
0001
0010
1000
0100
,
0001
1000
0100
1000
0001
1000
0100
1000
0001
1000
0100
1000
0001
0010
0100
1000
,
0020
0000
0000
0000
1030
0001
0010
0001
0100
0010
1000
0001
1000
0100
0010
0001
,
0100
0000
0010
0000
1000
0000
0100
0000
0000
0000
0010
0001
0100
0000
0010
0000
1000
0000
0001
0000
1000
0000
0100
0000
0010
0000
0001
0000
1000
0000
0010
0000
,
0200
0000
0000
0000
0301
0010
1000
0100
0010
0001
1000
0001
0100
0010
1000
0001
,
0010
0100
1000
0010
0000
0100
0001
1000
0001
0010
0200
0000
1300
0010
1000
0100
,
0002
0000
0000
0000
0013
0001
0100
1000
0010
1000
0100
0010
1000
0001
0100
0001
,
0010
0000
0100
0000
1000
0000
0001
0000
0000
0000
1000
0010
0100
0000
0001
0000
0010
0000
0001
0000
0100
0000
1000
0000
0010
0000
1000
0000
0100
0000
0010
0000
,
0002
0000
0000
0000
1003
0100
0010
1000
0100
0010
1000
0100
0010
1000
0100
0010
,
0001
0100
0010
1000
0000
0001
0010
0001
0100
0010
2000
0000
3100
0010
0100
1000
,
0002
0000
0000
0000
0013
0000
0001
0100
0000
1000
0010
0100
0010
1000
0001
0100
,
0002
0000
0000
0000
0013
0000
0100
0000
0000
0000
1000
0001
0010
0000
0100
0000
2000
0000
0000
0000
3001
0000
1000
0000
0100
0000
0010
0000
0001
0000
0100
0000
,
0020
0000
0000
0000
1030
0001
0010
0001
0100
1000
0010
0100
0010
1000
0100
0001
,
0010
0100
1000
0001
0000
0010
0001
0100
1000
0001
0200
0000
0310
0100
0001
1000
,
0002
0000
0000
0000
0103
0001
0010
1000
0100
0010
0100
1000
0010
1000
0001
0100
,
0010
0000
1000
0000
0100
0000
0001
0000
0000
0000
0100
0001
1000
0000
0100
0000
0010
0000
0001
0000
1000
0000
0001
0000
0010
0000
0100
0000
1000
0000
0010
0000
,
2000
0000
0000
0000
3100
0001
0010
0001
0010
0001
0100
0001
0100
0001
0010
0100
,
1000
0010
0100
0001
0000
0010
0001
1000
0010
0100
0001
1000
0001
0010
0100
1000
,
0010
0000
0000
0011
0000
0000
0000
0000
;

//---------------dance-single - ----------------
#NOTEDATA:;
#CHARTNAME:;
#CHARTHASH:0:
#STEPSTYPE:dance-single;
#BANNER:;
#DESCRIPTION:;
#CHARTSTYLE:;
#DIFFICULTY:Easy;
#METER:7;
#METERF:0.000000;
#RADARVALUES:0.320086,0.370042,0.316998,0.014409,0.000000,311.000000,267.000000,44.000000,2.000000,0.000000,0.000000,0.000000,0.000000,0.000000,0.320086,0.370042,0.316998,0.014409,0.000000,311.000000,267.000000,44.000000,2.000000,0.000000,0.000000,0.000000,0.000000,0.000000;
#CREDIT:;
#DISPLAYBPM:128.000000;
#NOTES:
0000
0000
0000
0000
,
0000
0000
0000
0000
,
0000
0000
0000
0000
,
0000
0000
0000
0000
,
0001
0100
1000
0000
,
0010
1000
0100
0000
,
0010
0001
0100
0000
,
1000
0010
0001
0000
,
0100
0010
0100
0010
,
1000
0100
0001
0000
,
0010
0001
0010
0001
,
0100
1000
0001
0000
,
0100
0001
0100
0001
,
0010
0100
1000
0000
,
0001
1000
0001
1000
,
0100
0010
0100
1000
,
1001
0010
1000
0100
,
0110
0001
0100
0010
,
1001
1000
0001
0100
,
0110
0001
0010
0100
,
1001
1000
0110
0001
,
1001
0100
0110
0010
,
1000
0100
0010
0001
,
1001
0110
1001
0110
,
1001
0010
1000
0001
,
1000
0100
0010
0001
,
0110
0010
0100
0001
,
0010
1000
0100
0010
,
1001
0100
0001
0010
,
0100
1000
0010
0100
,
0110
0001
0010
0100
,
1000
1000
1000
1000
,
1001
0100
0001
0010
,
0100
1000
0010
0100
,
0110
0001
0010
0001
,
0100
1000
0100
0010
,
1001
1000
0100
0001
,
0010
0100
0010
0001
,
0110
1000
0010
1000
,
0100
0010
0001
1000
,
1001
0000
0000
0120
0000
0000
0230
0000
,
1300
0010
1000
0010
,
0100
0001
1000
0000
,
0100
1000
0100
1000
,
0010
0100
0001
0000
,
0010
0100
0010
0100
,
1000
0010
0001
0000
,
1000
0001
1000
0001
,
0010
0100
1000
0010
,
1001
1000
0100
0010
,
0110
0001
0100
1000
,
1001
0010
1000
0001
,
0110
0010
0100
0001
,
1001
0010
0110
0100
,
1001
1000
0110
0001
,
1000
0100
0010
0001
,
1001
0110
1001
0110
,
1001
0010
1000
0100
,
0010
0001
0100
0010
,
0110
0010
1000
0100
,
0001
0010
0001
0100
,
1001
1000
0010
1000
,
0100
0010
0100
0010
,
0110
0001
0010
1000
,
0100
0100
0100
0100
,
1001
0001
0010
1000
,
0100
0010
0001
0100
,
0110
0100
0001
0010
,
0001
1000
0100
0010
,
1001
0100
0010
0100
,
0001
0010
1000
0001
,
0110
1000
0010
1000
,
0100
0010
0001
0100
,
1001
0000
0000
0110
0000
0000
0000
0000
;

//---------------dance-single - ----------------
#NOTEDATA:;
#CHARTNAME:;
#CHARTHASH:0:
#STEPSTYPE:dance-single;
#BANNER:;
#DESCRIPTION:;
#CHARTSTYLE:;
#DIFFICULTY:Beginner;
#METER:4;
#METERF:0.000000;
#RADARVALUES:0.157470,0.239505,0.187317,0.057636,0.000000,153.000000,127.000000,26.000000,8.000000,0.000000,0.000000,0.000000,0.000000,0.000000,0.157470,0.239505,0.187317,0.057636,0.000000,153.000000,127.000000,26.000000,8.000000,0.000000,0.000000,0.000000,0.000000,0.000000;
#CREDIT:;
#DISPLAYBPM:128.000000;
#NOTES:
// measure 0
0000
0000
0000
0000
,  // measure 1
0000
0000
0000
0000
,  // measure 2
0000
0000
0000
0000
,  // measure 3
0000
0000
0000
0000
,  // measure 4
1001
0000
0010
0000
,  // measure 5
1000
0000
0100
0000
,  // measure 6
0110
0000
0010
0000
,  // measure 7
0001
0000
0100
0000
,  // measure 8
1000
0000
1000
0000
,  // measure 9
0010
0000
0010
0000
,  // measure 10
0100
0000
0100
0000
,  // measure 11
0001
0000
0001
0000
,  // measure 12
0010
0000
0010
0000
,  // measure 13
0001
0000
0001
0000
,  // measure 14
0100
0000
0100
0000
,  // measure 15
1000
0000
1000
0000
,  // measure 16
1001
0000
0000
0000
,  // measure 17
0110
0000
0000
0000
,  // measure 18
1001
0000
0000
0000
,  // measure 19
0110
0000
0000
0000
,  // measure 20
1000
0000
0001
0000
,  // measure 21
0100
0000
0010
0000
,  // measure 22
1001
0000
0110
0000
,  // measure 23
1000
1000
1000
0000
,  // measure 24
1001
0000
0010
0000
,  // measure 25
1000
0000
0001
0000
,  // measure 26
0100
0000
0000
0200
0000
0000
0000
0000
,  // measure 27
0300
0000
0000
0000
0000
0110
0000
0000
,  // measure 28
0010
0000
1000
0000
,  // measure 29
0100
0000
0010
0000
,  // measure 30
0001
0000
0000
0002
0000
0000
0000
0000
,  // measure 31
0003
0000
0000
0000
0000
1001
0000
0000
,  // measure 32
0110
0000
1000
0000
,  // measure 33
0010
0000
1000
0000
,  // measure 34
0010
0000
0000
0020
0000
0000
0000
0000
,  // measure 35
0030
0000
0000
0000
0000
1001
0000
0000
,  // measure 36
0100
0000
0001
0000
,  // measure 37
0010
0000
0001
0000
,  // measure 38
1000
0000
0000
2000
0000
0000
0000
0000
,  // measure 39
3000
0000
0000
0000
0000
0010
0000
0000
,  // measure 40
0110
0000
0000
0000
,  // measure 41
0001
0000
0001
0000
,  // measure 42
0010
0000
0010
0000
,  // measure 43
0100
0000
0100
0000
,  // measure 44
1000
0000
1000
0000
,  // measure 45
0001
0000
0001
0000
,  // measure 46
1000
0000
1000
0000
,  // measure 47
0010
0000
0010
0000
,  // measure 48
0100
0000
0100
0000
,  // measure 49
1001
0000
0000
0000
,  // measure 50
0110
0000
0000
0000
,  // measure 51
1001
0000
0000
0000
,  // measure 52
0110
0000
0000
0000
,  // measure 53
0001
0000
0010
0000
,  // measure 54
0100
0000
1000
0000
,  // measure 55
1001
0000
0110
0000
,  // measure 56
0001
0001
0001
0000
,  // measure 57
1001
0000
0100
0000
,  // measure 58
0010
0000
0100
0000
,  // measure 59
0001
0000
0000
0002
0000
0000
0000
0000
,  // measure 60
0003
0000
0000
0000
0000
0110
0000
0000
,  // measure 61
1001
0000
0100
0000
,  // measure 62
0001
0000
0010
0000
,  // measure 63
1000
0000
0000
2000
0000
0000
0000
0000
,  // measure 64
3000
0000
0000
0000
0000
0001
0000
0000
,  // measure 65
0110
0000
0010
0000
,  // measure 66
1000
0000
0100
0000
,  // measure 67
0010
0000
0000
0020
0000
0000
0000
0000
,  // measure 68
0030
0000
0000
0000
0000
1001
0000
0000
,  // measure 69
0110
0000
0001
0000
,  // measure 70
0100
0000
1000
0000
,  // measure 71
0100
0000
0000
0100
0000
0000
0000
0000
,  // measure 72
0010
0010
0010
0000
,  // measure 73
0100
0000
0000
0200
0000
0000
0000
0300
;
